#TITLE:Everybody's Free;
#SUBTITLE:(Dance Nation Mix);
#ARTIST:Aquagen feat. ROZALLA;
#TITLETRANSLIT:;
#SUBTITLETRANSLIT:;
#ARTISTTRANSLIT:;
#CREDIT:;
#BANNER:bn.PNG;
#BACKGROUND:bg.png;
#LYRICSPATH:;
#CDTITLE:;
#MUSIC:Everybody's Free (Dance Nation Mix)(.mp3;
#OFFSET:-1.020;
#SAMPLESTART:39.620;
#SAMPLELENGTH:12.000;
#SELECTABLE:YES;
#BPMS:0.000=146.000;
#STOPS:284.000=4.110
;
#BGCHANGES:;

//---------------dance-single - ----------------
#NOTES:
     dance-single:
     :
     Hard:
     7:
     0.354,0.541,0.040,0.231,0.374:
0000
0000
0000
0000
,
0000
0000
0000
0000
,
0000
0000
0000
0000
,
0000
0000
0000
0000
,
0020
0000
0030
0000
,
0000
0000
0000
0000
,
0200
0000
1300
0000
,
0000
0000
0000
0000
,
0001
0000
0000
1000
0000
0100
0000
0000
0010
0000
0000
0001
0000
0010
0000
0000
,
0001
0000
0000
0100
0000
0010
0000
0000
0001
0000
0000
1000
0000
0001
0000
0000
,
1000
0000
0000
0100
0000
1000
0000
0000
0010
0000
0000
0100
0000
0010
0000
0000
,
0001
0000
0000
1000
0000
0001
0000
0000
0100
0000
0000
0001
0000
0100
0000
0000
,
0010
0000
0000
1000
0000
0010
0000
0000
0100
0000
0000
0010
0000
0100
0000
0000
,
0001
0000
0000
1000
0000
0100
0000
0000
1000
0000
0000
0100
0000
1000
0000
0000
,
0100
0000
0000
0010
0000
0100
0000
0000
0001
0000
0000
0100
0000
0001
0000
0000
,
0010
0000
0000
0001
0000
0010
0000
0000
0001
0000
0000
0000
1000
0000
0000
0000
,
0010
0000
0000
0100
0000
0100
0000
0000
0010
0000
0000
1000
0000
1000
0000
0000
,
0010
0000
0000
0100
0000
0100
0000
0000
0010
0000
0000
1000
0000
1000
0000
0000
,
0001
0000
0000
1000
0000
1000
0000
0000
0001
0000
0000
0100
0000
0100
0000
0000
,
0001
0000
0000
0010
0000
0010
0000
0000
0001
0000
0000
0100
0000
0100
0000
0000
,
1000
0000
0000
0100
0000
0100
0000
0000
1000
0000
0000
0010
0000
0010
0000
0000
,
1000
0000
0000
0001
0000
0001
0000
0000
1000
0000
0000
0100
0000
0100
0000
0000
,
0010
0000
0000
0100
0000
0100
0000
0000
0010
0000
0000
1000
0000
1000
0000
0000
,
0001
0000
0000
1000
0000
1000
0000
0000
0001
0000
0000
0100
0000
0100
0000
0000
,
0020
0100
0100
0100
,
0100
0100
0100
0130
,
1001
0000
0000
1000
0000
0001
0000
0000
0100
0000
0000
0010
0000
1000
0000
0000
,
0010
0000
0000
0100
0000
0010
0000
0000
1000
0000
0100
0000
0010
0000
0001
0000
,
0020
0001
0001
0001
,
0001
0001
0001
0031
,
0011
0000
0000
0001
0000
0100
0000
0000
0010
0000
0000
1000
0000
0100
0000
0000
,
1000
0000
0000
0100
0000
0010
0000
0000
0001
0000
0000
0000
1000
0000
0000
0000
,
2002
0000
0000
0000
,
0000
0000
0000
3000
,
0003
0000
0000
0000
,
0000
0000
0000
0000
,
0220
0000
0000
0000
,
0000
0000
0000
0300
,
0030
0000
0000
0000
,
0000
0000
0000
0000
,
0002
0000
2003
0000
,
3002
0000
0000
0000
0000
0000
0000
0000
2003
0000
0000
0000
0000
0000
0000
3000
,
0002
0000
0000
0000
0000
0000
0000
0003
0200
0000
0000
0000
0000
0000
0000
0000
,
0320
0000
2030
0000
,
3020
0000
2030
0000
,
3002
0000
2003
0000
,
3002
0000
0200
0000
,
0303
0000
0000
0000
,
1000
0000
0001
0000
0010
0000
0100
0000
0001
1000
0001
0000
1000
0000
0001
0000
,
1000
0001
0100
1000
0100
0001
1000
0010
,
0100
0000
0010
0000
1000
0000
0100
0000
0010
0100
0010
0000
1000
0000
0001
0000
,
0100
0000
0001
0000
0010
0000
0100
0000
0001
1000
0001
0000
1000
0000
0100
0000
,
0001
0000
0010
0000
0001
0000
0010
0000
0001
1000
0001
0000
0010
0000
1000
0000
,
0001
0010
0100
1000
0001
1000
0001
0100
,
0001
1000
0001
0100
0010
1000
0100
1000
,
0010
0000
0001
0000
1000
0000
0001
0000
1000
0100
1000
0000
0001
0000
1000
0000
,
0100
0000
0000
1000
0000
0000
0100
0000
0010
0000
0000
0001
0000
0000
1000
0000
,
0001
0000
0000
0100
0000
0000
0010
0000
1000
0000
0000
0010
0000
0000
2000
0000
,
0000
0200
0000
0000
0000
0000
3300
0000
,
0000
0000
0000
0000
,
0001
0000
0000
1000
0000
0000
0001
0000
0100
0000
0000
0010
0000
0000
1000
0000
,
0100
0000
0000
0010
0000
0000
0100
0000
0001
0000
0000
0100
0000
0000
0020
0000
,
0000
0000
0030
0000
,
0000
0000
0000
0000
,
1000
0000
0000
0001
0000
0000
1000
0000
0010
0000
0000
1000
0000
0000
0010
0000
,
0100
0000
0000
0001
0000
0000
1000
0000
0001
0000
0000
0100
0000
0000
0010
0000
,
0220
0000
0330
0000
,
1000
1000
0001
0001
,
1000
0000
0000
0001
0000
0000
0100
0000
0010
0000
0000
0100
0000
0000
0010
0000
,
1000
0000
0000
0000
0000
0000
1000
0000
0100
0000
0000
1000
0000
0000
0002
0000
,
0000
2000
0000
0000
0000
0000
0000
0000
,
0000
3000
0003
0000
;

//---------------dance-single - ----------------
#NOTES:
     dance-single:
     :
     Medium:
     5:
     0.307,0.367,0.080,0.486,0.000:
0000
0000
0000
0000
,
0000
0000
0000
0000
,
0000
0000
0000
0000
,
0000
0000
0000
0000
,
0002
0000
0003
0000
,
0000
0000
0000
0000
,
1000
0000
0001
0000
,
0000
0000
0000
0110
,
0020
0130
0020
1030
,
0020
0130
0020
1030
,
0002
0103
0002
1003
,
0002
0103
0002
1003
,
2000
3100
2000
3010
,
2000
3100
2000
3010
,
0200
0310
0200
0301
,
0200
0310
0200
0301
,
0002
1000
1000
1003
,
2000
0100
0100
3100
,
0020
0100
0100
0130
,
0200
0010
0010
0310
,
0002
1000
1000
1003
,
2000
0100
0100
3100
,
0020
0001
0001
0031
,
0200
0001
0001
0301
,
1002
1000
1000
1000
,
1000
1000
1003
1002
,
2000
0000
3003
0000
,
0020
0030
0100
0010
,
0120
0100
0100
0100
,
0100
0100
0100
0230
,
0310
0010
1000
1020
,
0130
0000
0001
0000
0100
0010
1000
0002
,
0200
0000
0000
0000
,
0000
0000
0000
0300
,
0003
0000
0000
0000
,
0000
0000
0000
0000
1000
0001
1000
0002
,
0000
2000
0000
0000
0000
0000
0000
0000
,
0000
0000
0000
0003
,
3000
0000
0000
0020
,
0200
0030
0300
0000
,
0002
0000
2003
0000
,
3002
0000
0203
0000
,
0320
0000
2030
0000
,
3020
0000
0230
0000
,
0320
0000
2030
0000
,
3002
0000
2003
0000
,
3002
0000
0200
0000
,
0000
0000
0000
0303
,
0001
0000
0001
0000
0001
1000
0001
0000
,
0100
0010
1000
0010
,
0100
0000
0001
0000
1000
0100
1000
0000
,
0010
0000
0100
0000
0001
0100
0001
0000
,
1000
0000
1000
0000
0001
0100
0001
0000
,
0010
0000
0100
0000
0010
0100
0010
0000
,
1000
0000
0001
0000
1000
0001
0100
0000
,
0010
0000
0100
0000
0010
1000
0010
0000
,
2100
0100
0100
0100
,
0010
0010
0010
0010
,
0002
0000
0000
0000
,
3000
0000
0000
0003
,
0102
0100
0100
0100
,
0010
0010
0010
0010
,
2000
0000
0000
0000
,
0003
0000
0000
3000
,
1020
1000
1000
1000
,
0100
0100
0100
0100
,
0230
0000
0002
0000
,
0303
0000
0000
0000
,
0012
0010
0010
0010
,
0013
0000
2000
0100
,
0100
0100
0010
3001
,
1001
0000
0000
0000
;

//---------------dance-single - ----------------
#NOTES:
     dance-single:
     :
     Easy:
     2:
     0.115,0.170,0.016,0.127,0.000: // measure 1
0000
0000
0000
0000
,  // measure 2
0000
0000
0000
0000
,  // measure 3
0000
0000
0000
0000
,  // measure 4
0000
0000
0000
0000
,  // measure 5
0001
0000
0000
0000
,  // measure 6
0000
0000
0000
0000
,  // measure 7
1000
0000
0010
0000
,  // measure 8
0000
0000
0000
0000
,  // measure 9
0100
0000
0100
0000
,  // measure 10
0100
0000
0100
0000
,  // measure 11
0010
0000
0010
0000
,  // measure 12
0010
0000
0010
0000
,  // measure 13
1000
0000
1000
0000
,  // measure 14
1000
0000
1000
0000
,  // measure 15
0001
0000
0001
0000
,  // measure 16
0001
0000
0001
0000
,  // measure 17
0100
0000
0010
0000
,  // measure 18
1000
0000
0001
0000
,  // measure 19
1000
0000
0001
0000
,  // measure 20
0100
0000
0010
0000
,  // measure 21
1000
0000
0010
0000
,  // measure 22
0100
0000
0001
0000
,  // measure 23
1000
0000
0001
0000
,  // measure 24
1000
0000
0010
0000
,  // measure 25
0200
0000
0000
0000
,  // measure 26
0000
0000
0300
0010
,  // measure 27
0010
0000
0000
0000
,  // measure 28
0000
0000
0001
0001
,  // measure 29
2000
0000
0000
0000
,  // measure 30
0000
0000
3000
0001
,  // measure 31
0001
0000
0000
1000
,  // measure 32
1000
0000
0010
0100
,  // measure 33
0020
0000
0000
0000
,  // measure 34
0000
0000
0000
0000
,  // measure 35
0030
0000
0000
0000
,  // measure 36
0000
0000
0000
0000
,  // measure 37
0200
0000
0000
0000
,  // measure 38
0000
0000
0000
0000
,  // measure 39
0300
0000
0000
0020
,  // measure 40
0030
0000
0000
0000
,  // measure 41
1000
0000
0000
0000
,  // measure 42
0001
0000
0000
0000
,  // measure 43
0100
0000
0000
0000
,  // measure 44
0010
0000
0000
0000
,  // measure 45
1000
0000
0000
0000
,  // measure 46
0001
0000
0000
0000
,  // measure 47
0000
0000
2002
0000
,  // measure 48
0000
0000
3003
0000
,  // measure 49
0001
0000
1000
0000
,  // measure 50
0001
0000
0100
0000
,  // measure 51
0010
0000
0010
0000
,  // measure 52
1000
0000
0010
0000
,  // measure 53
0100
0000
0100
0000
,  // measure 54
0010
0000
1000
0000
,  // measure 55
0001
0000
1000
0000
,  // measure 56
0001
0000
0100
0000
,  // measure 57
0020
0000
0000
0000
,  // measure 58
2000
0000
0000
0000
,  // measure 59
0030
0000
0000
0000
,  // measure 60
3000
0000
0000
0000
,  // measure 61
0002
0000
0000
0000
,  // measure 62
0020
0000
0000
0000
,  // measure 63
0003
0000
0000
0000
,  // measure 64
0030
0000
0000
0000
,  // measure 65
0002
0000
0000
0000
,  // measure 66
2000
0000
0000
0000
,  // measure 67
0003
0000
3000
0000
,  // measure 68
0000
0000
0000
0000
,  // measure 69
0020
0000
0000
0000
,  // measure 70
0200
0000
0030
0000
,  // measure 71
0020
0000
0000
0330
,  // measure 72
1001
0000
0000
0000
;

//---------------dance-single - ----------------
#NOTES:
     dance-single:
     :
     Beginner:
     1:
     0.077,0.141,0.024,0.000,0.000:
0000
0000
0000
0000
,
0000
0000
0000
0000
,
0000
0000
0000
0000
,
0000
0000
0000
0000
,
0000
0000
0000
0000
,
0000
0000
0000
0000
,
0000
0000
0000
0000
,
0000
0000
0000
0000
,
0001
0000
0000
0000
,
0001
0000
0000
0000
,
0100
0000
0000
0000
,
0100
0000
0000
0000
,
1000
0000
0000
0000
,
1000
0000
0000
0000
,
0010
0000
0000
0000
,
0010
0000
0000
0000
,
0001
0000
0000
0000
,
0001
0000
0000
0000
,
1000
0000
0000
0000
,
1000
0000
0000
0000
,
0010
0000
0000
0000
,
0010
0000
0000
0000
,
0100
0000
0000
0000
,
0100
0000
0000
0000
,
1000
0000
0000
0000
,
0000
0000
0000
0001
,
0001
0000
0000
0000
,
0000
0000
0000
0000
,
0010
0000
0000
0000
,
0000
0000
0000
0100
,
0100
0000
0000
1000
,
1000
0000
0000
0000
,
1001
0000
0000
0000
,
0000
0000
0000
1000
,
1000
0000
0000
0000
,
0000
0000
0000
0000
,
0110
0000
0000
0000
,
0000
0000
0000
0010
,
0010
0000
0000
0100
,
0100
0000
0000
0000
,
1000
0000
0000
0000
,
0000
0000
0000
0000
,
0001
0000
0000
0000
,
0000
0000
0000
0000
,
0010
0000
0000
0000
,
0000
0000
0000
0000
,
0100
0000
0000
0000
,
0000
0000
0000
0000
,
1000
0000
0000
0000
,
0001
0000
0000
0000
,
0100
0000
0000
0000
,
0010
0000
0000
0000
,
1000
0000
0000
0000
,
0001
0000
0000
0000
,
1000
0000
0000
0000
,
0001
0000
0000
0000
,
0100
0000
0100
0000
,
0100
0000
0100
0000
,
0100
0000
0000
0000
,
0000
0000
0000
0000
,
0010
0000
0010
0000
,
0010
0000
0010
0000
,
0000
0000
0000
0000
,
0000
0000
0000
0000
,
1000
0000
1000
0000
,
1000
0000
1000
0000
,
1000
0000
1000
0000
,
0000
0000
0000
0000
,
0001
0000
0001
0000
,
0001
0000
0001
0000
,
0001
0000
0000
0000
,
1001
0000
0000
0000
;
