#TITLE:EXE;
#SUBTITLE:;
#ARTIST:Mr.T;
#TITLETRANSLIT:;
#SUBTITLETRANSLIT:;
#ARTISTTRANSLIT:;
#CREDIT:;
#BANNER:bn.PNG;
#BACKGROUND:bg.PNG;
#LYRICSPATH:;
#CDTITLE:;
#MUSIC:EXE.mp3;
#OFFSET:-6.100;
#SAMPLESTART:6.100;
#SAMPLELENGTH:12.000;
#SELECTABLE:YES;
#BPMS:0.000=158.000;
#STOPS:223.500=0.380
;
#BGCHANGES:;

//---------------dance-single - ----------------
#NOTES:
     dance-single:
     :
     Hard:
     9:
     0.561,0.585,0.116,0.019,0.290: // measure 1
0000
1000
0100
0010
0000
0100
0001
1000
,  // measure 2
0000
0100
1000
0100
0000
0010
1000
0001
,  // measure 3
0100
0000
1100
0000
0010
1000
0001
0000
,  // measure 4
0100
1000
0100
0010
0001
0010
0100
1000
,  // measure 5
0000
0001
0100
0010
0000
0100
1000
0001
,  // measure 6
0000
0100
1000
0001
0000
0100
1000
0100
,  // measure 7
2000
0000
3001
0000
0010
1000
0001
0000
,  // measure 8
0010
0100
0001
1000
0010
0100
0001
0000
,  // measure 9
1000
0100
1000
0000
0010
0000
0000
0000
0010
0000
0000
0000
1000
0000
0000
0000
,  // measure 10
0100
0000
0000
0000
0010
0000
0001
0100
0001
0000
1000
0000
0010
0000
0100
0000
,  // measure 11
0001
1000
0010
0000
0100
0000
0000
0000
1000
0000
0000
0000
0010
0000
0000
0000
,  // measure 12
0100
0000
0000
0000
0001
0000
0010
1000
0010
0000
1000
0000
0010
0000
0001
0000
,  // measure 13
0010
0001
0010
0000
0000
0000
0010
0100
0010
0000
0000
0000
0100
0000
0000
0000
,  // measure 14
1000
0000
0000
0000
0010
0000
0001
0100
0001
0000
0100
0000
0010
0000
1000
0000
,  // measure 15
0000
0010
0100
0000
0000
1000
0100
0000
0000
0010
0001
0000
0000
0010
0100
0000
,  // measure 16
0000
1000
0100
0000
0000
0010
0001
0000
0000
0010
0100
0000
0000
1000
0100
0000
,  // measure 17
0001
1000
0001
0000
0100
0000
0000
0000
0100
0000
0000
0000
0001
0000
0000
0000
,  // measure 18
1000
0000
0000
0000
0100
0000
0010
1000
0010
0000
0001
0000
0100
0000
1000
0000
,  // measure 19
0010
0001
0100
0000
1000
0000
0000
0000
0001
0000
0000
0000
0100
0000
0000
0000
,  // measure 20
1000
0000
0000
0000
0010
0000
0100
0001
0100
0000
1000
0000
0001
0000
1000
0000
,  // measure 21
0100
0010
0100
0000
0000
0000
0100
1000
0100
0000
0000
0000
1000
0000
0000
0000
,  // measure 22
0001
0000
0000
0000
0100
0000
0010
1000
0010
0000
1000
0000
0100
0000
0001
0000
,  // measure 23
0000
0100
1000
0000
0000
0001
1000
0000
0000
0100
0010
0000
0000
0100
1000
0000
,  // measure 24
0000
0001
1000
0000
0000
0100
0010
0000
0000
0100
1000
0000
0000
0001
1000
0000
,  // measure 25
0110
0000
0000
1010
,  // measure 26
0101
0000
0000
1100
0000
0000
0011
0000
,  // measure 27
0110
0000
0000
1010
0000
0000
0101
0000
,  // measure 28
1100
0000
0000
0011
0000
0000
0010
0000
,  // measure 29
0100
0000
0000
1000
0000
0000
0100
0000
,  // measure 30
0010
0000
0000
0001
0000
0000
0100
0000
,  // measure 31
1000
0000
0000
0010
0000
0000
0100
0000
,  // measure 32
0001
0100
1000
0100
,  // measure 33
0000
0001
1000
0001
1000
0010
1000
0001
,  // measure 34
1000
0100
0010
0001
0010
0100
1000
0100
,  // measure 35
0000
1000
0100
0010
0001
0010
0100
0010
,  // measure 36
0001
1000
0010
1000
0001
0000
1000
0100
,  // measure 37
1100
0000
0000
1000
0100
0010
0001
0010
,  // measure 38
0100
0100
0000
0001
0100
1000
0100
0001
,  // measure 39
0010
1000
0100
0010
0001
0010
1000
0100
,  // measure 40
0010
0002
0010
0103
,  // measure 41
1000
0001
1000
0000
0000
0000
0000
0000
0000
0000
0000
0000
0000
0000
0000
0000
,  // measure 42
0000
0000
0000
0000
0000
0000
0010
0100
0010
0000
0100
0000
0010
0000
1000
0000
,  // measure 43
0010
1000
0010
0000
0000
0000
0001
0000
0001
0000
0000
0000
0000
0000
0000
0000
,  // measure 44
0000
0000
0000
0000
0000
0000
1000
0100
1000
0000
0010
0000
0100
0000
0010
0000
,  // measure 45
1000
0001
1000
0000
0000
0000
0010
0000
0100
0000
0000
0000
0000
0000
0000
0000
,  // measure 46
0000
0000
0000
0000
0000
0000
1000
0100
1000
0000
0010
0000
0100
0000
0010
0000
,  // measure 47
0000
1000
0100
0000
0000
0001
0010
0000
0000
1000
0001
0000
0000
0010
0100
0000
,  // measure 48
0000
0000
0010
1000
0000
0000
0100
0010
0001
0000
0000
0100
0000
0010
1000
0000
,  // measure 49
0100
0010
0100
0000
0001
0000
0000
0000
0010
0000
0000
0000
1000
0000
0010
0100
,  // measure 50
0010
0000
0000
0000
0000
0000
1000
0001
1000
0000
0001
0000
1000
0000
0100
0000
,  // measure 51
1000
0100
1000
0000
0000
0000
0010
0000
0010
0000
0000
0000
0000
0000
0100
0010
,  // measure 52
1000
0000
0000
0000
0000
0000
0100
0001
0100
0000
1000
0000
0001
0000
1000
0000
,  // measure 53
0100
0010
0100
0000
0000
0000
1000
0000
0001
0000
0000
0100
1000
0100
0010
0001
,  // measure 54
0100
0000
0000
0000
0000
0000
0100
0001
0100
0000
1000
0000
0001
0000
1000
0010
,  // measure 55
0100
1000
0000
0100
0000
0010
0000
0001
,  // measure 56
0000
0100
0000
1000
0000
0010
0000
0100
,  // measure 57
0001
0010
1000
0000
0000
0100
1000
0000
,  // measure 58
0010
0100
0010
1000
0001
0100
0010
0000
,  // measure 59
0000
0001
0100
0000
0000
0010
0100
0000
,  // measure 60
1000
0100
0010
0100
0001
1000
0010
0000
,  // measure 61
0000
0100
1000
0000
0000
0010
1000
0000
,  // measure 62
0001
0000
0100
0000
0001
0100
0010
0000
,  // measure 63
0000
1000
0100
0000
0000
0010
1000
0000
,  // measure 64
1000
0000
0001
0010
0001
0010
0000
0100
0000
1000
0001
0000
0000
0000
0000
0000
;

//---------------dance-single - ----------------
#NOTES:
     dance-single:
     :
     Medium:
     6:
     0.366,0.431,0.097,0.068,0.000: // measure 1
0000
1000
0100
1000
0000
0001
0100
0001
,  // measure 2
0000
1000
0100
1000
0000
0001
1000
0000
,  // measure 3
1001
1000
0001
0100
,  // measure 4
0010
1000
0001
0100
,  // measure 5
0100
0001
0100
0001
0000
1000
0100
1000
,  // measure 6
0000
0010
1000
0010
0000
0001
0100
0001
,  // measure 7
0100
1000
0100
0010
,  // measure 8
0002
0000
0000
0000
,  // measure 9
1003
0001
0000
0000
0000
0000
0000
0000
,  // measure 10
0000
0000
0000
1000
0100
0010
0001
0010
,  // measure 11
0100
1000
0000
0001
0001
0000
0000
0000
,  // measure 12
0000
0000
0000
0001
1000
0001
1000
0001
,  // measure 13
0010
1000
0000
0001
0100
0000
0000
0000
,  // measure 14
0000
0000
0000
1000
0100
0010
0001
0010
,  // measure 15
0001
0010
0000
0000
0000
0000
0000
0000
,  // measure 16
0000
0000
0000
0000
,  // measure 17
0001
1000
0000
0000
0000
0000
0000
0000
,  // measure 18
0000
0000
0000
0010
0100
0001
1000
0010
,  // measure 19
1000
0010
0000
1000
0100
0000
0000
0000
,  // measure 20
0000
0000
0000
0001
0010
0100
1000
0100
,  // measure 21
0010
0001
0000
0001
0001
0000
0000
0000
,  // measure 22
0000
0000
0000
0001
0010
0100
1000
0100
,  // measure 23
0010
0001
0000
0000
0000
0000
0000
0000
,  // measure 24
0000
0000
0000
0000
0000
0000
1000
0100
,  // measure 25
2000
0000
3000
0100
,  // measure 26
1000
0000
0000
1000
0000
0000
1000
0000
,  // measure 27
0100
0000
0000
0010
0000
0000
0001
0000
,  // measure 28
0100
0000
0000
0010
0000
0000
0100
0000
,  // measure 29
1000
0000
0000
1100
0000
0000
0010
0000
,  // measure 30
0001
0000
0000
0011
0000
0000
0001
0000
,  // measure 31
0100
0000
0000
0101
0000
0000
0100
0000
,  // measure 32
2000
3100
0020
0031
,  // measure 33
1000
1100
0010
0011
,  // measure 34
1000
0100
0010
0001
0010
0100
1000
0100
,  // measure 35
0000
1100
0010
0011
,  // measure 36
1000
0001
1000
0001
1000
0000
0100
1000
,  // measure 37
1100
0000
0010
0100
,  // measure 38
1000
0100
0000
0010
0001
0010
0001
0010
,  // measure 39
0001
0010
0100
1000
,  // measure 40
0010
0000
0001
0200
0301
0000
0000
0000
,  // measure 41
0010
0001
0000
0000
0000
0000
0000
0000
,  // measure 42
0000
0000
1000
0100
,  // measure 43
0001
1000
0000
0100
0100
0000
0000
0000
,  // measure 44
0000
0000
0000
1000
0100
0010
0001
0010
,  // measure 45
0100
0001
0000
0010
1000
0000
0000
0000
,  // measure 46
0000
0000
0000
1000
0100
0010
0001
0010
,  // measure 47
0001
0010
0000
0000
0000
0000
0000
0000
,  // measure 48
0000
0000
0000
0000
,  // measure 49
0001
1000
0000
0000
0000
0000
0000
0100
,  // measure 50
0100
0000
0000
1000
0100
0010
0001
0010
,  // measure 51
0100
0001
0000
0000
0000
0000
0000
0010
,  // measure 52
0010
0000
0000
1000
0100
0010
0001
0010
,  // measure 53
0100
1000
0000
0001
1000
0000
1000
0100
,  // measure 54
0010
0000
0000
0001
0100
0001
0100
0010
,  // measure 55
2000
0002
0000
0000
0000
0000
0000
0000
,  // measure 56
3003
0000
0000
0000
,  // measure 57
0110
0100
1000
0100
,  // measure 58
0010
0000
0001
0000
0100
0001
0100
0000
,  // measure 59
1000
0100
0010
0001
,  // measure 60
0010
0000
0100
0000
1000
0001
0100
0000
,  // measure 61
1000
0100
0010
0001
,  // measure 62
0100
0000
1000
0000
0010
1000
0001
0000
,  // measure 63
0100
1000
0100
0010
,  // measure 64
0001
0000
0010
0000
1000
0001
0000
0000
;

//---------------dance-single - ----------------
#NOTES:
     dance-single:
     :
     Easy:
     3:
     0.203,0.308,0.087,0.068,0.000: // measure 1
1000
0000
0001
0000
,  // measure 2
1000
0000
0001
0000
,  // measure 3
0101
0000
1000
0000
,  // measure 4
1000
0100
0010
0001
,  // measure 5
0101
0000
1000
0000
,  // measure 6
0010
0000
0001
0000
,  // measure 7
1001
0000
1000
0000
,  // measure 8
0200
0000
0000
0000
,  // measure 9
0301
0000
0000
0000
,  // measure 10
0000
0000
1000
0100
,  // measure 11
0001
0000
0100
0000
,  // measure 12
0000
0000
0010
1000
,  // measure 13
0001
0000
0100
0000
,  // measure 14
0000
0000
1000
0001
,  // measure 15
0100
0000
0000
0000
,  // measure 16
0000
0000
0000
0000
,  // measure 17
1001
0000
0000
0000
,  // measure 18
0000
0000
0010
1000
,  // measure 19
0100
0000
0001
0000
,  // measure 20
0000
0000
1000
0001
,  // measure 21
0100
0000
0010
0000
,  // measure 22
0000
0000
1000
0100
,  // measure 23
0001
0000
0000
0000
,  // measure 24
0000
0000
0000
1000
,  // measure 25
0002
0000
0000
1003
,  // measure 26
1000
0000
0000
0001
,  // measure 27
0001
0000
0000
0100
,  // measure 28
0100
0000
0000
0010
,  // measure 29
0010
1000
0000
1000
,  // measure 30
0000
1000
0000
0001
,  // measure 31
0000
0100
0000
0010
,  // measure 32
2000
3100
0002
0003
,  // measure 33
0000
1000
0001
0100
,  // measure 34
1000
0100
0010
0001
,  // measure 35
0000
1000
0001
0100
,  // measure 36
0002
0100
0103
1000
,  // measure 37
1100
0000
1000
0100
,  // measure 38
0001
0000
0001
0010
,  // measure 39
0100
1000
0001
0100
,  // measure 40
0010
0000
1001
0000
,  // measure 41
0001
0000
0000
0000
,  // measure 42
0000
0000
1000
0100
,  // measure 43
1000
0000
0010
0000
,  // measure 44
0000
0000
0001
0100
,  // measure 45
0001
0000
1000
0000
,  // measure 46
0000
0000
1000
0100
,  // measure 47
0001
0000
0000
0000
,  // measure 48
0000
0000
0000
0000
,  // measure 49
0010
0000
0000
0000
,  // measure 50
1001
0000
1000
0100
,  // measure 51
0001
0000
0010
0000
,  // measure 52
0110
0000
0001
0100
,  // measure 53
1000
0000
0010
0001
,  // measure 54
1001
0000
1000
0200
,  // measure 55
0002
0000
0000
0000
,  // measure 56
0303
0000
0000
0000
,  // measure 57
1000
0000
0001
0000
,  // measure 58
1000
0000
0100
0000
,  // measure 59
0010
0000
0001
0000
,  // measure 60
0100
0000
0010
0000
,  // measure 61
1000
0000
0001
0000
,  // measure 62
0100
0000
0010
0000
,  // measure 63
1000
0000
0001
0000
,  // measure 64
0010
0000
0000
0000
1000
0001
0000
0000
;

//---------------dance-single - ----------------
#NOTES:
     dance-single:
     :
     Challenge:
     10:
     0.686,0.677,0.097,0.116,0.450: // measure 1
0000
1000
0100
0020
0000
0130
0001
2000
,  // measure 2
0000
3010
0100
0002
0000
1003
0100
0000
,  // measure 3
0010
0100
0000
0000
0000
0010
0000
0000
0010
1000
0000
0100
0000
0001
0010
0000
,  // measure 4
0100
1000
0100
0020
0000
0031
0000
0100
,  // measure 5
0010
0100
1000
0200
0000
0310
1000
0002
,  // measure 6
0000
0103
0010
2000
0000
3100
0010
0000
,  // measure 7
1000
0001
0000
0000
0000
1000
0000
0000
1000
0100
0000
0001
0000
0010
1000
0000
,  // measure 8
0001
0100
0001
2000
0000
3010
0000
0001
,  // measure 9
1000
0100
1000
0000
0010
0000
0100
0000
0010
0000
1000
0000
0001
0000
0100
0000
,  // measure 10
0001
0000
1000
0000
0010
0000
0010
0100
0010
0000
1000
0000
0001
0000
0100
0000
,  // measure 11
0010
1000
0010
0000
0100
0000
0001
0100
0010
0000
0000
0000
0010
0000
0000
0000
,  // measure 12
0100
0000
1000
0000
0100
0000
0010
0100
0010
0000
1000
0000
0001
0000
0100
0000
,  // measure 13
0001
0100
0001
0000
0100
0000
0010
1000
0010
0000
0000
0000
1100
0000
0000
0000
,  // measure 14
0010
0000
1000
0000
0010
0000
0001
0100
0001
0000
0100
0000
0010
0000
0100
0000
,  // measure 15
0000
0001
1000
0000
0000
0100
1000
0000
0000
0010
0100
0000
0000
0001
0100
0000
,  // measure 16
0000
1000
0100
0000
0000
0010
1000
0001
0100
0000
0000
0010
0000
0001
1000
0000
,  // measure 17
0010
1000
0010
0000
0100
0000
0000
0000
0010
0000
0001
0000
0010
0000
0000
0000
,  // measure 18
0100
0000
1000
0000
0100
0000
0010
1000
0010
0000
0100
0000
0001
0000
1000
0000
,  // measure 19
0100
1000
0100
0000
0010
0000
0100
1000
0001
0000
0000
0000
0100
0000
0000
0000
,  // measure 20
1000
0000
0100
0000
0010
0000
0001
1000
0001
0000
0100
0000
0010
0000
1000
0000
,  // measure 21
1000
0100
0010
0000
0000
0000
0001
0100
0010
0000
0000
0000
0100
0000
0000
0000
,  // measure 22
0010
0000
1000
0000
0010
0000
0001
0100
0001
0000
0100
0000
0010
0000
1000
0000
,  // measure 23
0000
0100
0010
0000
0000
0010
1000
0000
0000
0001
0100
0000
0000
0010
0001
0000
,  // measure 24
0000
0010
0100
0000
0000
0000
1000
0100
0010
0001
0000
0010
0000
0010
0100
0000
,  // measure 25
1000
0100
0010
0001
0010
0000
0000
0000
,  // measure 26
0001
0100
0001
0100
0000
0000
0010
0000
,  // measure 27
0100
1000
0100
0010
0000
0000
0101
0000
,  // measure 28
0010
0100
0001
1000
0000
0000
1100
0000
,  // measure 29
0010
1000
0100
0010
0000
0000
0011
0000
,  // measure 30
0011
0000
0000
0101
0000
0000
1010
0000
,  // measure 31
1100
0000
0000
0011
0000
0000
0020
0000
,  // measure 32
0100
1000
0032
0000
,  // measure 33
0003
0000
0010
0100
0010
0000
0010
1000
0010
0000
0001
0100
0001
0000
0100
0000
,  // measure 34
1000
0100
0010
0001
0010
0100
1000
0100
,  // measure 35
0000
0000
0010
1000
0010
0000
0001
0100
0001
0000
0010
0001
0010
0000
0100
0000
,  // measure 36
1000
0100
0010
0001
0010
0100
1000
0100
0010
0000
0000
0000
0001
0000
0100
0000
,  // measure 37
0010
0000
0000
0000
0000
0000
0100
1000
0100
0000
0010
0000
1000
0000
0001
0000
,  // measure 38
0100
0010
0100
0000
0000
0000
0010
0001
0010
0000
1000
0000
0001
0000
0100
0000
,  // measure 39
0010
0100
0010
1000
0001
0100
1000
0100
,  // measure 40
0010
0000
1000
0000
0010
0000
0001
0100
0001
0000
0000
0000
0100
0000
0000
0000
,  // measure 41
1000
0001
1000
0000
0100
0000
0000
0000
1000
0000
0100
0000
0010
0000
0000
0000
,  // measure 42
0001
0000
0100
0000
0010
0000
0001
1000
0001
0000
0100
0000
1000
0000
0100
0000
,  // measure 43
0010
0100
0010
0000
0000
0000
0100
1000
0100
0000
0000
0000
0010
0000
0000
0000
,  // measure 44
1000
0000
0100
0000
0010
0000
0001
1000
0010
0000
0100
0000
1000
0000
0100
0000
,  // measure 45
0001
0100
1000
0000
0010
0000
0010
0100
0001
0000
0010
0000
1000
0000
0100
0000
,  // measure 46
0010
0000
1000
0000
0010
0000
0010
0100
0001
0000
1000
0000
0100
0000
0010
0000
,  // measure 47
0001
0010
0001
0000
0000
1000
0100
0000
0000
0010
0100
0000
0000
0001
0100
0000
,  // measure 48
0000
0000
0010
1000
0000
0000
0001
0100
0010
1000
0000
0001
0000
0010
0100
0000
,  // measure 49
1000
0100
1000
0000
0010
0000
0100
0000
0010
0000
1000
0000
0001
0000
0001
0100
,  // measure 50
0001
0000
0000
0000
0000
0000
0010
0100
0010
0000
1000
0000
0010
0000
0100
0000
,  // measure 51
0001
1000
0001
0000
0100
0000
1000
0000
0100
0000
0010
0000
0010
0100
0001
0010
,  // measure 52
1000
0000
0001
0000
0100
0000
0010
0100
0010
0000
0001
0000
1000
0000
0100
0000
,  // measure 53
0010
0100
0010
0000
1000
0000
0001
0000
0100
0000
1000
0000
0100
1000
0100
0010
,  // measure 54
0001
0000
0000
0000
0000
0000
0010
0100
0010
0000
0100
0000
1000
0000
0100
0000
,  // measure 55
0010
2000
0002
0000
0000
0000
0000
0000
0000
0000
0000
0000
0000
0000
0000
0000
,  // measure 56
0000
0000
0000
0000
0000
0000
0000
3003
,  // measure 57
0110
0000
0010
0100
0010
0000
1000
0100
,  // measure 58
0010
0001
0010
0100
1000
0100
0001
1000
,  // measure 59
0001
1000
0010
0000
0000
1000
0100
0010
,  // measure 60
0001
0010
0100
1000
0100
1000
0001
0100
,  // measure 61
0001
0100
0010
1000
0000
0000
1000
0100
,  // measure 62
0010
0001
0010
0100
1000
0100
0001
1000
,  // measure 63
0001
0000
1000
0000
0010
0000
1000
0000
0001
0000
0001
1000
0001
0100
0000
0000
,  // measure 64
0000
1000
0000
0100
0010
0000
0000
0001
0000
0010
1000
0000
0000
0000
0000
0000
;

//---------------dance-single - ----------------
#NOTES:
     dance-single:
     :
     Beginner:
     1:
     0.086,0.149,0.010,0.000,0.000:
0100
0000
0000
0000
,
0000
0000
0000
0000
,
1000
0000
0000
0000
,
0000
0000
0000
0000
,
0001
0000
0000
0000
,
0000
0000
0000
0000
,
0010
0000
0000
0000
,
0000
0000
0000
0000
,
1000
0000
0000
0000
,
0000
0000
0001
0000
,
0001
0000
0000
0000
,
0000
0000
0010
0000
,
0010
0000
0000
0000
,
0000
0000
0100
0000
,
0100
0000
0000
0000
,
0000
0000
0000
0000
,
1001
0000
0000
0000
,
0000
0000
0001
0000
,
1000
0000
0000
0000
,
0000
0000
0100
0000
,
0010
0000
0000
0000
,
0000
0000
1000
0000
,
0001
0000
0000
0000
,
0000
0000
0000
0000
,
1000
0000
0000
0000
,
0001
0000
0000
0000
,
0100
0000
0000
0000
,
0010
0000
0000
0000
,
1000
0000
0000
0000
,
1000
0000
0000
0000
,
0001
0000
0000
0000
,
0100
0000
0000
0000
,
0000
0001
0001
0001
,
0000
0000
0000
0000
,
0000
1000
1000
1000
,
0000
0000
0000
0010
,
0010
0000
0000
0000
,
0100
0000
1000
0000
,
0001
0000
0010
0000
,
0100
0000
1000
0000
,
0001
0000
0000
0000
,
0000
0000
0000
0000
,
1000
0000
0000
0000
,
0000
0000
0001
0000
,
0001
0000
0000
0000
,
0000
0000
0100
0000
,
0010
0000
0000
0000
,
0000
0000
0000
0000
,
1000
0000
0000
0000
,
0001
0000
0100
0000
,
0100
0000
0000
0000
,
0010
0000
1000
0000
,
1000
0000
0000
0001
,
1000
0000
0001
0000
,
0100
0000
0000
0000
,
0000
0000
0000
0000
,
1000
0000
0000
0000
,
0000
0000
0000
0010
,
0000
0000
0000
0000
,
0000
0000
0000
0100
,
0000
0000
0000
0000
,
0000
0000
0000
0001
;
