#TITLE:EVO66;
#SUBTITLE:;
#ARTIST:WALL5;
#TITLETRANSLIT:;
#SUBTITLETRANSLIT:;
#ARTISTTRANSLIT:;
#CREDIT:;
#BANNER:bn.png;
#BACKGROUND:bg.png;
#LYRICSPATH:;
#CDTITLE:Beatmania IIDX.png;
#MUSIC:EVO66.mp3;
#OFFSET:-0.240;
#SAMPLESTART:28.654;
#SAMPLELENGTH:14.440;
#SELECTABLE:YES;
#BPMS:0.000=134.960;
#STOPS:30.000=0.445
,55.000=0.665
,55.500=0.660
,56.000=0.660
,56.500=0.111
,56.750=0.111
,88.000=0.222
,88.500=0.222
,149.000=0.445
,214.000=0.222
,214.500=0.222
,243.000=0.667
;
#BGCHANGES:;

//---------------dance-single - ----------------
#NOTES:
     dance-single:
     :
     Hard:
     7:
     0.497,0.580,0.569,0.224,0.125:
0000
0000
0000
0000
,
0000
0000
0000
0000
,
0000
0000
0000
0000
,
0000
0000
0000
0000
,
1000
0100
0010
0000
0001
1000
0001
0000
,
0001
0100
0001
0000
0010
1000
0010
0000
,
0001
0100
1000
0000
1000
0100
0001
0000
,
0010
0000
1000
0000
0010
0000
2000
0000
0000
0000
3000
0000
0000
0000
0000
1000
,
0000
0100
0000
0000
0000
0000
0000
0010
0000
0001
0000
0000
0000
0000
0000
0001
,
0000
0100
0000
0000
0000
0000
0000
0010
0000
0100
0000
0000
0000
0000
0000
1000
,
0000
0001
0000
0000
0000
0000
0000
0010
0000
0100
0000
0000
0000
0000
0000
1000
,
0000
0100
0000
0000
0000
0000
0000
0010
0000
0001
0000
0000
0000
0000
0000
0010
,
0000
0100
0000
0000
0000
0000
0000
1000
0000
0100
0000
0000
1000
0100
0000
0000
,
0010
0001
0000
0000
0010
0100
0000
0000
0001
1000
0000
0000
2002
3003
2200
3300
,
0022
0033
1000
1000
1001
0000
0000
0000
1001
0000
0000
0000
0100
0000
0000
0000
,
1100
0010
0011
0100
,
0101
1100
0101
0000
0101
0000
0010
0000
,
0110
0010
1010
0010
,
0001
0001
0001
0000
1001
0000
0100
0000
,
1100
0010
0011
0100
,
0110
0110
0110
0000
0110
0000
0010
0000
,
1010
0010
0011
0100
,
0002
2003
3001
0100
0001
0100
0010
1000
,
0010
1000
0001
1000
0001
0010
0100
1000
,
0100
0010
0001
0010
0100
0010
1000
0001
,
0010
1000
0001
0010
0001
0010
0100
1000
,
0100
1000
1100
0000
0011
0000
0110
0000
,
1001
1100
0011
0110
,
0110
1001
1100
0011
,
0101
1010
1100
0011
,
0110
0001
1000
0001
,
1000
0000
0000
0000
0001
0000
0000
0010
0000
0000
0100
0000
0000
1000
0000
0000
,
0100
0000
0000
0010
0000
0000
0001
0000
0000
0010
0000
0000
0000
0000
0010
0000
,
0000
0010
0000
0010
0000
0010
0000
0010
,
0000
0010
0100
0000
0100
0000
0100
0000
,
0100
0100
1000
0100
,
0010
0002
0000
2003
,
0000
0000
3000
0000
0011
0011
0011
0000
,
0110
0010
0100
0000
1001
0001
1000
0000
,
1100
1000
0100
0000
0001
0001
0001
0000
,
0101
0001
0100
0000
0110
0010
0100
0000
,
1100
0100
1000
0000
1000
0001
0100
0000
,
0110
0010
0100
0000
0101
0100
0001
0000
,
1001
1000
0001
0000
1000
0100
0010
0000
,
1001
0001
1000
0000
0110
0010
0100
0000
,
1100
1000
0100
0000
1000
0100
0010
0001
,
2000
0001
3002
0100
,
0203
0010
0320
0100
,
0100
0100
0100
0100
,
0100
0100
0100
0130
,
0002
0000
1003
0000
0001
0100
0020
0000
,
0130
0001
2000
0000
3001
0100
0002
0000
,
0103
0010
2000
0000
3001
0100
0002
0000
,
0103
0010
2000
0000
3002
0203
0310
0010
,
0100
0010
0110
0010
1000
0010
1010
0010
,
1000
0010
1010
1010
1010
0000
0101
0001
,
0100
0001
0101
0001
0100
0001
0101
0001
,
0100
0001
1000
1000
1000
0000
0110
0010
,
0100
0010
0110
0010
0100
0010
0110
0010
,
0100
0010
0001
1000
0010
0000
0101
0001
,
1000
0010
1010
1000
0100
0010
0000
0002
,
2000
3003
0000
0000
;

//---------------dance-single - ----------------
#NOTES:
     dance-single:
     :
     Medium:
     5:
     0.369,0.422,0.267,0.215,0.000:
0000
0000
0000
0000
,
0000
0000
0000
0000
,
0000
0000
0000
0000
,
0000
0000
0000
0000
,
1000
0100
1000
0000
0010
0000
0001
0000
,
0100
0010
0100
0000
0010
0000
0010
0000
,
0100
0010
0100
0000
0001
0000
1000
0000
,
0001
1000
0001
0100
0000
0000
0000
0000
,
1001
0010
0010
0100
,
1000
0001
0100
0001
,
0100
1000
0010
0100
,
1000
0100
0010
0001
,
1000
0001
0100
0101
,
0101
0000
0101
0000
0101
0000
1000
0001
,
1000
0001
1000
0000
1001
0000
0001
0000
,
0101
0010
0110
1000
,
0100
1000
0100
0000
0110
0000
0010
0000
,
1001
1000
1100
0100
,
0001
0010
0001
0000
0101
0000
0010
0000
,
0110
0010
1010
0100
,
1000
1000
1000
0000
1001
0000
0010
0000
,
0110
0010
0011
0100
,
2000
3002
1003
0001
1000
0000
0010
0100
,
0010
0000
0001
0100
0001
0000
0010
1000
,
0010
0000
0100
1000
0100
0000
0010
0001
,
0010
0100
0100
0100
,
0100
0010
1000
0001
,
0100
1000
0100
0010
,
0001
0100
1000
0010
,
1000
0001
0100
0010
,
1000
0002
0000
2003
,
0000
3002
0000
0203
,
0000
0000
0000
0310
0000
0010
0000
0010
,
0000
0010
0000
0010
0000
0010
0000
0010
,
0100
0100
0100
1000
,
0001
1000
0100
0010
,
0001
2000
0000
3002
,
0000
0000
0103
0000
0001
1000
0001
0000
,
1100
0010
0011
0100
,
0101
0000
0010
0000
0001
1000
0100
0000
,
1001
0010
1010
0100
,
0110
0000
0010
0000
0001
1000
0100
0000
,
1001
0100
1100
0010
,
0110
0000
0001
0000
0001
1000
0010
0000
,
1001
0010
0110
0100
,
0110
0000
0010
0000
0100
1000
0001
1000
,
2000
0000
3002
0000
,
0203
0000
0020
0330
,
0002
0000
2003
0000
,
3020
0000
0200
0330
,
0002
0003
2000
3000
,
0020
0030
0200
0300
,
0002
0003
2000
3000
,
0020
0000
0030
0000
1001
1001
0001
1000
,
0001
0000
0100
0010
0100
0000
1000
0100
,
1000
0000
0100
0100
0100
0000
0010
0001
,
0010
0000
0100
0001
0100
0000
0010
0100
,
0010
0000
0010
0010
0010
0000
0001
1000
,
0001
0000
0100
1000
0100
0000
0010
0001
,
0010
0000
0100
0100
0100
0000
0001
1000
,
0001
0000
0010
0100
0010
0000
0000
0002
,
0200
0303
0000
0000
;

//---------------dance-single - ----------------
#NOTES:
     dance-single:
     :
     Easy:
     3:
     0.215,0.317,0.103,0.069,0.000:
0000
0000
0000
0000
,
0000
0000
0000
0000
,
0000
0000
0000
0000
,
0000
0000
0000
0000
,
1000
0000
0001
0000
,
1000
0000
0001
0000
,
1000
0000
0001
0000
,
0200
0000
0300
0000
,
0010
0000
0010
0000
,
0010
0000
0010
0000
,
0010
0000
0010
0000
,
0010
0000
0010
0000
,
0010
0000
0010
0001
,
0001
0000
0001
0000
0001
0000
1000
1000
,
1000
0000
0001
0000
,
1000
0000
0001
0000
,
0100
0001
0100
0000
0010
0000
0000
0000
,
0010
0000
0100
0000
,
1000
0100
1000
0000
0100
0000
0000
0000
,
0010
0000
0001
0000
,
1000
0001
1000
0000
0100
0000
0000
0000
,
0010
0000
0100
0000
,
2000
3002
1003
0000
1000
0000
1000
0000
,
1000
0001
0100
0010
,
1000
0001
0100
0100
,
0100
0010
0010
0010
,
0010
1000
0001
0100
,
0010
1000
0100
0010
,
0001
0100
0001
0100
,
0001
0010
1000
0100
,
0010
0002
0000
0000
,
0000
2000
0000
0000
,
0000
0000
0000
0000
,
0000
0000
0000
0000
,
3003
1000
0000
1000
,
0000
0001
0000
0001
,
0000
0100
0000
0010
,
0000
0000
0110
0000
0010
1000
0010
0000
,
0001
0000
1000
0000
,
0100
0000
0000
0000
0010
0001
0010
0000
,
0100
0000
0100
0000
,
0010
0000
0000
0000
1000
0001
1000
0000
,
0001
0000
0100
0000
,
0010
0000
0000
0000
1000
0010
1000
0000
,
0001
0000
1000
0000
,
0001
0000
0000
0000
0100
0010
0100
0010
,
0200
0000
0000
0000
,
0000
0000
0000
0000
,
0000
0000
0000
0000
,
0000
0000
0000
0300
,
0001
0001
1000
1000
,
0001
0100
0010
1000
,
0100
0010
0001
0010
,
0100
0000
1000
0000
0001
1000
1001
0000
,
0000
0101
0000
1010
,
0000
0000
1000
0100
1000
0000
1100
0000
,
0000
0101
0000
0011
,
0000
0000
0001
1000
0001
0000
1001
0000
,
0000
1100
0000
0011
,
0000
0000
0010
0100
0010
0000
1010
0000
,
0000
0000
0101
0000
0000
0000
0000
0002
,
2000
3003
0000
0000
;

//---------------dance-single - ----------------
#NOTES:
     dance-single:
     :
     Beginner:
     1:
     0.085,0.131,0.069,0.000,0.000: // measure 1
0000
0000
0000
0000
,  // measure 2
0000
0000
0000
0000
,  // measure 3
0000
0000
0000
0000
,  // measure 4
0000
0000
0000
0000
,  // measure 5
0100
0000
0000
0000
,  // measure 6
0000
0000
0000
0000
,  // measure 7
0000
0000
0000
0000
,  // measure 8
0000
0000
0000
0000
,  // measure 9
0001
0000
0000
0000
,  // measure 10
0001
0000
0000
0000
,  // measure 11
0001
0000
0000
0000
,  // measure 12
0100
0000
0000
0000
,  // measure 13
0010
0000
0000
0000
,  // measure 14
0000
0000
0000
1001
,  // measure 15
0000
0000
0100
0000
,  // measure 16
0100
0000
0100
0000
,  // measure 17
0000
0000
0010
0000
,  // measure 18
0010
0000
0010
0000
,  // measure 19
0000
0000
1000
0000
,  // measure 20
1000
0000
1000
0000
,  // measure 21
0000
0000
0001
0000
,  // measure 22
0001
0000
0001
0000
,  // measure 23
0000
0100
0000
0000
,  // measure 24
0000
0100
0000
0000
,  // measure 25
0000
1000
0000
0000
,  // measure 26
0000
0001
0000
0000
,  // measure 27
0000
0001
0000
0000
,  // measure 28
0000
0100
0000
0000
,  // measure 29
0000
0010
0000
0000
,  // measure 30
0000
1000
0000
0000
,  // measure 31
0000
0001
0000
0000
,  // measure 32
0000
0000
0000
0000
,  // measure 33
0000
0000
0000
0000
,  // measure 34
0000
0000
0000
0000
,  // measure 35
0000
0100
0000
0000
,  // measure 36
0000
0100
0000
0000
,  // measure 37
0000
0001
0000
0001
,  // measure 38
0000
0001
0000
0000
,  // measure 39
1000
0000
0000
0000
,  // measure 40
1000
0000
0000
0000
,  // measure 41
0100
0000
0100
0000
,  // measure 42
0100
0000
0000
0000
,  // measure 43
0010
0000
0010
0000
,  // measure 44
0010
0000
0000
0000
,  // measure 45
0001
0000
1000
0000
,  // measure 46
0001
0000
0000
0000
,  // measure 47
0100
0000
0000
0000
,  // measure 48
0000
0000
0000
0000
,  // measure 49
0000
0000
0000
0000
,  // measure 50
0000
0000
0000
0000
,  // measure 51
0001
0000
0000
0000
,  // measure 52
0001
0000
0000
0000
,  // measure 53
0010
0000
0010
0000
,  // measure 54
0010
0000
0000
1001
,  // measure 55
0000
0000
0000
1001
,  // measure 56
0000
0000
0000
0110
,  // measure 57
0000
0010
0000
0110
,  // measure 58
0000
0000
0000
1001
,  // measure 59
0000
0001
0000
1001
,  // measure 60
0000
0000
0000
1000
,  // measure 61
0000
0001
0000
1001
;
