#TITLE:EDEN;
#SUBTITLE:;
#ARTIST:TERRA;
#TITLETRANSLIT:;
#SUBTITLETRANSLIT:;
#ARTISTTRANSLIT:;
#CREDIT:;
#BANNER:bn.PNG;
#BACKGROUND:bg.PNG;
#LYRICSPATH:;
#CDTITLE:;
#MUSIC:EDEN.mp3;
#OFFSET:-8.900;
#SAMPLESTART:39.380;
#SAMPLELENGTH:12.000;
#SELECTABLE:YES;
#BPMS:0.000=100.000,20.000=200.001;
#STOPS:;
#BGCHANGES:;

//---------------dance-single - ----------------
#NOTES:
     dance-single:
     :
     Hard:
     8:
     0.494,0.538,0.269,0.106,0.004:
0000
0000
0000
0000
0000
0000
0001
0010
,
0001
0000
0000
1000
0100
0010
0001
0010
,
0100
0000
0000
1000
0000
0000
0100
0000
0000
0000
0000
0000
0001
0000
0100
0000
,
0001
0000
1000
0100
1000
0000
0010
1000
,
0001
0000
0000
0000
,
1000
0000
1000
0100
0000
0100
0010
0000
,
0010
0000
0010
0001
0000
0001
0010
0000
,
0100
0000
0001
0100
0000
0001
0100
0000
,
0010
0000
0010
0100
0010
0000
0100
0000
,
1000
0000
1000
0100
0000
0100
1000
0000
,
0010
0000
0001
1000
0000
1000
0001
0000
,
0010
0000
0100
1000
0100
0000
0010
0000
,
0001
0100
1000
0010
,
0001
0000
0001
1000
0000
1000
0001
0000
,
0010
0000
0010
0100
0000
0100
0010
0000
,
1000
0000
1000
0100
0000
0010
0001
0000
,
0101
0000
0001
0100
0001
0000
0010
0000
,
1010
0000
0010
0100
,
0110
1000
0100
0010
,
0022
0000
0000
0000
,
0033
0000
0000
0000
1000
0100
0010
0001
,
0010
0000
0100
0000
0001
0100
0001
0000
,
0100
0000
1000
0000
0100
1000
0100
0000
,
0010
0000
1000
0000
0010
1000
0010
0000
,
1000
1000
0001
0001
,
1000
0000
0001
0000
0100
0001
0100
0000
,
0010
0000
1000
0000
0001
1000
0001
0000
,
1100
0000
0010
0001
0000
0010
0001
0000
,
0002
0000
0000
0003
,
0001
0000
0100
0000
0010
0100
0010
0000
,
1000
0000
0100
0000
0001
1000
0001
0000
,
0010
0000
1000
0000
0001
0100
0001
0000
,
1100
0110
0011
0101
,
0001
0000
1000
0000
0001
1000
0001
0000
,
0010
0000
1000
0000
0100
1000
0100
0000
,
1000
0000
0000
0010
0000
0000
0002
0000
,
0100
0000
0103
0001
,
0101
0001
0100
1000
,
0200
0000
0000
1300
0000
0000
1000
0100
,
1000
0100
0010
0001
,
0200
0000
0000
0310
0000
0000
0000
0000
,
0001
1000
0010
1000
,
0020
0000
0000
1030
0000
0000
1000
0100
,
1000
0100
0010
0001
,
0011
0000
0001
0100
,
0101
0001
0100
1000
,
1000
0000
1000
0100
0000
0100
0010
0000
,
0001
1000
0010
0100
,
0010
0000
0010
1000
0000
0001
0100
0000
,
1000
0100
0010
0001
,
0100
0000
0001
1000
0000
1000
0100
0000
,
0011
0000
0000
1100
0000
0000
0010
0000
,
2002
0000
0000
3003
,
1000
1000
0000
0001
0001
0000
0100
0100
,
0000
0000
0000
0000
,
1000
0001
0000
0010
0100
0000
0001
0100
,
0000
0000
0010
0000
1000
0100
0010
0001
,
0100
0001
0000
0001
0100
0000
0001
0100
,
0000
0000
0000
0000
,
0010
1000
0000
0001
1000
0000
0001
1000
,
0000
0000
1000
0000
0100
0010
0100
0000
,
1000
0000
1000
0100
0010
0001
0010
0100
,
0000
0000
0010
1000
0010
1000
0001
1000
,
0000
0000
1000
0100
0010
0001
0010
0100
,
0000
0000
0001
1000
0001
1000
0010
1000
,
0010
0000
1000
0100
0010
0001
0010
0001
,
0000
0000
0001
0100
0001
0100
0010
1000
,
0000
0000
1000
0100
0010
0001
0010
0100
,
1000
0100
0010
0001
1000
0001
0100
1000
,
0010
1010
0100
0110
,
1000
0000
1000
0100
0000
0100
0010
0000
,
0011
0100
0110
0100
,
1000
0000
1000
0001
0000
0001
0100
0000
,
0110
0001
1001
0100
,
1000
0000
1000
0100
0000
0010
0001
0000
,
0101
0010
1010
0100
,
0110
0000
0001
1000
0001
1000
0010
1000
,
0010
1100
0010
0011
,
0100
0000
0001
0100
0000
0001
0100
0000
,
0110
1000
1100
1000
,
0100
0000
1000
0100
0000
0010
0001
0000
,
0011
0100
0101
0010
,
0110
0000
0010
0100
0000
0100
1000
0000
,
1100
0000
0000
0011
0000
0000
0010
0000
,
2000
0000
0000
0000
,
3002
0000
0000
0000
,
2003
0000
0000
0000
,
3200
0000
0000
0000
,
0300
0000
0000
0000
;

//---------------dance-single - ----------------
#NOTES:
     dance-single:
     :
     Medium:
     6:
     0.392,0.466,0.130,0.171,0.000:
0000
0000
0000
0000
0000
0000
1000
0001
,
1000
0000
0000
1000
0100
0000
0010
0001
,
0010
0000
0001
0000
0010
0000
0100
1000
,
0100
0000
0010
0001
0010
0000
1000
0002
,
0200
0000
0303
0000
,
1000
0000
0000
0100
0000
0000
0010
0000
,
0001
0000
0000
0100
0000
0000
0010
0000
,
1000
0000
0000
0001
0000
0000
1000
0000
,
0100
0000
0010
0001
,
0010
0000
0000
0001
0000
0000
0010
0000
,
0100
0000
0000
0000
2000
0000
0000
3000
,
0100
0000
0000
2000
,
0200
0000
0000
3300
0000
0000
0000
0000
,
1010
0000
0000
0010
0000
0000
0100
0000
,
1000
0000
0000
0010
0000
0000
0001
0000
,
0100
0000
0000
0001
0000
0000
1000
0000
,
0001
0000
1000
0100
,
0010
0000
0001
0100
,
0001
1000
0100
0010
,
0002
0000
0000
0000
,
0003
0000
0000
0000
1000
0001
1000
0001
,
1000
0000
0000
0000
0000
0000
1000
0100
,
0000
0000
0000
0000
0000
0000
0010
0001
,
0010
0000
0000
0100
0000
0000
1000
0000
,
0100
0010
0001
0100
,
0001
0000
0000
0000
0000
0000
1000
0100
,
0000
0000
0000
0000
0000
0000
0010
0001
,
0010
0000
0000
0100
0000
0000
2000
0000
,
0002
0000
0000
3003
,
0120
0000
0000
0000
0000
0000
0130
0010
,
0000
0000
0000
0000
0000
0000
1000
0100
,
2000
0000
0000
3010
0000
0000
1000
0000
,
0100
0010
0001
0100
,
0002
0000
0000
0000
0000
0000
1003
0001
,
0000
0000
0000
0000
0000
0000
0010
0100
,
0010
0000
0000
0110
0000
0000
0100
0000
,
2002
0000
0000
3003
,
1000
0100
0010
0001
,
0100
0000
0001
0100
0000
0001
0100
0000
,
0001
0100
1000
0100
,
0010
0000
0010
1000
0000
0010
1000
0000
,
1000
0100
0010
0001
,
1000
0000
0001
1000
0000
1000
0001
0000
,
0100
0010
1000
0010
,
0100
0000
0001
0000
1000
0100
0010
0001
,
0010
0001
0010
0100
,
1000
0000
1000
0100
0000
0100
1000
0000
,
1000
0100
0010
0001
,
0100
0000
0001
0100
0000
0100
0001
0000
,
0001
0010
0100
1000
,
0001
0000
0001
1000
0000
1000
0001
0000
,
1100
0000
0000
0011
0000
0000
0010
0000
,
0220
0000
0000
0330
,
1000
0100
0010
0001
,
1000
0100
0010
0000
,
0001
0100
1000
0010
,
0100
0000
0001
0000
1000
0001
1000
0000
,
0001
1000
0000
0001
1000
0000
0001
1000
,
0000
0000
0000
0000
,
1000
0100
0000
0010
0001
0000
0100
0001
,
0000
0100
0001
1000
,
0100
0000
1000
0100
1000
0000
0010
0000
,
0100
0000
0001
0100
0001
0000
1000
0000
,
0010
0000
0010
0100
0010
0000
1000
0000
,
0100
0000
0010
0001
0010
0000
0100
0000
,
0001
0000
1000
0010
1000
0000
0100
0000
,
0010
0000
0001
0010
0001
0000
0100
0000
,
0001
0000
0001
1000
0001
0000
1000
0000
,
2002
0000
0000
3003
,
1000
0100
0010
0001
,
0010
0000
0001
0010
0000
0000
0100
0000
,
1000
0100
0010
0001
,
1000
0000
0001
1000
0000
0000
1000
0000
,
0100
0010
0001
0100
,
0010
0000
0010
1000
0000
0001
0100
0000
,
1000
0000
0000
0100
0000
0000
0020
0000
,
0031
0000
0000
0000
,
1001
0010
0110
1000
,
0100
0000
1000
0100
0000
0010
0001
0000
,
0011
0010
0110
0100
,
1100
0000
1000
0100
0000
0000
0000
0000
,
0110
0010
0110
1000
,
1001
0000
1000
0100
0000
0000
0010
0000
,
0001
0000
0000
0100
0000
0000
1000
0000
,
0100
0000
0000
0000
,
2000
0000
0000
0000
,
3002
0000
0000
0000
,
0203
0000
0000
0000
,
0300
0000
0000
0000
;

//---------------dance-single - ----------------
#NOTES:
     dance-single:
     :
     Easy:
     3:
     0.228,0.284,0.008,0.130,0.000: // measure 1
0000
0000
0000
1000
,  // measure 2
1000
0000
0001
0100
,  // measure 3
1000
0000
0000
0010
,  // measure 4
0010
0100
0100
2000
,  // measure 5
0002
0000
0000
3003
,  // measure 6
1000
0000
0001
0000
,  // measure 7
0100
0000
0010
0000
,  // measure 8
0100
0000
0010
0000
,  // measure 9
1000
0000
0001
0100
,  // measure 10
0001
0000
0100
0000
,  // measure 11
0010
0000
1000
0000
,  // measure 12
0002
0000
0000
0000
,  // measure 13
2000
0000
0000
3003
,  // measure 14
0010
0000
0100
0000
,  // measure 15
1000
0000
0001
0000
,  // measure 16
0100
0000
0010
0000
,  // measure 17
1000
0000
0001
1000
,  // measure 18
0001
0000
0100
0010
,  // measure 19
0100
0000
2000
0000
,  // measure 20
0020
0000
0000
0000
,  // measure 21
3030
0000
0001
0001
,  // measure 22
0001
0000
0000
1000
,  // measure 23
0000
0000
0000
0010
,  // measure 24
0100
0000
1000
0000
,  // measure 25
1000
0100
0010
0001
,  // measure 26
0100
0000
0000
0001
,  // measure 27
0000
0000
0000
0010
,  // measure 28
0100
0000
0100
0000
,  // measure 29
0010
0000
0000
0000
,  // measure 30
1001
0000
0000
0000
,  // measure 31
1000
0000
0000
0000
,  // measure 32
0001
0000
1000
0000
,  // measure 33
0010
0100
0010
1000
,  // measure 34
0001
0000
0000
0000
,  // measure 35
0100
0000
0001
0100
,  // measure 36
0001
0000
1000
0000
,  // measure 37
0010
0000
0000
0000
,  // measure 38
1000
0100
1000
0100
,  // measure 39
2000
3000
0000
0010
,  // measure 40
0001
0010
0001
0010
,  // measure 41
0200
0000
0000
0300
0000
0000
0000
0000
,  // measure 42
0001
1000
0001
0100
,  // measure 43
0020
0000
0000
0030
0000
0000
1000
0000
,  // measure 44
0001
0000
0000
0100
0000
0000
1000
0000
,  // measure 45
0100
0000
0000
0000
,  // measure 46
1000
0100
0010
0001
,  // measure 47
0020
0000
0000
0030
0000
0000
0001
0000
,  // measure 48
0100
0001
0100
0010
,  // measure 49
2000
0000
0000
3000
0000
0000
0000
0000
,  // measure 50
1000
0001
0100
0010
,  // measure 51
2000
0000
0000
3000
0000
0000
1000
0000
,  // measure 52
0100
0000
0000
0010
0000
0000
0001
0000
,  // measure 53
0100
0000
0000
0000
,  // measure 54
1000
0000
0000
0000
,  // measure 55
0000
0000
0000
0000
,  // measure 56
0001
0000
0000
0000
,  // measure 57
0000
0100
0010
0100
,  // measure 58
0010
0000
0000
0000
,  // measure 59
0000
0000
0000
0000
,  // measure 60
0100
0000
0000
0000
,  // measure 61
0000
0000
0000
0000
,  // measure 62
1000
0000
0000
0000
,  // measure 63
0001
0000
0000
0000
,  // measure 64
0100
0000
0000
0000
,  // measure 65
0010
0000
1000
0000
,  // measure 66
0001
0000
0000
0000
,  // measure 67
0100
0000
0000
0000
,  // measure 68
1000
0000
0000
0000
,  // measure 69
0020
0000
0000
0000
,  // measure 70
0130
0010
1000
0010
,  // measure 71
2000
0000
0000
3000
0000
0000
1000
0000
,  // measure 72
0100
0010
0001
0100
,  // measure 73
0002
0000
0003
0000
,  // measure 74
0001
1000
0001
1000
,  // measure 75
0020
0000
0030
0100
,  // measure 76
0010
0000
0000
0010
0000
0000
0010
0000
,  // measure 77
0010
0000
0000
0000
,  // measure 78
0001
1000
0001
1000
,  // measure 79
0010
0000
0000
1000
0000
0000
1000
0000
,  // measure 80
0100
0010
0001
0010
,  // measure 81
0001
0000
0000
0001
0000
0000
0000
0000
,  // measure 82
0100
0001
1000
0001
,  // measure 83
1000
0000
0000
0001
0000
0000
1000
0000
,  // measure 84
0100
0000
0000
0010
0000
0000
0001
0000
,  // measure 85
0100
0000
0000
0000
,  // measure 86
1000
0000
0000
0000
,  // measure 87
0100
0000
0000
0000
,  // measure 88
0010
0000
0000
0000
;

//---------------dance-single - ----------------
#NOTES:
     dance-single:
     :
     Beginner:
     1:
     0.070,0.142,0.000,0.000,0.000: // measure 1
0000
0000
0000
0000
,  // measure 2
0001
0000
0000
0000
,  // measure 3
1000
0000
0000
0000
,  // measure 4
0100
0000
0000
0000
,  // measure 5
0010
0000
0000
0000
,  // measure 6
1000
0000
0000
0000
,  // measure 7
0000
0000
0000
0000
,  // measure 8
0001
0000
0000
0000
,  // measure 9
0000
0000
0000
0000
,  // measure 10
0100
0000
0000
0000
,  // measure 11
0000
0000
0000
0000
,  // measure 12
0010
0000
0000
0000
,  // measure 13
0000
0000
0000
0000
,  // measure 14
1000
0000
0000
0000
,  // measure 15
0000
0000
0000
0000
,  // measure 16
0001
0000
0000
0000
,  // measure 17
0000
0000
0000
0000
,  // measure 18
0100
0000
0000
0000
,  // measure 19
0000
0000
0000
0000
,  // measure 20
0010
0000
0000
0000
,  // measure 21
0000
0000
0000
0000
,  // measure 22
1000
0000
0000
0000
,  // measure 23
0000
0000
0000
0000
,  // measure 24
0001
0000
0000
0000
,  // measure 25
1000
0000
0001
0000
,  // measure 26
0100
0000
0000
0000
,  // measure 27
0000
0000
0000
0000
,  // measure 28
0010
0000
0000
0000
,  // measure 29
0000
0000
0000
0000
,  // measure 30
0100
0000
0000
0000
,  // measure 31
0000
0000
0000
0000
,  // measure 32
1000
0000
0000
0000
,  // measure 33
0001
0000
0000
0000
,  // measure 34
1000
0000
0000
0000
,  // measure 35
0000
0000
0000
0000
,  // measure 36
0100
0000
0000
0000
,  // measure 37
0010
0000
0000
0000
,  // measure 38
0001
0000
0000
0000
,  // measure 39
0000
0000
0000
1000
,  // measure 40
1000
0000
0000
0000
,  // measure 41
0000
0000
0000
0000
,  // measure 42
0100
0000
0000
0000
,  // measure 43
0000
0000
0000
0010
,  // measure 44
0010
0000
0000
0000
,  // measure 45
0000
0000
0000
0000
,  // measure 46
0100
0000
0000
0000
,  // measure 47
0000
0000
0000
0001
,  // measure 48
0001
0000
0000
0000
,  // measure 49
0000
0000
0000
0000
,  // measure 50
1000
0000
0000
0000
,  // measure 51
0000
0000
0000
0100
,  // measure 52
0100
0000
0000
0000
,  // measure 53
0000
0000
0000
0000
,  // measure 54
1000
0000
0000
0000
,  // measure 55
0000
0000
0000
0000
,  // measure 56
0001
0000
0000
0000
,  // measure 57
0000
0000
0000
0000
,  // measure 58
0010
0000
0000
0000
,  // measure 59
0000
0000
0000
0000
,  // measure 60
0100
0000
0000
0000
,  // measure 61
0000
0000
0000
0000
,  // measure 62
1000
0000
0000
0000
,  // measure 63
0001
0000
0000
0000
,  // measure 64
0100
0000
0000
0000
,  // measure 65
0010
0000
1000
0000
,  // measure 66
0001
0000
0000
0000
,  // measure 67
1000
0000
0000
0000
,  // measure 68
0001
0000
0000
0000
,  // measure 69
0000
0000
0000
0000
,  // measure 70
0100
0000
0000
0000
,  // measure 71
0000
0000
0000
0000
,  // measure 72
0010
0000
0000
0000
,  // measure 73
0000
0000
0000
0000
,  // measure 74
1000
0000
0000
0000
,  // measure 75
0000
0000
0000
0000
,  // measure 76
0001
0000
0000
0000
,  // measure 77
1000
0000
0000
0000
,  // measure 78
0100
0000
0000
0000
,  // measure 79
0000
0000
0000
0000
,  // measure 80
0010
0000
0000
0000
,  // measure 81
0000
0000
0000
0000
,  // measure 82
0001
0000
0000
0000
,  // measure 83
0000
0000
0000
0000
,  // measure 84
1000
0000
0000
0000
,  // measure 85
0000
0000
0000
0000
,  // measure 86
0100
0000
0000
0000
,  // measure 87
0100
0000
0000
0000
,  // measure 88
0100
0000
0000
0000
;
