#TITLE:Dream A Dream;
#SUBTITLE:DuMonde Club Mix;
#ARTIST:Captain Jack;
#TITLETRANSLIT:;
#SUBTITLETRANSLIT:;
#ARTISTTRANSLIT:;
#CREDIT:;
#BANNER:bn.bmp;
#BACKGROUND:DREAM A DREAM-bg.png;
#LYRICSPATH:;
#CDTITLE:Dance Mania.png;
#MUSIC:(10)_captain_jack_dream_a_dream_(dumonde_club_mix).mp3;
#OFFSET:-0.040;
#SAMPLESTART:13.480;
#SAMPLELENGTH:12.000;
#SELECTABLE:YES;
#BPMS:0.000=142.140;
#STOPS:28.000=1.266
;
#BGCHANGES:;

//---------------dance-single - ----------------
#NOTES:
     dance-single:
     :
     Hard:
     8:
     0.503,0.526,0.037,0.297,0.028:
0000
0000
0000
0000
,
0000
0000
0000
0000
,
0000
0000
0000
0000
,
0000
0000
0000
0000
,
0000
0000
0000
0000
,
0000
0000
0000
0000
,
0000
0000
0000
0000
,
0000
0000
0001
0100
0001
0100
0001
1000
,
0001
0000
1000
0100
1000
0000
0010
0100
,
0010
0000
0001
1000
0001
1000
0010
1000
,
0002
0000
1003
0001
2000
0000
3001
1000
,
0002
0000
0103
0000
0001
0100
0010
1000
,
0001
0000
1000
0100
1000
0000
0010
0100
,
0010
0000
0001
1000
0001
1000
0010
1000
,
0020
0000
1030
0001
2000
0000
3001
0100
,
0002
0000
0103
0001
1000
0010
1000
0010
,
2000
0000
3100
1000
0200
0000
1300
0100
,
2000
0000
3010
1000
0001
0100
0010
1000
,
0002
0000
0103
0010
2000
0000
3001
0100
,
0002
0000
0103
0001
0010
0100
1000
0100
,
2000
0000
3100
1000
0200
0000
1300
0100
,
2000
0000
3010
1000
0100
0010
0001
0010
,
0100
1000
0001
0100
0010
1000
0001
0000
,
0000
1000
0001
1000
,
0001
1000
0001
1000
,
0001
1000
0001
1000
,
0001
1000
0001
1000
,
0001
0000
0001
0010
0100
1000
0100
0010
,
0001
0100
0010
1000
,
0001
2000
0000
0000
,
0010
3020
0000
0000
,
0230
0000
0310
1000
0010
0000
0001
0100
,
0001
0000
1000
0100
1000
0000
0010
0001
,
0010
0000
0100
0001
0100
0000
0010
1000
,
0010
0000
0001
1000
0001
0000
1000
0100
,
1000
0010
0000
0000
,
0000
0000
0001
0001
0001
0000
0000
0000
,
0000
1001
0000
0100
,
0000
0110
1100
2002
,
3003
0000
0001
0100
0001
0100
0001
0100
,
0002
0000
0100
0100
0203
0000
0001
0001
,
0301
0000
1000
0001
0010
0100
0010
0100
,
0020
0000
0100
0100
0200
0030
0010
0010
,
0010
0300
0001
1000
0010
1000
0001
1000
,
0020
0000
1030
0010
2000
0000
3100
1000
,
0200
0000
1300
0100
0010
0001
0010
0100
,
0001
1000
0010
0010
1000
0001
1000
0000
,
0000
0000
0001
1000
0010
1000
0001
0100
,
0001
0100
0010
1000
0010
0100
1000
0100
,
0020
0000
0031
0010
0100
1000
0100
0010
,
0001
1000
0010
1000
0001
0100
0010
1000
,
0020
0000
1030
0100
0010
0001
0010
0100
,
1000
0100
0001
1000
0001
1000
0010
1000
,
0002
0000
1003
0100
0010
0001
0010
0100
,
1000
0100
0010
1000
0001
0100
0010
1000
,
0001
0100
0001
1000
0010
0100
0001
1000
,
0001
1000
0001
0000
0010
0000
0100
0000
0010
0000
0010
1000
0010
0000
0100
0000
,
0010
0000
1000
0100
0010
0001
0010
0100
,
0001
0000
0001
1000
0001
0000
0100
0000
0010
0000
0010
0100
0010
0000
0100
0000
,
0010
0000
1000
0100
0010
0001
0010
0100
,
0001
0000
0001
0100
0001
0000
0100
0000
0010
0000
0010
1000
0010
0000
0100
0000
,
0010
0000
1000
0100
0010
0001
0010
0100
,
1000
0100
0010
1000
0001
0200
0002
0000
,
0303
0000
0000
0000
;

//---------------dance-single - ----------------
#NOTES:
     dance-single:
     :
     Medium:
     6:
     0.424,0.496,0.046,0.389,0.000:
0000
0000
0000
0000
,
0000
0000
0000
0000
,
0000
0000
0000
0000
,
0000
0000
0000
0000
,
0000
0000
0000
0000
,
0000
0000
0000
0000
,
0000
0000
0000
0000
,
0000
0000
0001
0000
1000
0000
0100
1000
,
0100
0000
0010
0001
0010
0000
0100
0001
,
0100
0000
0010
0000
1000
0000
0001
1000
,
0001
0000
1000
0100
1000
0000
0010
0001
,
0010
0000
0100
0000
0001
0000
0010
0100
,
0010
0000
1000
0001
1000
0000
0100
1000
,
0100
0000
1000
0000
0100
0000
0010
0001
,
0020
0001
0001
0001
,
0031
0000
0001
0000
0100
0000
0010
0100
,
0020
0000
0130
0010
0200
0000
0310
0100
,
0020
0000
0130
0000
1000
0000
0001
1000
,
0002
0000
1003
0001
2000
0000
3001
1000
,
0002
0000
1003
0000
0100
0000
0010
0001
,
0020
0000
0031
0010
0002
0000
0013
0001
,
0020
0031
0010
0100
,
1000
0000
0010
0100
0001
1000
0010
0000
,
0000
1000
1000
0001
,
0001
1000
1000
0001
,
0001
1000
1000
0001
,
0001
1000
1000
0001
,
0001
0100
0010
1000
,
0001
0100
1000
0100
,
0010
0001
2000
0000
,
3002
0200
0003
0000
,
0320
0100
0130
1000
,
1000
0001
0010
0100
,
1000
0020
0130
1000
,
0100
0010
0001
0010
,
0100
2000
3100
0000
,
0000
0000
0001
0100
0001
0000
0000
0000
,
0000
0110
0000
1100
,
0000
0011
1100
2002
,
3003
0000
0001
0000
0100
0000
0010
0100
,
0020
0000
0130
0000
0010
0000
1000
0100
,
2000
0000
3100
0000
1000
0000
0010
0100
,
0002
0000
0103
0000
0010
0000
1000
0100
,
2000
0000
3010
0000
0100
0000
0001
1000
,
0020
0000
0130
0000
0010
0000
0010
1000
,
0002
0000
1003
0000
0100
0000
1000
0100
,
2000
0000
3010
0100
0010
0100
0010
0000
,
0000
0000
0001
0100
0001
0100
0001
0100
,
0002
0103
0010
1000
,
0020
0000
1030
0100
1000
0100
1000
0100
,
2000
0000
3100
0000
0010
0000
0001
1000
,
0002
0000
0103
0000
0010
0000
0010
1000
,
0002
0000
1003
0000
0100
0000
0010
0100
,
2000
0000
3100
0000
0010
0000
0001
0100
,
0020
1000
1000
1000
,
1030
0000
1000
0100
1000
0100
1000
0100
,
2000
0000
3100
1000
0200
0000
1300
0100
,
2000
0000
3010
0001
0010
0001
0010
0001
,
0020
0000
0031
0010
0002
0000
0013
0001
,
0020
0000
0130
0001
0100
0001
0100
0001
,
0200
0000
0301
0100
0020
0000
0130
0010
,
0200
0000
0310
0100
0010
1000
0100
0010
,
0001
0010
1000
0001
0100
0010
2000
0000
,
3000
0000
0000
0000
;

//---------------dance-single - ----------------
#NOTES:
     dance-single:
     :
     Easy:
     4:
     0.301,0.350,0.009,0.324,0.000:
0000
0000
0000
0000
,
0000
0000
0000
0000
,
0000
0000
0000
0000
,
0000
0000
0000
0000
,
0000
0000
0000
0000
,
0000
0000
0000
0000
,
0000
0000
0000
0000
,
0000
1000
0001
1000
,
0001
0100
0001
0010
,
1000
0001
1000
0100
,
0010
0001
0010
0100
,
2000
3001
1000
0001
,
0100
0010
1000
0100
,
0010
0001
0010
0100
,
2000
0000
3002
0000
,
2003
3001
0100
0010
,
2000
3001
1000
0001
,
1000
0001
0100
0010
,
2000
3010
1000
0100
,
0010
0001
1000
0001
,
0200
0301
0010
0100
,
1000
0001
0100
0010
,
1000
2002
0000
3003
,
0000
1000
0000
1000
,
0000
0001
0000
0001
,
0000
0100
0000
0100
,
0000
0010
0000
0010
,
0000
1000
0000
0001
,
0000
0100
0000
0010
,
0000
2000
0000
0000
,
0000
0002
0000
0000
,
3003
0000
0001
0000
,
1000
0000
0100
0000
,
0010
0000
0001
0000
,
0100
0000
1000
0000
,
0010
0000
1000
0000
,
0001
0000
1000
0001
1000
0000
0000
0000
,
0000
0001
0000
1000
,
0000
0001
1000
0100
,
0100
0010
1000
0002
,
0103
1000
0100
0010
,
0002
1003
0001
0200
,
0301
0001
0010
2000
,
0100
3100
1000
0200
,
1300
1000
0100
0010
,
0001
1000
0001
0100
,
0010
0000
1000
0001
1000
0001
1000
0000
,
0000
0001
0100
0010
,
2000
3100
1000
0100
,
0020
0031
0100
0002
,
0103
0020
1030
0200
,
1300
1000
0100
0020
,
0031
0200
0301
0020
,
1030
0001
1000
0002
,
0103
2000
3100
0020
,
1030
0000
0001
0000
1000
0000
0001
1000
,
0001
0200
0301
0020
,
1030
0000
1000
0000
0100
0000
0001
0100
,
0001
2000
3100
0020
,
0031
0000
0010
0000
0100
0000
1000
0100
,
1000
0002
0103
0020
,
1030
0001
1000
0100
,
0010
0002
1000
0200
,
0303
0000
0000
0000
;

//---------------dance-single - ----------------
#NOTES:
     dance-single:
     :
     Beginner:
     1:
     0.081,0.115,0.019,0.000,0.000: // measure 1
0000
0000
0000
0000
,  // measure 2
0000
0000
0000
0000
,  // measure 3
0000
0000
0000
0000
,  // measure 4
0000
0000
0000
0000
,  // measure 5
0000
0000
0000
0000
,  // measure 6
0000
0000
0000
0000
,  // measure 7
0000
0000
0000
0000
,  // measure 8
0000
0100
0000
0000
,  // measure 9
0000
0000
0000
0000
,  // measure 10
0000
0010
0000
0000
,  // measure 11
0000
0000
0000
0000
,  // measure 12
0000
1000
0000
0000
,  // measure 13
0000
0000
0000
0000
,  // measure 14
0000
0001
0000
0000
,  // measure 15
0000
0001
0000
0001
,  // measure 16
0000
0001
0000
0000
,  // measure 17
0000
0001
0000
0000
,  // measure 18
0000
0100
0000
0000
,  // measure 19
0000
0100
0000
0000
,  // measure 20
0000
0010
0000
0000
,  // measure 21
0000
1000
0000
0000
,  // measure 22
0000
1000
0000
0000
,  // measure 23
0000
1001
0000
0000
,  // measure 24
0000
0100
0000
0000
,  // measure 25
0000
0000
0000
0000
,  // measure 26
0001
0001
0000
0000
,  // measure 27
0000
0000
0000
0000
,  // measure 28
0000
0000
1000
1000
,  // measure 29
1000
0000
0000
0000
,  // measure 30
0000
0000
0010
0000
,  // measure 31
0000
0000
0000
0000
,  // measure 32
0000
0000
0100
0000
,  // measure 33
0000
0000
0000
0000
,  // measure 34
0000
1000
0000
0000
,  // measure 35
0000
0000
0000
0000
,  // measure 36
0000
0001
0000
0000
,  // measure 37
0000
1000
1000
0000
,  // measure 38
0000
0100
0000
0100
,  // measure 39
0000
0100
0100
0100
,  // measure 40
0000
0001
0000
0000
,  // measure 41
0000
0001
0000
0000
,  // measure 42
0000
1000
0000
0000
,  // measure 43
0000
1000
0000
0000
,  // measure 44
0000
0100
0000
0000
,  // measure 45
0000
0010
0000
0000
,  // measure 46
0000
0001
0000
0000
,  // measure 47
0000
1000
0000
0000
,  // measure 48
0000
0001
0000
0000
,  // measure 49
0000
1000
0000
0000
,  // measure 50
0000
0100
0000
0000
,  // measure 51
0000
0010
0000
0000
,  // measure 52
0000
0001
0000
0000
,  // measure 53
0000
0001
0000
0000
,  // measure 54
0000
1000
0000
0000
,  // measure 55
0000
1000
0000
1000
,  // measure 56
0000
1000
0000
0000
,  // measure 57
0000
0001
0000
0100
,  // measure 58
0000
0010
0000
0000
,  // measure 59
0000
1000
0000
0100
,  // measure 60
0000
0001
0000
0000
,  // measure 61
0000
0001
0000
0010
,  // measure 62
0000
1000
0000
0000
,  // measure 63
0000
1001
0000
0000
;
