#TITLE:Dr.LOVE;
#SUBTITLE:(From Nonstop Megamix);
#ARTIST:baby weapon feat. Asuka M;
#TITLETRANSLIT:;
#SUBTITLETRANSLIT:;
#ARTISTTRANSLIT:;
#CREDIT:;
#BANNER:Dr.LOVE.png;
#BACKGROUND:Dr.LOVE-bg.png;
#LYRICSPATH:;
#CDTITLE:./CDTITLES/CLUB VERSION.PNG;
#MUSIC:216-dr._love.mp3.mp3;
#OFFSET:-6.419;
#SAMPLESTART:61.980;
#SAMPLELENGTH:12.000;
#SELECTABLE:YES;
#DISPLAYBPM:123.000;
#BPMS:0.000=122.990;
#STOPS:;
#BGCHANGES:;

//---------------dance-single - ----------------
#NOTES:
     dance-single:
     :
     Hard:
     7:
     0.337,0.357,0.046,0.165,0.233: // measure 1
0000
0000
0000
0000
0000
0000
0000
1000
,  // measure 2
0002
0000
0000
0103
0000
0000
1000
0000
0200
0000
0000
1300
0000
0000
0000
0000
,  // measure 3
0000
0000
0000
0000
0000
0000
0000
0001
,  // measure 4
2000
0000
0000
3100
0000
0000
0001
0000
0200
0000
0000
0310
0000
0000
0000
0000
,  // measure 5
0000
0000
0000
0000
0000
0000
1000
0001
,  // measure 6
0100
0000
0001
0000
0100
0000
0000
0010
0000
0000
0000
0000
1000
0000
0001
0000
,  // measure 7
0100
0010
1000
0000
0000
0000
0000
0001
,  // measure 8
1000
0000
0100
0000
0010
0000
0001
0000
0100
0000
0001
0000
0010
0000
0000
1000
,  // measure 9
0000
0001
2000
0000
3002
0000
0103
0010
,  // measure 10
1000
0000
0001
0000
0010
0000
0000
0001
0000
0000
1000
0000
0001
0000
0100
0000
,  // measure 11
0010
0000
1000
0001
0000
0000
0000
0000
0000
0000
0000
0000
0000
0000
1000
0000
,  // measure 12
0100
1000
0001
0100
0010
1000
0001
0010
,  // measure 13
0100
1000
0002
0000
0000
0000
2003
0000
,  // measure 14
0000
0000
0000
0000
3000
0000
0000
0000
0100
0000
1000
0000
0100
0000
0000
0010
,  // measure 15
0000
0000
0001
0000
0000
0000
0000
0000
0000
0000
0000
0000
0001
0000
0000
0100
,  // measure 16
0000
0000
0010
0000
0100
0000
0000
0010
0000
0000
1000
0000
0001
0000
0000
0000
,  // measure 17
0000
0000
0000
0000
0000
0000
1000
0000
0000
0100
0000
0000
0002
0000
0000
0000
,  // measure 18
0000
0000
0000
0000
0000
0000
0000
0000
1003
0000
0100
0000
1000
0000
0000
0100
,  // measure 19
0000
0010
0000
0000
0000
0000
1001
0000
,  // measure 20
1100
0000
0011
0000
1001
0202
0000
0000
,  // measure 21
0000
0000
0000
0000
0303
0000
0000
0000
0010
0000
0010
0100
0000
0000
0000
0000
,  // measure 22
0001
0000
0001
1000
0000
0000
0000
0000
0000
0000
0000
0000
1000
0000
0100
0000
,  // measure 23
0010
0000
0000
0001
0000
0000
0100
0000
0001
0000
0100
0000
0000
0000
1000
0000
,  // measure 24
0000
0001
0000
0000
0010
0000
0100
0000
1000
0000
0000
0000
0010
0001
0010
0001
,  // measure 25
0010
0000
0000
0000
0000
0000
0000
0000
1000
0000
0001
0100
0000
0000
0000
0000
,  // measure 26
0010
0000
1000
0001
0000
0000
0000
0000
0000
0000
0000
0000
1000
0000
0100
0000
,  // measure 27
0001
0000
0000
0100
0000
0000
0010
0000
1000
0000
0001
0000
0000
0000
1000
0000
,  // measure 28
0000
1000
0000
0000
1000
0000
0001
0000
0010
0000
0001
0000
0100
0010
0100
0010
,  // measure 29
0100
0000
0010
0000
0100
0000
0000
0000
1000
0000
1000
0100
0000
0000
0000
0000
,  // measure 30
0001
0000
0001
0010
0000
0000
0000
0000
0000
0000
0000
0000
1000
0000
0001
0000
,  // measure 31
0100
0000
0000
0010
0000
0000
0001
0000
0001
0000
0001
0000
0000
0000
1000
0000
,  // measure 32
0000
0001
0000
0000
0100
0000
0010
0000
1000
0000
0100
0000
1000
0000
0100
0000
,  // measure 33
0010
0000
0000
0001
0000
0000
0000
0000
0100
0000
0010
0001
0000
0000
0000
0000
,  // measure 34
1000
0000
0100
0010
0000
0000
0000
0000
0000
0000
0000
0000
0100
0000
0001
0000
,  // measure 35
0010
0000
0000
0001
0000
0000
1000
0000
0100
0000
0010
0000
0000
0000
0100
0000
,  // measure 36
0000
0100
0000
0000
0100
0000
0010
0000
1000
0000
0010
0000
0001
1000
0001
1000
,  // measure 37
0001
1000
0010
0000
0100
0001
2000
0000
,  // measure 38
0000
0000
0000
0000
0100
3100
0000
0000
,  // measure 39
0000
0000
0200
0002
,  // measure 40
0000
0000
0300
0000
1000
2000
0000
0000
,  // measure 41
0000
0000
0000
0000
3000
0000
1003
0100
,  // measure 42
2000
0000
0000
3100
0000
0000
0001
0000
0200
0000
0000
0000
0301
0000
0000
1000
,  // measure 43
0000
0000
0100
0000
0000
0010
0000
0000
0001
0000
0000
0000
0001
0000
0000
0100
,  // measure 44
0000
0000
0010
0000
0000
1000
0000
0000
0010
0000
0000
0000
1000
0000
0000
0100
,  // measure 45
0000
0000
0010
0000
0000
0001
0000
0000
0010
0000
0000
0000
0010
0000
0000
0100
,  // measure 46
0000
0000
0010
0000
0000
1000
0000
0000
0001
0000
0000
0000
0100
0000
0000
1000
,  // measure 47
0000
0000
0100
0000
0000
0010
0000
0000
0001
0000
0000
0000
0001
0000
0000
0100
,  // measure 48
0000
0000
0010
0000
0000
1000
0000
0000
0100
0000
0000
0000
1000
0100
1000
0100
,  // measure 49
1000
0000
0000
0020
0000
0000
0031
0000
;

//---------------dance-single - ----------------
#NOTES:
     dance-single:
     :
     Medium:
     4:
     0.267,0.290,0.064,0.238,0.000: // measure 1
0000
0000
0000
0000
,  // measure 2
0002
0103
2000
3100
,  // measure 3
0001
1000
0001
0100
,  // measure 4
0020
0000
1030
0000
0002
0000
0103
0001
,  // measure 5
0100
0000
0010
0000
1000
0000
0001
1000
,  // measure 6
0001
0000
0100
0000
0100
0000
0010
1000
,  // measure 7
0010
1000
0000
0001
,  // measure 8
0100
1000
0100
0002
,  // measure 9
0000
0010
0013
0101
,  // measure 10
0001
0200
0310
1000
,  // measure 11
0001
1000
0001
0000
0000
0000
1000
0000
,  // measure 12
0100
0001
1000
0002
,  // measure 13
0000
0200
0303
0020
,  // measure 14
0000
0000
0030
0000
0100
0010
0200
0000
,  // measure 15
0000
0301
0000
0000
0000
0000
1000
0000
,  // measure 16
0001
0100
0010
1000
,  // measure 17
0000
0000
0000
0002
,  // measure 18
0000
0000
0000
0000
1003
0001
2000
0000
,  // measure 19
0000
3000
0000
0000
0000
0000
0110
0000
,  // measure 20
0110
0000
0110
0000
1001
2002
0000
0000
,  // measure 21
0000
0000
3003
0000
0001
0100
0001
0000
,  // measure 22
1000
0100
1000
0000
0000
0000
0001
1000
,  // measure 23
0001
0100
0010
0000
,  // measure 24
1000
0000
0100
0000
0010
0000
0001
0100
,  // measure 25
0001
0000
0000
0000
0010
0100
0010
0000
,  // measure 26
0001
1000
0001
0000
0000
0000
1000
0001
,  // measure 27
0100
0010
1000
0100
,  // measure 28
0010
0000
0001
0000
0100
0000
0001
1000
,  // measure 29
0001
0000
0100
0000
0001
0100
0002
0000
,  // measure 30
0103
0010
0200
0000
0300
0000
0010
1000
,  // measure 31
0001
0100
0000
0000
,  // measure 32
1000
0000
0001
0000
0100
0000
0010
0010
,  // measure 33
0010
0000
0000
0000
1000
0100
1000
0000
,  // measure 34
0010
0001
0020
0000
0030
0000
0001
0100
,  // measure 35
0001
0000
0000
1000
,  // measure 36
0001
0100
0010
2000
,  // measure 37
0000
0000
3100
0010
,  // measure 38
0000
0000
0000
0001
,  // measure 39
0000
0000
0000
0000
2000
0200
0000
0000
,  // measure 40
0000
0000
3300
0000
0020
0002
0000
0000
,  // measure 41
0033
0000
0000
0000
0000
0000
0001
0100
,  // measure 42
0002
0103
0020
0130
,  // measure 43
0001
1000
0100
1000
,  // measure 44
0020
0130
0000
0001
,  // measure 45
1000
0100
0010
0002
,  // measure 46
0103
0010
1000
0001
,  // measure 47
0000
0000
1000
0000
0000
0000
0001
0100
,  // measure 48
0010
0000
1000
0000
0001
0000
1000
0100
,  // measure 49
1000
0001
0100
1001
;

//---------------dance-single - ----------------
#NOTES:
     dance-single:
     :
     Easy:
     2:
     0.133,0.178,0.073,0.073,0.000: // measure 1
0000
0000
0000
0000
,  // measure 2
1000
0000
1000
0001
,  // measure 3
0000
0000
0000
0001
,  // measure 4
0001
0000
0100
0020
,  // measure 5
0030
0000
0000
1000
,  // measure 6
1000
1000
0000
0001
,  // measure 7
0001
0001
0000
0010
,  // measure 8
0000
0100
0000
0010
,  // measure 9
0000
0100
0000
1000
,  // measure 10
0000
0000
0000
0001
,  // measure 11
0000
0000
0000
0000
,  // measure 12
0100
0010
1000
0001
,  // measure 13
0000
0100
0000
0020
,  // measure 14
0000
0030
1000
1000
,  // measure 15
0000
0000
0000
0001
,  // measure 16
0000
1000
0000
0100
,  // measure 17
0000
0000
0000
0020
,  // measure 18
0000
0000
0030
0001
,  // measure 19
0000
0000
0000
1000
,  // measure 20
1000
2000
0001
0002
,  // measure 21
0000
3003
0000
0101
,  // measure 22
0000
1100
0000
0010
,  // measure 23
0010
0010
0000
1000
,  // measure 24
0000
0001
0000
0100
,  // measure 25
0000
0000
0000
0110
,  // measure 26
0000
0110
0000
0010
,  // measure 27
0000
0000
0000
0100
,  // measure 28
0000
1000
0000
0001
,  // measure 29
0000
0000
0000
1100
,  // measure 30
0000
0101
0000
0010
,  // measure 31
0001
0010
0000
0000
,  // measure 32
0000
1000
0000
0001
,  // measure 33
0000
0000
0100
1100
,  // measure 34
0010
0011
0000
0100
,  // measure 35
0100
0100
0000
0010
,  // measure 36
0000
1000
0001
1000
,  // measure 37
0000
0000
0000
0200
,  // measure 38
0000
0300
0000
0000
,  // measure 39
0000
0000
0000
0002
,  // measure 40
0000
0003
0000
0000
,  // measure 41
0000
0000
0000
0000
,  // measure 42
1000
0000
1000
0100
,  // measure 43
0000
0000
0000
0010
,  // measure 44
0001
0000
0001
0000
,  // measure 45
0000
0000
0000
0100
,  // measure 46
0000
0000
0010
0000
,  // measure 47
1000
0000
0001
0000
,  // measure 48
0100
0000
0010
0000
,  // measure 49
1000
0000
0002
1003
;

//---------------dance-single - ----------------
#NOTES:
     dance-single:
     :
     Beginner:
     1:
     0.051,0.089,0.037,0.000,0.000: // measure 1
0000
0000
0000
1000
,  // measure 2
0000
0000
0000
1000
,  // measure 3
0000
0000
0000
1000
,  // measure 4
0000
0000
0000
0001
,  // measure 5
0000
0000
0000
0010
,  // measure 6
0000
0000
0000
0000
,  // measure 7
0000
0000
0000
0100
,  // measure 8
0000
0000
0000
0000
,  // measure 9
0000
0000
0000
1000
,  // measure 10
0000
0000
0000
0000
,  // measure 11
0000
0000
0000
0001
,  // measure 12
0000
0000
0000
0000
,  // measure 13
0000
0000
0000
0100
,  // measure 14
0000
0000
0000
0000
,  // measure 15
0000
0000
0000
0010
,  // measure 16
0000
0000
0000
0000
,  // measure 17
0000
0000
0000
0100
,  // measure 18
0000
0000
0000
0000
,  // measure 19
0000
0000
0000
1000
,  // measure 20
0000
0000
0000
0000
,  // measure 21
0000
0000
0000
0001
,  // measure 22
0000
0000
0000
0000
,  // measure 23
0000
0000
0000
0100
,  // measure 24
0000
0000
0000
0000
,  // measure 25
0000
0000
0000
0110
,  // measure 26
0000
0000
0000
0000
,  // measure 27
0000
0000
0000
1000
,  // measure 28
0000
0000
0000
0001
,  // measure 29
0000
0000
0000
1001
,  // measure 30
0000
0000
0000
0100
,  // measure 31
0000
0000
0000
0010
,  // measure 32
0000
0000
0000
0000
,  // measure 33
0000
0000
0000
1001
,  // measure 34
0000
0001
0000
0001
,  // measure 35
0000
0000
0000
0100
,  // measure 36
0000
0000
0000
0000
,  // measure 37
0000
0000
0000
0010
,  // measure 38
0000
0000
0000
0000
,  // measure 39
0000
0000
0000
1000
,  // measure 40
0000
0000
0000
0000
,  // measure 41
0000
0000
0000
0001
,  // measure 42
0000
0000
0000
0001
,  // measure 43
0000
0000
0000
1000
,  // measure 44
0000
0000
0000
1000
,  // measure 45
0000
0000
0000
0010
,  // measure 46
0000
0000
0000
0010
,  // measure 47
0000
0000
0000
0100
,  // measure 48
0000
0000
0000
0100
,  // measure 49
0000
0000
0000
1001
;
