#TITLE:Double Loving Heart;
#SUBTITLE:;
#ARTIST:Tatsh feat. jun & Sayaka Minami;
#TITLETRANSLIT:;
#SUBTITLETRANSLIT:;
#ARTISTTRANSLIT:;
#CREDIT:;
#BANNER:bn.PNG;
#BACKGROUND:bg.PNG;
#LYRICSPATH:;
#CDTITLE:13 dd.png;
#MUSIC:13. Double Loving Heart.mp3;
#OFFSET:-9.490;
#SAMPLESTART:10.408;
#SAMPLELENGTH:28.479;
#SELECTABLE:YES;
#BPMS:0.000=138.000;
#STOPS:;
#BGCHANGES:;

//---------------dance-single - ----------------
#NOTES:
     dance-single:
     :
     Hard:
     6:
     0.395,0.385,0.452,0.283,0.038:
0010
0000
1000
0000
1000
0100
0010
0000
,
0002
0000
0000
0100
0200
0000
0303
0000
,
0020
0000
0000
0000
0000
0030
1000
0000
,
0020
0000
0000
1030
0001
0000
1001
0000
,
0010
0000
0110
0000
1000
0100
0010
0001
,
0020
0000
0030
0100
2000
0000
3010
0000
,
1010
0000
0101
0000
1000
0100
0010
0000
,
0001
0000
0000
1000
0100
0000
0010
0000
,
2000
0000
3001
0100
0010
0100
0001
1000
,
0020
1030
0200
1300
,
0000
0000
1000
0100
0010
0000
0001
0100
,
0010
0100
1100
0011
,
0000
0000
0010
0100
0010
1000
0010
0001
,
0020
0000
0000
0031
0000
0100
0000
1000
,
0002
0000
0000
0000
0003
1000
0100
2000
,
0000
0000
0000
3000
,
0110
0000
0000
2020
0000
0000
3030
0100
,
2000
3200
0320
0031
,
0012
0000
0000
0200
0000
0000
0303
0010
,
0100
0010
1000
0001
0100
0010
0001
0000
,
0012
0000
0000
0200
0000
0000
0303
0000
,
0010
1000
0100
1000
,
0000
0000
0000
0000
0000
1000
0100
0010
,
0001
0000
0000
0010
0000
0000
0100
0000
1000
0000
0000
0100
0000
0000
1000
0000
,
1100
0000
0000
1100
0000
0000
0110
0000
,
0000
0011
0000
0000
1001
0000
0110
0000
,
1100
0000
0010
0000
0001
0000
0100
1000
,
0000
1000
0100
0010
0001
0000
0011
0000
,
0000
0001
0100
0001
0100
0000
1000
0100
,
0000
1100
0000
0101
0000
0011
0000
1010
,
0000
0000
0000
0010
0100
0010
1000
0001
,
0010
0000
0000
0100
0000
0000
1000
0000
0000
0000
1000
0000
0100
0000
0010
0000
,
0011
0000
0000
1100
0000
0000
2002
0000
0000
0000
0000
0000
0000
0000
0000
0000
,
0000
0000
0000
3000
0100
0000
0010
0003
,
1000
0000
0100
0000
0010
0000
0100
1000
,
0000
0001
0010
0001
0020
0000
0031
0000
,
0000
1000
0100
1000
0100
0000
0010
0100
,
0000
0110
0000
1001
0000
0110
0000
1001
,
0000
0000
0000
0010
0001
0010
0100
1000
,
0100
0000
0000
0010
0000
0000
0100
0000
0000
0000
1000
0000
0001
0000
1000
0000
,
0010
0000
0000
0010
0000
0000
0220
0000
0000
0300
0000
0000
0100
0000
0000
0000
,
0000
0130
0000
0000
1100
0000
0011
0000
,
1002
0000
0000
0000
0000
0000
0000
0003
,
0020
0000
0030
0100
2000
0000
0000
0000
,
3200
0000
0000
0310
,
0010
0000
0000
2000
0002
0000
3003
0000
,
0110
0000
1010
0000
0101
0000
1000
0200
,
0000
0310
1000
0001
1001
0000
1001
0000
,
0000
0010
0100
0010
0100
0000
1000
0100
,
0000
1100
0000
0101
0000
1010
0000
0011
,
0000
0000
0000
0010
0100
0010
1000
0100
,
0011
0000
0000
0101
0000
0000
1010
0000
0000
0000
0010
0000
0100
0000
0010
0000
,
1001
0000
0000
0110
0000
0000
1002
0000
0000
0000
0000
0000
0100
0000
0000
0000
,
0000
0010
0000
0000
0103
0000
1000
0000
,
0011
0000
0101
0000
1010
0000
0100
1100
,
0000
0010
1000
0010
0200
0000
0301
0000
,
0000
1000
0100
0010
0001
0000
0010
0001
,
0000
0110
0000
1001
0000
1010
0000
0101
,
0000
0000
0000
0010
0100
0010
1000
0100
,
0010
0000
0000
0001
0000
0000
0010
0000
0000
0000
0100
0000
1000
0000
0100
0000
,
1001
0000
0000
1010
0000
0000
1002
0000
0000
0000
0000
0000
0010
0000
0000
0000
,
0000
0100
0000
0000
0010
0000
1000
0000
,
2000
0000
0000
0000
0000
0000
0000
3003
;

//---------------dance-single - ----------------
#NOTES:
     dance-single:
     :
     Medium:
     4:
     0.268,0.338,0.092,0.283,0.000: // measure 1
0002
0000
0000
0000
,  // measure 2
1003
0000
0000
0200
0002
0000
0303
0000
,  // measure 3
2000
0000
3000
0010
,  // measure 4
2000
0000
0000
0001
0002
0000
3003
0000
,  // measure 5
0200
0000
0000
0300
,  // measure 6
0001
0000
0000
0020
2000
0000
3030
0000
,  // measure 7
2000
0000
3000
0001
,  // measure 8
1000
0000
0000
0200
0002
0000
0000
0000
,  // measure 9
0303
0000
1100
0000
0001
0000
0100
1000
,  // measure 10
0100
0001
0020
1030
,  // measure 11
1000
0000
0001
0000
1000
0000
0100
0010
,  // measure 12
2000
3002
2003
3002
,  // measure 13
1003
0000
0100
0000
0010
0000
0001
0100
,  // measure 14
0001
0100
1000
0010
,  // measure 15
2000
0000
0000
0000
,  // measure 16
0002
0000
0000
3003
,  // measure 17
0200
0000
0000
0301
0000
0000
0000
0000
,  // measure 18
0001
0010
1000
0010
,  // measure 19
2000
0000
0000
3010
0000
0000
0000
0000
,  // measure 20
1000
0001
0100
0010
,  // measure 21
0200
0000
0000
0310
0000
0000
0000
0000
,  // measure 22
0001
1000
0100
0020
,  // measure 23
0031
0000
0000
0000
0000
1000
0100
0010
,  // measure 24
0001
1000
0100
0001
,  // measure 25
1001
0000
0000
0110
0000
0000
1100
0000
,  // measure 26
0000
0011
0000
0000
0101
0000
1100
0000
,  // measure 27
1001
0000
1000
0000
0001
0000
1000
0001
,  // measure 28
0000
1000
0001
0000
0200
0000
1300
0000
,  // measure 29
0000
0000
1000
0000
0010
0000
0001
0100
,  // measure 30
0000
1000
0000
0100
0000
0001
0000
0100
,  // measure 31
0000
0000
0000
0000
1000
0001
1000
0000
,  // measure 32
1000
0000
0100
0000
0010
0000
0001
0200
,  // measure 33
0002
0000
0000
0000
,  // measure 34
0000
0303
1000
0001
,  // measure 35
0101
0000
1000
0000
0100
0000
0010
0001
,  // measure 36
0000
0100
1000
0100
2000
0000
3100
0000
,  // measure 37
0000
0000
1000
0000
0010
0000
0001
0100
,  // measure 38
0000
1000
0000
0100
0000
0001
0000
0100
,  // measure 39
0000
0000
0000
0000
1000
0010
1000
0000
,  // measure 40
0001
0000
1000
0000
0100
0000
0010
0002
,  // measure 41
2000
0000
0000
3003
0000
0000
0000
0000
,  // measure 42
0000
0000
0000
0000
,  // measure 43
2000
0000
0000
0000
,  // measure 44
0001
0000
0001
0000
,  // measure 45
3002
0000
0000
0000
,  // measure 46
0100
0000
0010
0000
,  // measure 47
0103
0000
1100
0000
0010
0000
1000
0001
,  // measure 48
0000
1000
0001
0100
1000
0000
0010
0000
,  // measure 49
0000
0000
1000
0000
0100
0000
0010
0001
,  // measure 50
0000
0010
0000
0001
0000
0010
0000
0001
,  // measure 51
0000
0000
1000
0001
,  // measure 52
0100
0000
0010
0000
1000
0000
0100
0002
,  // measure 53
0200
0000
0000
0300
,  // measure 54
0020
0000
0000
0033
,  // measure 55
1100
0000
0011
0000
1000
0000
0001
1000
,  // measure 56
0000
0000
1000
0100
0010
0000
0001
0000
,  // measure 57
0000
0001
0100
1000
,  // measure 58
0010
0000
0001
0000
0100
0000
1000
0010
,  // measure 59
0001
0000
1000
0001
,  // measure 60
0100
0000
0010
0000
1000
0000
0100
0002
,  // measure 61
2000
0000
0000
0000
,  // measure 62
0000
0000
0000
3003
,  // measure 63
1000
0100
0010
0002
,  // measure 64
0003
0000
0000
0000
;

//---------------dance-single - ----------------
#NOTES:
     dance-single:
     :
     Easy:
     3:
     0.192,0.241,0.061,0.207,0.000: // measure 1
0001
0000
0000
0000
,  // measure 2
2000
0000
3100
0000
,  // measure 3
0010
0000
0000
0100
,  // measure 4
0002
0000
0103
0000
,  // measure 5
0020
0000
0000
0030
,  // measure 6
2000
0000
3100
0000
,  // measure 7
0002
0000
0003
1000
,  // measure 8
0200
0000
0301
0000
,  // measure 9
0000
1001
0000
0000
,  // measure 10
1000
0000
0000
0000
,  // measure 11
0000
0001
0000
1000
,  // measure 12
0100
0100
0100
0100
,  // measure 13
0000
0001
0000
1000
,  // measure 14
0100
0010
0001
0100
,  // measure 15
0002
0000
0000
0000
,  // measure 16
0200
0000
0000
0303
,  // measure 17
2002
0000
3003
0000
,  // measure 18
0010
1000
0100
0010
,  // measure 19
0022
0000
0000
0033
,  // measure 20
1000
0001
0100
0010
,  // measure 21
2002
0000
0000
3003
,  // measure 22
1000
0001
0100
0020
,  // measure 23
1030
0000
0000
1000
,  // measure 24
0100
0001
0100
2000
,  // measure 25
0020
0000
0000
0000
,  // measure 26
0000
0000
0000
3030
,  // measure 27
0100
0001
0100
0001
,  // measure 28
0000
1000
0001
0100
,  // measure 29
0000
1000
0100
0010
,  // measure 30
0001
0010
0100
1000
,  // measure 31
1001
0000
0001
1000
,  // measure 32
0001
0100
0010
1000
,  // measure 33
2002
0000
0000
0000
,  // measure 34
0000
0000
0000
3003
,  // measure 35
0100
0001
0100
0001
,  // measure 36
0000
1000
0100
0010
,  // measure 37
0000
0001
1000
0100
,  // measure 38
0010
0001
0100
0001
,  // measure 39
1010
0000
1000
0001
,  // measure 40
0100
0010
1000
0100
,  // measure 41
0202
0000
0000
0000
,  // measure 42
0000
0000
0000
0303
,  // measure 43
2000
0000
0000
0000
,  // measure 44
0000
0000
0000
0000
,  // measure 45
3002
0000
0000
0000
,  // measure 46
0000
0000
0000
0000
,  // measure 47
0103
0001
0100
1000
,  // measure 48
0000
0010
1000
0100
,  // measure 49
0000
0001
1000
0001
,  // measure 50
0100
1000
0100
0010
,  // measure 51
0001
0000
1000
0000
,  // measure 52
0001
0000
0100
0000
,  // measure 53
0020
0000
0000
0000
,  // measure 54
2000
0000
0000
3030
,  // measure 55
1000
0100
0010
0001
,  // measure 56
0000
0001
1000
0100
,  // measure 57
0000
0010
0100
1000
,  // measure 58
0001
1000
0001
0100
,  // measure 59
0010
0000
1000
0100
,  // measure 60
0010
0001
0010
0100
,  // measure 61
2000
0000
0000
0000
,  // measure 62
0000
0000
0000
0000
,  // measure 63
3002
0000
0000
0000
,  // measure 64
0003
0000
0000
0000
;

//---------------dance-single - ----------------
#NOTES:
     dance-single:
     :
     Challenge:
     7:
     0.444,0.638,0.543,0.268,0.188:
0011
0000
0000
1100
0000
0000
0010
0000
0100
0000
0000
1000
0000
0000
0100
0000
,
0010
0000
0000
0001
0000
0000
0100
0000
1000
0000
0000
0010
0100
0000
0000
0000
,
0010
0000
0000
0100
0000
0000
1000
0000
0010
0000
0000
0001
0000
0000
0100
0000
,
1000
0000
0000
0100
0000
0000
1000
0000
0100
0000
0000
0010
0100
0000
0000
0000
,
1000
0000
0000
0100
0000
0000
0010
0000
0001
0000
0000
0010
0000
0000
0100
0000
,
1000
0000
0000
0100
0000
0000
1000
0000
0100
0000
0000
0010
0000
0000
0001
0000
,
0100
0000
0000
1000
0000
0000
0100
0000
1000
0000
0000
0100
0000
0000
0000
0000
,
0020
0000
0000
0100
0100
0000
0000
0000
,
0030
0000
0000
0000
0001
1000
0000
0010
0000
0000
1000
0000
0100
0000
1000
0000
,
1100
0000
0000
1100
0000
0000
2200
0000
0000
0000
0000
0000
0000
0000
0000
0000
,
3300
0000
0000
0000
0010
0100
0000
1000
0000
0000
0100
0000
1000
0000
0100
0000
,
2000
3200
0320
0032
,
0003
0000
0000
0000
0001
1000
0000
0001
0000
0000
0100
0000
1000
0000
0100
0000
,
0110
0000
0000
0110
0000
0000
0110
0000
0000
0000
0010
0000
0000
0000
0001
0000
,
0200
0000
0000
0000
0000
0001
0001
0002
,
0000
0000
0000
0303
,
1002
0000
0000
0013
0000
0000
0000
1000
,
0200
0320
0032
0013
,
2100
0000
0000
0020
0000
0000
3030
0001
,
1100
0010
0100
1000
,
0201
0000
0000
2000
0000
0000
3300
1000
,
1100
0110
0011
0220
,
0000
0000
0000
0000
0000
0300
0000
0000
0000
0000
0130
0000
1000
0000
0100
0000
,
1100
0000
0000
0010
0000
0000
0001
0000
0010
0000
0000
1000
0000
0000
0100
0000
,
0110
0110
0000
0110
0110
0000
0110
0110
,
0000
0000
0110
0000
0110
0000
0000
0000
0010
0000
0010
0100
0010
0000
0100
0000
,
1001
0000
1010
0000
0011
0000
1100
1100
,
0000
0010
1000
0100
0120
0000
0130
0000
,
0000
1000
0100
1000
0010
0000
0100
0120
,
0000
1000
0000
0001
0000
1000
0000
0031
,
0000
0000
0000
1000
0100
1000
0100
1000
,
0010
0000
0000
0010
0000
0000
0010
0000
0000
0000
0001
0000
1000
0000
0010
0000
,
0012
0000
0000
0100
0000
0000
2000
0000
0000
0000
0000
0000
0000
0000
0000
0000
,
0000
0000
0000
3003
,
1010
0000
0110
0000
0011
0000
0110
0110
,
0000
0010
1000
0100
1001
0000
1001
0000
,
0000
0010
1000
0100
0010
0000
0001
0011
,
0000
1100
0000
1010
0000
0011
0000
1100
,
0000
0000
0000
0001
1000
0100
0010
1000
,
0011
0000
0000
1100
0000
0000
0010
0000
0000
0000
0100
0000
0001
0000
0010
0000
,
2000
0000
0000
0001
0000
0000
0020
0000
0000
0000
0000
0000
0000
0000
0000
0000
,
0000
0000
0000
3030
,
0001
1000
0001
1000
0001
1000
0001
1000
0001
1000
0001
1000
0001
0000
0000
0000
,
0010
1000
0010
1000
0010
1000
0010
1000
0010
1000
0010
1000
0010
0000
0000
0000
,
0001
0100
0001
0100
0001
0000
0000
0000
0010
1000
0010
1000
0010
0000
0000
0000
,
0110
0010
1010
0001
0011
0010
0010
0100
,
0120
0000
1000
0000
0001
0000
0130
1100
,
0000
0010
1000
0100
0220
0000
0330
0000
,
0000
0001
1000
1001
1000
0000
0100
2100
,
0000
0010
0000
0001
0000
0010
0000
3001
,
0000
0000
0000
0001
0100
1000
0100
1000
,
1010
0000
0000
1010
0000
0000
0010
0000
0000
0000
0100
0000
1000
0000
0100
0000
,
0002
0000
0000
0010
0000
0000
2000
0000
0000
0000
0000
0000
0000
0000
0000
0000
,
0000
0000
3003
0000
,
0110
0000
1010
0000
0101
0000
1100
1100
,
0000
0010
1000
0100
1002
0000
1003
0000
,
0000
1000
0100
1000
0010
0000
0001
0011
,
0000
1100
0000
0110
0000
1010
0000
1001
,
0000
0000
0000
1000
0100
1000
0010
0100
,
0011
0000
0000
0011
0000
0000
0100
0000
0000
0000
1000
0000
0100
0000
0010
0000
,
2000
0000
0000
3100
0000
0000
0022
0000
0000
0000
0000
0000
0000
0000
0000
0000
,
0000
0000
0000
0033
;

//---------------dance-single - ----------------
#NOTES:
     dance-single:
     :
     Beginner:
     1:
     0.047,0.119,0.031,0.000,0.000:
0001
0000
0000
0000
,
0000
0000
0000
0000
,
1000
0000
0000
0000
,
0000
0000
0000
0000
,
0010
0000
0000
0000
,
0000
0000
0000
0000
,
0100
0000
0000
0000
,
0000
0000
0000
0000
,
0000
0001
0000
0000
,
0000
0000
0000
0000
,
0000
1000
0000
0000
,
0000
0000
0000
0000
,
0100
0000
0000
0000
,
0000
0000
0000
0000
,
0010
0000
0000
0000
,
0000
0000
0000
0000
,
0001
0000
0000
0000
,
0000
0000
0000
0000
,
1000
0000
0000
0000
,
0000
0000
0000
0000
,
0010
0000
0000
0000
,
0000
0000
0000
0000
,
0100
0000
0000
0000
,
1000
0000
0001
0000
,
1001
0000
0000
0000
,
0000
0000
0010
0010
,
0010
0000
0000
0000
,
0000
0000
0000
0000
,
0100
0000
0000
0000
,
0000
0000
0000
0000
,
1000
0000
0000
0000
,
0001
0000
0000
0000
,
0100
0000
0000
0000
,
0000
0000
0000
0000
,
0110
0000
0000
0000
,
0000
0000
0000
0000
,
0010
0000
0000
0000
,
0000
0000
0000
0000
,
0001
0000
0000
0000
,
0000
0000
0000
0000
,
1000
0000
0000
0000
,
0000
0000
0000
0000
,
0001
0000
0000
0000
,
0000
0000
0000
0000
,
1000
0000
0000
0000
,
0000
0000
0000
0000
,
0010
0000
0000
0000
,
0000
0000
0000
0000
,
0100
0000
0000
0000
,
0000
0000
0000
0000
,
0001
0000
0000
0000
,
0000
0000
0000
0000
,
1001
0000
0000
0000
,
0100
0000
0000
0000
,
1001
0000
0000
0000
,
0000
0000
0010
0000
,
0010
0000
0000
0000
,
0000
0000
0000
0000
,
0001
0000
0000
0000
,
0000
0000
0000
0000
,
0010
0000
0000
0000
,
0000
0000
0000
0000
,
1000
0000
0000
0000
;
