#TITLE:Don't Be Afraid Myself;
#SUBTITLE:;
#ARTIST:PlatoniX;
#TITLETRANSLIT:;
#SUBTITLETRANSLIT:;
#ARTISTTRANSLIT:;
#CREDIT:;
#BANNER:bn.PNG;
#BACKGROUND:bg.PNG;
#LYRICSPATH:;
#CDTITLE:Beatmania IIDX.png;
#MUSIC:Don't Be Afraid Myself.ogg;
#OFFSET:-0.979;
#SAMPLESTART:52.776;
#SAMPLELENGTH:12.007;
#SELECTABLE:YES;
#BPMS:0.000=165.000,173.000=82.500,189.000=165.000;
#STOPS:140.500=1.455
,292.500=0.365
;
#BGCHANGES:;

//---------------dance-single - ----------------
#NOTES:
     dance-single:
     :
     Hard:
     9:
     0.537,0.817,0.217,0.175,0.255:
0000
0000
0000
0000
,
0000
0000
0000
0000
,
0000
0000
0000
0000
,
0000
0000
0000
0000
,
0000
0000
1000
0001
1000
0000
0001
0000
0100
0000
0010
0000
1000
0000
0100
0000
,
0010
0001
0000
0001
0100
0010
1000
0001
,
1000
0100
0010
0001
0010
1000
0001
0000
,
0000
0000
0010
0100
0010
0000
0001
0000
1000
0000
0001
0010
0100
0000
0000
0000
,
0000
0000
0000
0000
1000
0000
0000
0100
0000
0000
0010
0000
0000
0001
0000
0000
,
0100
0000
0001
0000
0100
0000
0000
0010
0000
0000
1000
0000
0000
0001
0000
0000
,
1000
0000
0100
0000
0001
0000
0000
1000
0000
0000
0001
0000
0000
0100
0000
0000
,
0010
0000
1000
0000
0010
0000
0000
0100
0000
0000
0001
0000
0000
1000
0000
0000
,
0100
0000
1000
0000
0100
0000
0000
1000
0000
0000
0100
0000
0000
0010
0000
0000
,
0001
0000
0100
0000
0001
0000
0000
0100
0000
0000
0010
0000
0000
1000
0000
0000
,
1000
0000
0001
0000
1000
0000
0000
0100
0000
0000
0010
0000
0000
0001
0000
0000
,
0100
0000
0010
0000
0100
0000
0000
0010
0000
0000
1000
0000
0000
0001
0000
0000
,
0100
1000
0100
0010
0001
0010
0100
0010
,
1000
0000
0001
0000
0100
0000
0000
0000
1000
0000
0000
0000
0001
0100
0001
0100
,
0001
0000
0000
0000
0011
0000
0000
1000
0100
0000
1000
0000
0100
0000
0000
0000
,
0010
0000
0000
0000
0100
0000
0000
0001
0100
0000
0001
0000
0100
0000
0000
0000
,
0010
0000
0000
0000
1000
0000
0000
1000
0100
0000
1000
0000
0100
0000
0000
0000
,
0010
0000
0100
0000
0001
1000
0000
0100
,
0000
1000
0100
0000
0010
0000
0001
0000
,
0100
0000
1000
0000
0010
1000
0001
0000
,
0100
1000
0100
0010
,
0001
2000
3002
0203
,
0320
0000
0130
0000
0010
0110
0000
1100
,
0000
0000
0011
0000
0000
0000
0101
0000
0012
0000
0000
0000
0000
0000
0000
0003
,
0100
0001
0100
0000
0010
0110
0000
1100
,
0000
0011
0000
1000
1100
0000
0000
0000
,
1000
0001
0100
0000
0010
0100
0000
0110
,
0000
0110
0000
0010
0100
0000
0000
0000
,
1000
0000
0000
0200
0000
0000
2000
0000
0000
0000
0000
0000
3300
0000
0000
0000
0000
0000
0010
0000
0000
0000
0100
0000
,
0000
0000
1000
0000
0000
0000
0002
0000
0000
0000
0000
0000
0000
0000
0000
1000
0000
0000
2000
0000
0000
0000
0000
0000
,
0000
0000
0000
0000
0000
0000
0000
0000
3003
0000
0000
0000
1100
0000
0000
0011
,
0000
0110
1001
0000
0000
1000
0001
0100
,
0001
1000
0001
0000
0000
0010
1000
0001
,
0100
1000
0100
0000
1000
0200
0000
1000
,
0000
0010
0000
0001
0000
0010
0000
1300
,
0000
0001
1000
0000
0000
0010
0100
0001
,
1000
0100
1000
0000
0000
1000
0000
0100
,
0000
0010
0000
0002
0200
0000
0000
0000
,
0003
0020
0000
0000
,
0330
0000
0000
0000
1001
0000
1000
0000
1000
0100
0010
0001
0100
0000
0001
0000
,
0010
0100
0001
1000
0010
0000
0100
0000
1000
0001
1000
0100
0010
0001
0010
0100
,
1000
0001
0100
0010
1000
0000
0001
0000
0100
0010
1000
0001
0100
0000
0000
0000
,
1000
0000
0100
0100
0000
0000
1000
0000
0000
1000
0001
0100
0010
0001
0010
0100
,
0010
1000
0001
1000
0001
0100
0001
1000
,
0010
0100
0001
0010
0100
1000
0100
0010
,
0001
1000
0010
1000
0001
0100
0001
0010
,
0100
1000
0001
0100
1000
0100
0010
1000
,
0001
0100
0110
0000
0010
0110
0000
1000
,
0100
0010
0001
0000
0010
0000
1000
0001
,
0100
0000
0000
0000
1000
0100
0010
0001
1000
0100
0010
0001
1000
0100
0010
0001
,
1000
0100
0010
0001
2000
0000
0000
0000
0000
0000
0000
0000
0000
0000
0000
0000
,
0000
3001
0000
0001
,
0200
0310
0000
0001
,
0200
0000
0310
0000
0010
0100
0000
0010
,
0000
1000
0000
0001
0000
1000
0000
0001
,
0000
1000
0100
0000
0000
1000
0100
0010
,
0001
0010
0100
0000
0000
0002
0000
0100
,
0000
0010
0000
1000
2000
0000
0000
0000
,
0000
0000
3003
0000
0000
0010
0100
0001
,
1000
0100
1100
0000
0000
0010
0100
0001
,
1000
0010
1100
0000
0000
0010
1000
0001
,
0100
0001
0100
0000
0001
0201
0000
0010
,
0000
0010
0000
0010
0000
0010
0000
0010
,
0000
0000
0010
0000
0301
0000
0000
1000
0000
0000
0100
0000
0000
0010
0000
0000
,
0001
0000
0100
0000
0001
0000
0000
0010
0000
0000
1000
0000
0000
0001
0000
0000
,
0100
0000
1000
0000
0100
0000
0000
1000
0000
0000
0100
0000
0000
0010
0000
0000
,
0001
0000
0100
0000
0001
0000
0000
1000
0000
0000
0010
0000
0000
0100
0000
0000
,
0001
0100
1000
0100
0010
0001
0010
0100
,
0001
0000
1000
0000
0010
0000
0100
0000
0001
0000
1000
0000
1001
0000
0000
0011
,
0000
1001
0220
0000
0000
0000
0000
0000
,
0000
0000
0000
0000
,
0000
0330
0000
0000
;

//---------------dance-single - ----------------
#NOTES:
     dance-single:
     :
     Medium:
     6:
     0.371,0.440,0.075,0.184,0.008:
0000
0000
0000
0000
,
0000
0000
0000
0000
,
0000
0000
0000
0000
,
0000
0000
0000
0000
,
0000
1000
0100
0010
,
0100
0001
1000
0100
,
0010
0000
0100
1000
0100
0010
0001
0000
,
0000
0000
0010
0100
0001
1000
0010
0000
,
0000
2000
0100
0010
,
3002
0103
0010
1000
,
0001
0100
0001
0000
0100
0000
1000
0000
,
0001
1000
0001
0000
0100
0000
1000
0000
,
1000
0100
1000
0000
0100
0000
0010
0000
,
0001
0010
0100
0000
0001
0000
1000
0000
,
0001
0100
0010
0000
1000
0000
0100
0000
,
0001
1000
0010
0000
0100
0000
1000
0000
,
0100
0000
1000
0100
0000
0010
0000
0001
,
0000
0100
0000
1000
0000
0100
0000
0010
,
0000
0001
0100
0000
0000
1000
0100
0000
,
0000
0010
0001
0000
0000
0100
0001
0000
,
0000
0000
1000
0000
0000
0010
1000
0000
,
0000
0000
1000
0000
0001
1000
0000
0001
,
0000
0001
1000
0000
0000
0000
0000
0000
,
0000
0000
0000
0000
1000
0000
0100
1000
,
0000
0010
0001
0001
0000
0000
0001
0000
,
0000
0200
0320
2030
,
3002
0000
1003
0000
0001
0100
0000
0010
,
0000
1000
0000
0001
0100
0000
0000
0000
,
1000
0100
1000
0000
0010
0100
0000
0001
,
0000
1000
0000
0001
0100
0000
0000
0000
,
0010
0100
0001
0000
1000
0001
0000
1100
,
0000
0011
0000
0001
0001
0000
0000
0000
,
0100
0010
2000
0000
0000
0000
0001
0000
,
0000
0000
3002
0000
0000
0100
0200
0000
,
0000
0000
0000
0000
0000
0000
0000
0000
0303
0000
0000
0000
0001
0000
0000
1000
,
0000
2010
3001
0000
0000
0000
0001
0000
,
0100
0001
0100
0000
0000
0000
0010
0000
,
1000
0100
1000
0000
1000
0100
0000
0010
,
0000
0001
0000
0100
0000
1000
0000
0100
,
0000
0001
0100
0000
0000
0010
0000
0001
,
1000
0001
0100
0000
0000
1000
0000
0100
,
0000
0010
0000
0002
0200
0000
0000
0000
,
0000
0000
0000
0000
,
0303
0000
1000
0001
0100
0000
1000
0001
,
0100
0000
0010
0000
1000
0000
1000
0100
,
0010
0001
0100
0010
1000
0001
0100
0000
,
0010
0000
0100
1000
0000
0001
0010
0100
,
1000
0100
0001
0100
0001
0000
0010
0100
,
0010
0000
0010
1000
0001
0000
0100
1000
,
0100
0000
0001
1000
0001
0000
0010
0100
,
0010
0000
1000
0100
1000
0000
0010
0001
,
0010
0000
0011
0000
0000
1100
0000
0000
,
0000
0110
0000
0000
,
0000
2000
0000
0000
,
0000
3000
0000
0001
,
0100
0010
0100
0000
0000
0000
0010
0000
,
0010
0110
0000
0100
,
0100
0000
0110
0000
0001
1000
0000
0001
,
0000
0100
0000
0010
0000
1000
0000
0001
,
0000
0100
0001
0000
0000
0100
0000
1000
,
0100
1000
0100
0000
0000
2000
0000
0100
,
0000
0010
0000
0001
0002
0000
0000
0000
,
0000
0000
3003
0000
0000
0001
0100
0001
,
0100
0001
0100
0000
0000
0010
1000
0010
,
1000
0010
1000
0000
0000
0001
1000
0001
,
1000
0001
1000
0000
0001
0100
0000
0010
,
0000
1000
0000
0100
0000
0010
0000
0001
,
0000
0010
0100
0000
0000
2000
0000
0000
,
0100
0000
3010
0000
0000
0002
0000
0000
,
0100
0000
0013
0000
0000
0020
0000
0000
,
0100
0000
1030
0000
0000
2000
0000
0000
,
0100
0020
0000
0000
,
0000
0000
0000
0000
0000
0000
0000
0000
3030
0000
0000
0000
0001
0000
0000
0010
,
0000
1000
2002
0000
0000
0000
0000
0000
,
0000
0000
0000
0000
,
0000
3003
0000
0000
;

//---------------dance-single - ----------------
#NOTES:
     dance-single:
     :
     Easy:
     3:
     0.223,0.275,0.025,0.092,0.000:
0000
0000
0000
0000
,
0000
0000
0000
0000
,
0000
0000
0000
0000
,
0000
0000
0000
0000
,
0000
1000
1000
0001
,
0100
0010
1000
0100
,
0010
0001
0010
0001
,
0000
0100
0001
0100
,
0000
1000
0000
1000
,
0000
0001
0000
0001
,
0100
0100
0000
0010
,
1000
1000
0000
0001
,
1000
0001
0100
0010
,
1000
0100
0010
0001
,
1000
0001
0100
0010
,
1000
0100
0010
0001
,
1000
0002
0000
0000
,
0000
2000
0000
0000
,
3003
1000
0000
1000
,
0000
0001
0000
0001
,
0000
0100
0000
0100
,
0000
0010
0000
0000
,
0000
0010
0000
0000
,
0000
0000
1000
0001
,
1000
0001
0000
0100
,
0000
0020
0000
0000
,
0030
1000
0001
0100
,
0010
1000
0100
0000
,
1000
1000
0001
0100
,
0010
1000
0100
0000
,
0001
1000
0100
0010
,
0001
0010
0100
0000
,
1000
2000
0000
0001
,
0000
0001
0000
0002
,
0000
0000
0000
0000
,
0000
3003
0110
0000
0000
0000
0010
0000
,
0010
0010
0000
0100
,
0100
0100
1000
0100
,
0001
0010
1000
0100
,
0001
0101
0000
0001
,
0100
0010
0000
1000
,
0001
0200
0020
0000
,
0000
0000
0000
0000
,
0330
1000
0000
0001
,
0000
0100
0000
0010
,
1000
0001
0000
1000
,
0000
0100
0000
0001
,
1000
0100
1000
0100
,
0001
0010
0100
1000
,
0001
0100
0010
1000
,
0001
0100
1000
0100
,
0010
0000
0001
0000
0000
0010
0000
0000
,
0000
0100
0000
0000
,
0000
0002
0000
0000
,
0000
0003
0000
0000
,
0000
1000
0000
0000
,
0000
1000
0000
0000
,
0000
1000
0000
0000
,
0000
1000
0000
1000
,
0000
1000
0000
0001
,
0100
0010
0000
0010
,
0100
2000
0002
0000
,
0000
3003
0000
0001
,
0001
0001
0000
1000
,
1000
1000
0000
0010
,
0010
0100
0010
1000
,
0100
0001
0010
0100
,
1000
0010
0000
0001
,
0000
0100
0000
1000
,
0000
0010
0000
0100
,
0000
1000
0000
0001
,
0000
0200
0000
0000
,
0000
0000
0000
0000
,
0300
1001
0000
0000
;

//---------------dance-single - ----------------
#NOTES:
     dance-single:
     :
     Beginner:
     1:
     0.069,0.092,0.017,0.000,0.000: // measure 1
0000
0000
0000
0000
,  // measure 2
0000
0000
0000
0000
,  // measure 3
0000
0000
0000
0000
,  // measure 4
0000
0000
0000
0000
,  // measure 5
0000
1000
0000
0000
,  // measure 6
0000
0000
0000
0000
,  // measure 7
0000
0100
0000
0000
,  // measure 8
0000
0000
0000
0000
,  // measure 9
0000
0001
0000
0000
,  // measure 10
0000
0001
0000
0000
,  // measure 11
0000
1000
0000
0000
,  // measure 12
0000
1000
0000
0000
,  // measure 13
0000
0100
0000
0000
,  // measure 14
0000
0100
0000
0000
,  // measure 15
0000
0010
0000
0000
,  // measure 16
0000
0010
0000
0000
,  // measure 17
0000
0100
0000
0000
,  // measure 18
0000
0000
0000
0000
,  // measure 19
0000
1000
0000
0000
,  // measure 20
0000
1000
0000
0000
,  // measure 21
0000
0001
0000
0000
,  // measure 22
0000
0000
0000
0000
,  // measure 23
0000
0001
0000
0000
,  // measure 24
0000
0000
0000
0000
,  // measure 25
0000
0010
0000
0010
,  // measure 26
0000
0010
0000
0000
,  // measure 27
0000
0110
0000
0000
,  // measure 28
0000
0000
0000
0000
,  // measure 29
0000
0100
0000
0000
,  // measure 30
0000
0000
0000
0000
,  // measure 31
0000
1000
0000
0000
,  // measure 32
0000
0000
0000
0000
,  // measure 33
0001
0001
0000
0000
,  // measure 34
0000
0000
0000
0000
,  // measure 35
0000
0000
0000
0000
,  // measure 36
0000
1000
0000
0000
,  // measure 37
0000
0001
0000
0000
,  // measure 38
0000
0100
0000
0000
,  // measure 39
0000
0010
0000
0010
,  // measure 40
0000
0010
0000
0000
,  // measure 41
0000
0100
0000
0000
,  // measure 42
0000
1000
0000
0000
,  // measure 43
0000
0000
0000
0000
,  // measure 44
0000
0001
0000
0000
,  // measure 45
0000
0000
0000
0000
,  // measure 46
0000
1000
0000
0000
,  // measure 47
0000
0000
0000
0000
,  // measure 48
0000
0100
0000
0000
,  // measure 49
0000
0000
0000
0000
,  // measure 50
0000
0010
0000
0000
,  // measure 51
0000
0000
0000
0000
,  // measure 52
0000
1000
0000
0000
,  // measure 53
0000
0001
0000
0000
,  // measure 54
0000
0100
0000
0000
,  // measure 55
0000
0000
0000
0000
,  // measure 56
0000
0010
0000
0000
,  // measure 57
0000
0010
0000
0000
,  // measure 58
0000
0010
0000
0000
,  // measure 59
0000
0100
0000
0100
,  // measure 60
0000
0100
0000
0000
,  // measure 61
0000
1000
0000
0000
,  // measure 62
0000
0000
0001
0000
,  // measure 63
0000
0000
0000
0000
,  // measure 64
0000
0100
0000
0000
,  // measure 65
0000
0010
0000
0000
,  // measure 66
0000
1000
0000
0000
,  // measure 67
0000
0001
0000
0000
,  // measure 68
0000
1000
0000
0000
,  // measure 69
0000
1000
0000
0000
,  // measure 70
0000
0001
0000
0000
,  // measure 71
0000
0100
0000
0000
,  // measure 72
0000
0010
0000
0000
,  // measure 73
0000
0000
0000
0000
,  // measure 74
0000
1001
0000
0000
;
