#TITLE:Disabled the FLAW;
#SUBTITLE:;
#ARTIST:D-crew;
#TITLETRANSLIT:;
#SUBTITLETRANSLIT:;
#ARTISTTRANSLIT:;
#CREDIT:;
#BANNER:bn.png;
#BACKGROUND:bg.png;
#LYRICSPATH:;
#CDTITLE:Pop'n Music.png;
#MUSIC:Disabled the FLAW.mp3;
#OFFSET:-0.440;
#SAMPLESTART:20.300;
#SAMPLELENGTH:11.000;
#SELECTABLE:YES;
#BPMS:0.000=171.000,52.000=144.000,56.000=171.000;
#STOPS:;
#BGCHANGES:;

//---------------dance-single - ----------------
#NOTES:
     dance-single:
     :
     Hard:
     9:
     0.645,0.835,0.298,0.071,0.156:
0000
0000
0000
0000
,
0000
0000
0000
0000
,
0000
0000
0000
0000
,
0000
0000
0000
0000
,
1100
0000
0011
0000
,
0110
0000
1010
0000
,
0101
0110
1010
0110
,
0010
0000
0100
0000
0110
0000
0000
1000
0001
0000
1000
0000
0001
0000
1000
0000
,
0001
0100
0010
0001
0010
0100
0010
0100
,
0101
0000
1001
1001
,
0020
0001
0031
1000
0010
0100
0010
0100
,
1000
0000
1000
0000
1000
0000
0000
1000
0100
0000
0010
0000
0100
0000
0010
0000
,
0100
0000
0001
0000
1000
0000
0000
0100
0010
0000
0100
0000
0010
0000
0100
0000
,
2002
0000
0000
3000
0000
0000
0000
0003
,
1000
0100
1000
0100
1000
0100
1000
0100
,
0010
0001
0010
0001
0010
0001
0010
0100
,
0001
0100
0001
0100
0001
0100
0000
0010
,
1000
0010
1000
0010
1000
0010
0001
0001
,
0100
1000
0100
0001
0100
1000
0100
0001
,
0010
1000
0010
0001
0010
1000
0010
1000
,
0001
1000
0010
1000
0001
0100
0000
1000
,
0100
0010
0001
0010
0100
1000
0100
1000
,
0100
1000
1100
0000
0010
0001
0000
0010
,
0100
1000
0000
0100
1000
0000
1000
0100
,
0010
0001
0010
0000
0001
0100
0000
0010
,
0100
0000
0100
1000
0000
1000
0100
0010
,
0001
0010
0100
0000
1000
0100
0000
0010
,
0001
0010
0000
0100
0010
0000
1000
0100
,
0010
0001
0010
0000
0001
0100
0000
1000
,
0100
0000
0010
0001
0000
0010
1000
0001
,
0100
0000
0000
0001
0000
0000
1000
0000
0000
1000
0000
0000
0100
0000
1000
0000
,
0001
0000
0000
0100
0000
0000
0010
0000
0000
1000
0000
0000
0100
0000
0001
0000
,
1000
0000
0000
0100
0000
0000
0001
0000
0000
0001
0000
0000
1000
0000
0100
0000
,
1000
0000
0000
0100
0000
0000
0010
0000
0000
0010
0000
0000
0001
0000
0100
0000
,
0010
0000
0000
0010
0000
0000
0001
0000
0000
1000
0000
0000
0010
0000
1000
0000
,
0001
0000
0000
1000
0000
0000
0100
0000
0000
0010
0000
0000
0010
0000
0001
0000
,
0010
0000
0000
0001
0000
0000
0010
0000
0000
0100
0000
0000
1000
0000
0001
0000
,
0010
0000
0000
1000
0000
0000
0001
0000
0000
0001
0000
0000
0001
0000
0100
0000
,
1000
0100
0010
0100
0010
0100
0001
0001
,
0010
1000
0001
0100
0010
0010
0100
0100
,
1000
0100
0010
0001
0010
0100
0010
0100
,
0010
1000
0001
0100
0010
1000
0001
0001
,
1000
0100
0010
0001
0010
0010
0100
0100
,
0010
1000
0001
0001
1000
1000
0100
0100
,
0010
0100
0001
1000
0010
0100
0001
0001
,
0010
0100
0001
1000
0010
0100
0010
0100
,
1001
0000
1001
0000
1001
0000
0000
1000
0010
0000
0101
0000
1100
0000
0011
0000
,
0100
0000
0010
0000
0100
0000
0000
1000
0001
0000
1000
0000
0010
0000
0100
0000
,
2002
0000
0000
3000
,
0000
0000
0000
0000
0000
0000
0000
0000
0000
0000
0000
0000
1000
0003
0000
0000
0000
0000
0000
0000
0000
0000
0000
0000
0000
0000
0000
0000
0000
0000
0000
0000
0000
0000
0000
0000
0000
0000
0000
0000
0000
0000
0000
0000
0000
0000
0000
0000
0000
0000
0000
0000
0000
0000
0000
0000
0000
0000
0000
0000
0000
0000
0000
0000
0000
0000
0000
0000
0000
0000
0000
0000
0000
0000
0000
0000
0000
0000
0000
0000
0000
0000
0000
0000
0000
0000
0000
0000
0000
0000
0000
0000
0000
0000
0000
0000
0000
0000
0000
0000
0000
0000
0000
0000
0000
0000
0000
0000
0000
0000
0000
0000
0000
0000
0000
0000
0000
0000
0000
0000
0000
0000
0000
0000
0000
0000
0000
0000
0000
0000
0000
0000
0000
0000
0000
0000
0000
0000
0000
0000
0000
0000
0000
0000
0000
0000
0000
0000
0000
0000
0000
0000
0000
0000
0000
0000
0000
0000
0000
0000
0000
0000
0000
0000
0000
0000
0000
0000
0000
0000
0000
0000
0000
0000
0000
0000
0000
0000
0000
0000
0000
0000
0000
0000
0000
0000
0000
0000
0000
0000
0000
0000
;

//---------------dance-single - ----------------
#NOTES:
     dance-single:
     :
     Medium:
     7:
     0.521,0.522,0.199,0.014,0.007:
0000
0000
0000
0000
,
0000
0000
0000
0000
,
0000
0000
0000
0000
,
0000
0000
0000
0000
,
1100
0000
0010
0000
,
0011
0000
0001
0000
,
0110
1010
0101
1100
,
0010
0010
0010
0000
0100
0100
0100
0000
,
1000
0100
0010
0001
0010
0100
1000
0100
,
0001
0000
1001
1001
,
0001
1000
0010
0000
0100
1000
0100
0000
,
0010
0001
0010
0000
0100
0000
1000
0000
,
0000
0100
1000
0000
0010
0100
0010
1000
,
1001
0000
0000
0000
,
0010
0000
0010
0000
0010
0000
0010
1000
,
0100
0000
0100
0000
0100
0000
0001
0010
,
1000
0001
0100
0010
1000
0100
0000
1000
,
0100
0000
1000
0000
0100
0000
1000
1000
,
0100
0000
0010
0000
0001
0000
0010
0100
,
0010
0000
1000
0000
0001
0100
1000
0100
,
0010
0001
0010
0100
1000
0100
0000
0010
,
0100
0010
1000
0001
0100
0000
1000
0000
,
0100
1000
0100
0000
1000
0000
0100
0000
,
0010
0000
0011
0000
0001
0100
0001
0000
,
0110
0000
1010
0000
0001
0100
0010
1000
,
0010
0000
0100
0000
1000
0000
1000
0100
,
1000
0000
1000
0000
1000
0000
1000
0100
,
0010
0000
0010
0000
0010
0000
0010
0100
,
0001
0000
0001
0000
0001
0000
0001
0010
,
0100
0000
0100
0000
0100
0000
0010
1000
,
0001
0000
1000
0100
0000
0010
0000
0100
,
1000
0010
0100
0000
1000
0100
0010
0001
,
0010
0000
0100
1000
0000
1000
0100
0000
,
0010
0100
0010
0100
0010
0100
0010
0100
,
0010
0001
0000
0010
0001
0000
0010
0100
,
0010
0100
0000
0100
1000
0000
1100
0000
,
0010
1000
0010
0000
0010
0100
0010
0000
,
0001
1000
0001
1000
0010
0000
0100
0000
,
0010
0010
0000
0100
0100
0000
1000
1000
,
0000
0001
0100
0001
0100
0001
0100
0001
,
0100
0100
0000
0010
0010
0000
1000
0000
,
0001
1000
0001
1000
0001
1000
0001
1000
,
0001
0100
0000
0010
0100
0000
1000
0100
,
0000
0010
0001
0000
0010
0100
0010
0100
,
0010
1000
0000
0001
0100
0000
1000
0100
,
0000
0010
0001
0010
0100
0000
0010
0000
,
0001
1000
1001
0000
0010
0100
0001
1000
,
0000
0010
0100
0000
1000
0001
0100
0010
,
2000
0000
0000
0000
,
0000
3001
0000
0000
0000
0000
0000
0000
0000
0000
0000
0000
0000
0000
0000
0000
;

//---------------dance-single - ----------------
#NOTES:
     dance-single:
     :
     Easy:
     5:
     0.454,0.522,0.667,0.085,0.007:
0000
0000
0000
0000
,
0000
0000
0000
0000
,
0000
0000
0000
0000
,
0000
0000
0000
0000
,
1001
0000
1000
0000
,
0001
0000
0100
0000
,
0110
0010
0110
0010
,
1100
0011
0010
0100
,
1100
0010
0100
0010
,
2002
3000
0100
0013
,
0100
1000
0010
0100
,
0102
1003
0010
0100
,
2000
0000
0010
0100
,
0002
0000
0000
3003
,
0010
1000
0100
0110
,
0001
1000
0100
0101
,
0010
1000
0011
0000
,
0001
0100
1000
0110
,
0010
1000
0100
0011
,
0001
0100
1000
1010
,
1000
0100
0011
0000
,
0001
0100
1000
0010
,
1000
0100
1000
0100
,
0011
0001
0100
1000
,
1001
0010
0100
1000
,
1100
0010
0011
0101
,
0010
0100
1000
1100
,
0010
1000
0100
0110
,
0010
1000
0001
0011
,
0001
0100
1000
1010
,
1000
0100
0010
0001
,
0001
0100
1000
1000
,
1000
0110
0001
1000
,
0100
0100
0010
0010
,
1001
0010
0100
1000
,
0010
0001
0010
0100
,
1001
0010
1100
0010
,
0101
1010
0001
0100
,
1000
0100
0011
0001
,
0101
0010
1010
0101
,
1100
0010
0100
0010
,
1010
1010
0101
0101
,
1100
0011
0010
0100
,
1001
0010
0100
1000
,
1001
0010
0100
1000
,
0011
1100
0110
1001
,
0010
1000
0010
0000
1000
0100
0010
0001
,
0000
0010
0100
0000
0010
0000
1000
0001
,
2000
0000
0000
0000
,
0000
0000
0000
0000
0000
0000
0000
0000
0000
0000
0000
0000
0010
3000
0000
0000
0000
0000
0000
0000
0000
0000
0000
0000
0000
0000
0000
0000
0000
0000
0000
0000
0000
0000
0000
0000
0000
0000
0000
0000
0000
0000
0000
0000
0000
0000
0000
0000
0000
0000
0000
0000
0000
0000
0000
0000
0000
0000
0000
0000
0000
0000
0000
0000
0000
0000
0000
0000
0000
0000
0000
0000
0000
0000
0000
0000
0000
0000
0000
0000
0000
0000
0000
0000
0000
0000
0000
0000
0000
0000
0000
0000
0000
0000
0000
0000
0000
0000
0000
0000
0000
0000
0000
0000
0000
0000
0000
0000
0000
0000
0000
0000
0000
0000
0000
0000
0000
0000
0000
0000
0000
0000
0000
0000
0000
0000
0000
0000
0000
0000
0000
0000
0000
0000
0000
0000
0000
0000
0000
0000
0000
0000
0000
0000
0000
0000
0000
0000
0000
0000
0000
0000
0000
0000
0000
0000
0000
0000
0000
0000
0000
0000
0000
0000
0000
0000
0000
0000
0000
0000
0000
0000
0000
0000
0000
0000
0000
0000
0000
0000
0000
0000
0000
0000
0000
0000
0000
0000
0000
0000
0000
0000
;

//---------------dance-single - ----------------
#NOTES:
     dance-single:
     :
     Beginner:
     2:
     0.087,0.209,0.000,0.000,0.007:
0000
0000
0000
0000
,
0000
0000
0000
0000
,
0000
0000
0000
0000
,
0000
0000
0000
0000
,
0010
0000
0000
0000
,
0010
0000
0000
0000
,
0010
0000
0010
0000
,
0010
0000
0000
0000
,
0100
0000
0100
0000
,
0100
0000
1000
1000
,
1000
0000
0000
0000
,
0001
0000
0000
0000
,
0000
0000
0000
0000
,
0010
0000
0000
0000
,
0100
0000
0000
0000
,
0100
0000
0000
0000
,
0100
0000
0000
0000
,
0000
0000
0000
1000
,
1000
0000
0000
0000
,
0001
0000
0000
0000
,
0010
0000
0000
0000
,
0000
0000
0000
0000
,
0100
0000
0000
0000
,
1000
0000
0000
0000
,
0001
0000
0000
0000
,
0000
0000
0000
0000
,
0010
0000
0000
0000
,
0010
0000
0000
0000
,
0010
0000
0000
0000
,
0000
0000
0000
0000
,
1000
0000
0000
0000
,
1000
0000
0000
0000
,
0100
0000
0000
0000
,
0010
0000
0000
0000
,
0001
0000
0000
0000
,
0001
0000
0000
0000
,
1000
0000
0000
0000
,
0001
0000
0000
0000
,
0100
0000
0000
0000
,
0100
0000
0000
0000
,
0100
0000
0000
0000
,
0010
0000
0000
0000
,
0010
0000
0000
0000
,
0010
0000
0000
0000
,
0001
0000
0000
0000
,
0001
0000
0000
0000
,
0000
0000
0000
0000
,
0000
0000
0000
0000
,
0000
0000
0000
0000
,
0000
1000
0000
0000
0000
0000
0000
0000
0000
0000
0000
0000
0000
0000
0000
0000
;
