#TITLE:Dazzlin'Darlin -Akiba Koubou mix-;
#SUBTITLE:;
#ARTIST:Remixed by DJ Command;
#TITLETRANSLIT:;
#SUBTITLETRANSLIT:;
#ARTISTTRANSLIT:;
#CREDIT:;
#BANNER:bn.png;
#BACKGROUND:bg.png;
#LYRICSPATH:;
#CDTITLE:;
#MUSIC:Dazzlin'Darlin iidx17.mp3;
#OFFSET:-0.020;
#SAMPLESTART:82.940;
#SAMPLELENGTH:12.000;
#SELECTABLE:YES;
#BPMS:0.000=160.000,144.000=80.000,160.000=160.000;
#STOPS:204.000=1.125
;
#BGCHANGES:;

//---------------dance-single - ----------------
#NOTES:
     dance-single:
     :
     Hard:
     8:
     0.518,0.786,0.405,0.252,0.252:
0000
0000
0000
0000
,
0000
0000
0000
0000
,
0000
0000
0000
0000
,
0000
0000
0000
0000
,
0000
0000
0000
0000
,
0000
0000
0000
0000
,
2002
3003
0000
0000
,
0000
0000
0000
0000
,
1000
0001
0100
0010
,
0010
0000
0000
0110
0000
0000
1000
0000
0000
1001
0000
0000
0001
0000
1000
0000
,
0100
0000
0000
1000
0000
0000
0010
0000
0200
0000
0000
0000
0310
0000
0000
0000
,
0101
0000
0000
0001
0000
0000
0001
0000
0200
0000
0000
0000
0310
0000
1000
0000
,
0100
0000
0000
1000
0000
0000
0001
0000
0100
0000
0000
0010
0000
0000
0100
0000
,
0010
1000
0000
0001
0000
1000
0100
0000
1000
0000
0000
0000
1000
0000
0001
0000
,
0010
0000
0000
0011
0000
0000
0002
0000
0100
0000
0000
0000
0103
0000
0000
0000
,
0120
0000
0000
0130
0000
0000
0010
0000
2000
0000
0000
0000
3100
0000
1000
0000
,
0001
0000
0000
0001
0000
0000
1000
0000
0001
0000
0000
0100
0000
0000
0010
0000
,
1000
0100
0000
0010
0000
0001
0200
0000
0010
0000
0000
0010
0000
0000
0310
0000
,
0000
0000
0000
0000
,
1001
0000
0101
0000
0001
0100
0010
0100
,
0010
1000
0010
0100
,
0010
1000
0001
0100
,
0010
1010
0101
1100
,
1001
0000
0010
1000
0010
0000
0010
0100
,
0010
0000
1000
1000
0000
0010
0100
0000
,
0110
0000
0010
1000
0001
0000
0001
0100
,
0001
0012
0100
0013
,
0120
0000
0100
0000
0100
0100
0130
0000
,
0000
0110
1001
1100
,
1020
0000
1000
0000
1000
1000
1030
0000
,
0000
1100
0101
1100
,
0102
0000
0010
0000
0100
0100
0103
0000
,
0000
0000
0110
0000
1001
0000
2000
0200
,
0000
0000
3300
0000
,
0010
0000
0001
0000
1000
0001
0100
0001
0010
0000
0000
0010
0000
0000
0010
0000
,
0000
0000
0000
0000
0000
0000
1000
0001
,
0100
0000
0000
0010
0000
0000
0100
0000
0020
0000
0000
0000
1030
0000
0000
0000
0001
0000
0000
1000
0000
0000
0001
0000
0100
0000
0000
0000
0010
0000
1000
0000
,
0010
0000
0000
0100
0000
0000
0100
0000
0010
0000
0000
0010
0000
0000
0010
0000
1000
0000
0001
0000
1000
0000
0001
0000
0100
0000
0000
0000
0010
0000
1000
0000
,
0001
0000
0000
1000
0000
0000
0001
0000
0200
0000
0000
0000
0310
0000
0000
0000
0010
0000
0000
0100
0000
0000
0010
0000
1000
0000
0000
0000
0010
0000
1000
0000
,
0010
0000
0000
0100
0000
0000
0100
0000
0010
0000
0000
1000
0000
0000
0010
0000
1000
0000
0100
0000
0010
0000
0001
0000
0010
0000
0000
0000
0001
0000
0100
0000
,
0010
0000
0000
0100
0000
0000
0010
0000
2000
0000
0000
0000
3100
0000
0000
0000
,
0010
0000
0000
0100
0000
0000
0010
0000
0002
0000
0000
0000
1003
0000
0100
0000
,
0010
0000
0000
0100
0000
0000
1000
0000
0200
0000
0000
1300
0000
0000
0010
0000
,
0100
0010
1000
0001
1000
0000
0001
0100
,
0001
0000
0000
0100
0000
0000
0010
0000
0200
0000
0000
0000
0310
0000
0000
0000
,
0010
0000
0000
1000
0000
0000
0001
0000
0200
0000
0000
0000
0310
0000
1000
0000
,
0010
0000
0000
0100
0000
0000
0001
0000
1000
0000
0000
0001
0000
0000
1000
0000
,
0100
0001
0100
1000
0100
0000
1000
0100
,
1000
0001
1000
0100
1000
0000
0001
1000
,
0100
0110
0000
0000
0010
0110
0000
0000
,
1000
0100
0010
0001
0010
0100
0010
1000
,
0000
0000
1001
0000
1100
0000
0010
1000
,
0010
0010
0110
0110
,
0110
0120
1000
0001
,
0130
0000
0010
1000
0001
0100
0001
0000
,
0010
0000
0021
0000
0100
0000
0001
0001
,
0031
0001
0020
0130
,
0010
1000
1001
0000
0010
0000
1001
0000
,
0010
0000
0001
1000
0010
0100
0010
0000
,
1000
0000
1020
0000
0100
0000
0100
0100
,
0230
0010
0001
0010
,
0301
0000
1002
0000
0100
0000
1000
1000
,
1003
0010
0100
1010
,
0101
0000
0120
0000
1030
0000
1000
0001
,
0100
0010
0110
0010
,
0001
1000
0010
0000
0100
0000
0010
0000
,
1000
0000
0000
0000
0001
1000
0000
0001
0000
0001
0100
0000
0110
0000
0000
1001
,
0000
0101
0000
0000
0000
0000
0000
0000
;

//---------------dance-single - ----------------
#NOTES:
     dance-single:
     :
     Challenge:
     9:
     0.698,1.000,0.252,0.252,0.774:
0000
0000
0000
0000
,
0000
0000
0000
0000
,
0000
0000
0000
0000
,
0000
0000
0000
0000
,
0000
0000
0000
0000
,
0000
0000
0000
0000
,
2200
3300
1000
0100
,
1000
0001
0100
0001
,
0010
0001
0010
1000
0100
0001
0100
0010
,
1001
0000
0000
1001
0000
0000
0110
0000
0000
0110
0000
0000
1001
0000
1000
0000
,
1100
0000
1000
0001
0000
0001
0100
0000
0210
0000
0000
0000
0320
0000
0000
0000
,
1030
0000
1000
0100
0000
0001
0010
0000
0002
0000
0000
0000
1003
0000
0001
0000
,
0100
0010
0000
0010
0100
0010
1000
0000
1000
0100
0000
0001
0000
1000
0001
0000
,
0100
0010
0000
0100
0000
0010
0000
1000
0100
0000
0000
0000
1000
0001
1000
0000
,
0011
0000
0001
1000
0000
1000
0010
0000
0120
0000
0000
0000
0230
0000
0000
0000
,
0301
0000
0001
0010
0000
1000
0100
0000
2000
0000
0000
0000
3001
0000
1000
0000
,
0010
0100
0000
0100
0010
0100
0001
0000
0001
0010
0000
1000
0000
0001
1000
0000
,
0010
0100
0000
0010
0000
0100
0020
0000
1000
0000
0000
1000
0000
0000
1030
0000
,
0000
0000
0000
0000
,
1000
0001
1000
0001
1000
0001
1000
0001
,
0100
0001
0100
0001
0100
0010
0100
0010
,
1000
0010
1000
0010
1000
0010
1000
0010
,
1000
0100
1000
0100
1000
0100
1000
0000
,
0011
0000
0101
0000
0120
0000
0100
0130
,
0020
1000
1030
0001
0200
0001
0301
1000
,
0001
0001
1000
0001
0100
0100
0010
1000
,
1010
0002
0203
0320
,
1030
0100
0000
0000
0010
0001
0000
0000
0001
0100
0000
0000
0010
0100
0000
0000
,
0000
0000
0000
0000
1000
0100
0000
0000
0001
0100
0000
0000
0010
0100
0000
0000
,
0001
1000
0000
0000
1000
0100
0000
0000
0010
0001
0000
0000
0001
0100
0000
0000
,
0000
0000
0000
0000
0010
0100
0000
0000
0010
0100
0000
0000
0010
0100
0000
0000
,
0010
1000
0000
0000
0010
1000
0000
0000
0001
0100
0000
0000
1000
0100
0000
0000
,
0000
0000
0000
0000
0010
0001
0000
0000
0001
0010
0000
0000
0001
0010
0001
0010
,
0001
1000
0001
0100
,
0010
0000
1000
0000
0001
1000
0001
0100
0010
0000
0000
0110
0000
0000
0110
0000
,
0000
0000
0000
0000
0000
0000
1000
0001
,
0100
0000
0010
0100
0000
0100
0010
0000
0010
0000
0000
0000
1000
0000
0000
0000
0001
0000
0001
0100
0000
0100
0010
0000
1000
0000
0000
0000
0010
0000
1000
0000
,
0010
0000
0010
0100
0000
0100
0010
0000
0010
0000
0010
1000
0000
1000
0001
0000
0010
0000
0100
0000
1000
0000
0100
0000
0010
0000
0000
0000
1000
0000
0100
0000
,
0010
0000
0001
0010
0000
0001
0010
0000
0002
0000
0000
0000
0010
0003
0000
0000
0001
0000
0001
0100
0000
0001
0100
0000
0010
0000
0000
0000
0010
0000
0100
0000
,
0010
0000
0010
0100
0000
0010
0100
0000
0010
0000
1000
0001
0000
0100
1000
0000
0001
0000
0100
0000
0010
0000
1000
0000
0001
0000
0000
0000
1000
0000
0001
0000
,
0100
0000
0010
0100
0000
0010
0100
0000
0020
0000
0000
0000
0230
0000
0000
0000
,
0310
0000
0010
1000
0000
0010
1000
0000
0010
0000
0000
0000
1000
0000
0100
0000
,
0010
0000
0001
0100
0000
0100
0010
0000
0010
0000
0010
1000
0000
1000
0001
0000
,
0001
0100
0010
1000
0001
0000
0001
0100
,
0001
0000
0001
0100
0000
0100
0001
0000
0020
0000
0000
0000
0230
0000
0000
0000
,
0310
0000
0010
0100
0000
0010
0100
0000
0010
0000
0000
0000
1000
0000
0100
0000
,
0010
0000
0001
0010
0000
0001
0010
0000
0100
0000
0100
1000
0000
1000
0100
0000
,
1000
0000
0100
0000
0001
0000
0100
0000
0110
0000
0000
0110
0000
0000
0110
0000
,
0010
0000
1000
0000
0001
0000
0100
0000
0101
0000
0000
0101
0000
0000
0101
0000
,
0001
0100
0010
1000
0010
0100
0010
1000
,
0001
0000
0100
0000
0010
0000
1000
0000
0001
0100
0001
0100
0010
0001
1000
0001
,
0200
0300
0000
0000
1000
0100
0000
0000
0010
0001
0000
0000
0001
0100
0000
0000
,
0001
0100
0000
0000
0000
0000
0000
0000
0010
0100
0000
0000
0010
1000
0000
0000
,
0001
0100
0000
0000
1000
0100
0000
0000
0010
0001
0000
0000
0001
0100
0000
0000
,
0010
0100
0000
0000
0000
0000
0000
0000
0010
0100
0000
0000
0001
1000
0000
0000
,
1000
0100
0000
0000
0010
0001
0000
0000
0001
0100
0000
0000
0010
0100
0000
0000
,
0010
1000
0000
0000
0000
0000
0000
0000
0001
0100
0000
0000
0010
0100
0000
0000
,
0010
0100
0010
0100
0010
0000
0000
0010
0000
0000
0010
0000
1000
0000
0000
1000
,
0000
0000
1000
0000
0001
0000
0100
0000
0010
0000
1000
0000
1010
0000
0000
0101
,
0000
0000
0010
0000
0011
0000
0001
1000
0000
1000
0010
0000
0120
0000
0000
0000
,
0230
0000
0000
0000
0301
0000
0001
0010
0000
1000
0100
0000
2000
0000
0000
0000
,
3001
0000
1000
0000
0010
0100
0000
0100
0010
0100
0001
0000
0001
0010
0000
1000
,
0000
0001
1000
0000
0010
0100
0000
0010
0000
0100
0000
0001
0010
0000
0000
0000
,
0001
1000
0001
0000
1100
0000
1000
0001
0000
0001
0100
0000
0210
0000
0000
0000
,
0320
0000
0000
0000
1030
0000
1000
0100
0000
0001
0010
0000
0002
0000
0000
0000
,
1003
0000
0001
0000
0100
0010
0000
0010
0100
0010
1000
0000
1000
0100
0000
0001
,
0000
1000
0001
0000
0100
0010
0000
0100
0000
0010
0200
0000
0001
0000
0000
0001
,
0000
0301
0000
0000
0000
0000
0000
0000
;

//---------------dance-single - ----------------
#NOTES:
     dance-single:
     :
     Medium:
     5:
     0.400,0.453,0.513,0.135,0.005:
0000
0000
0000
0000
,
0000
0000
0000
0000
,
0000
0000
0000
0000
,
0000
0000
0000
0000
,
0000
0000
0000
0000
,
0000
0000
0000
0000
,
1001
0000
0000
0000
,
0000
0000
0000
0000
,
0000
0000
0000
0000
,
1010
0000
0010
0000
0010
0000
0010
1000
,
0001
1000
0002
0103
,
0001
0000
0100
0010
1000
0000
0001
1000
,
0001
0100
0010
1000
,
0010
1000
0010
1000
0010
0000
0010
1000
,
0001
0001
2000
3001
,
0100
0000
0010
1000
0001
0000
1000
0001
,
0100
0010
1000
0010
,
2000
3200
2000
0000
,
3300
0000
0000
0000
,
1000
0000
0001
0000
0100
0001
0100
0000
,
0100
0010
1000
0010
,
0100
0010
1000
0001
,
0100
0101
1010
0101
,
0110
0000
0010
0000
,
0010
0000
0100
0010
0000
0000
0010
0000
,
1000
0000
0000
0010
0010
0000
1000
0000
,
2002
0000
3003
0000
,
1001
0101
0110
1010
,
0000
0010
0100
0010
,
1010
0110
1010
0110
,
0000
1000
0010
0100
,
0101
1010
0101
1010
,
0000
0000
0010
0000
1000
0000
0002
0200
,
0000
0000
0303
0000
,
0001
1000
0100
0010
,
1000
0000
0000
0000
0000
0000
1000
0001
,
0100
0000
0001
0000
0100
0000
0010
1000
,
0100
0000
1000
0000
0010
1000
0001
0100
,
0011
0001
0100
0010
,
1000
0000
0100
0000
1000
0001
0100
0010
,
1010
0010
0210
0310
,
1000
0000
0100
0000
1000
0000
1000
0100
,
0010
0011
0100
0101
,
0001
1000
0001
1000
0001
0000
0100
0010
,
1000
0010
0120
0130
,
0010
0000
1000
0100
2000
0000
3010
0000
,
1010
0010
0110
0010
,
1000
0001
1000
0001
1000
0000
0000
0000
,
0001
1000
0001
1000
0001
0000
0000
0000
,
1001
1001
0000
0000
1001
1001
0000
0000
,
1001
0000
1001
0000
0001
1000
0001
0100
,
0000
0000
0110
0000
1010
0000
0010
0100
,
0010
0000
1010
0101
,
1000
0000
1100
0000
1100
0000
1000
0100
,
1000
0000
1001
1010
,
0101
0000
0101
0000
0101
0000
0100
0001
,
0100
0000
0101
0110
,
2000
0200
0000
0000
0000
0000
3300
0000
,
0000
0000
0001
1000
,
0001
0000
1001
0000
1001
0000
0001
1000
,
0001
0000
1100
1100
,
1100
0000
1000
0000
0100
0000
0010
0001
,
0100
0000
0101
0010
,
0110
0000
1010
0000
1010
0000
1000
0010
,
1000
0000
1010
0101
,
1000
0001
0100
0000
0010
0000
1000
0000
,
0001
0000
0000
0000
0100
0000
0010
0000
1000
0000
0001
0000
2000
0000
0000
0001
,
0000
3001
0000
0000
0000
0000
0000
0000
;

//---------------dance-single - ----------------
#NOTES:
     dance-single:
     :
     Easy:
     4:
     0.292,0.361,0.225,0.036,0.000:
0000
0000
0000
0000
,
0000
0000
0000
0000
,
0000
0000
0000
0000
,
0000
0000
0000
0000
,
0000
0000
0000
0000
,
0000
0000
0000
0000
,
0110
0000
0000
0000
,
0000
0000
0000
0000
,
0000
0000
0000
0000
,
1001
0000
1000
0000
0000
0000
0001
1000
,
0001
0100
0010
1000
,
0010
0100
0010
1000
,
0001
0001
1000
1000
,
0001
0100
0010
1000
,
0010
1000
0001
0000
,
0001
0010
1000
0000
,
0001
1000
0001
0100
,
0010
1000
1001
0000
,
0000
0000
0000
0000
,
1000
0100
0010
1000
,
0100
0010
1000
0100
,
0010
1000
0100
0010
,
1000
0100
0010
0001
,
1001
0000
0101
0000
,
0110
1010
1001
0000
,
0001
0001
1000
1000
,
1001
0000
0010
0000
,
0001
1000
0100
0100
,
0000
0100
1000
0001
,
1000
0001
0100
0100
,
0000
0100
0001
1000
,
0001
1000
0100
0100
,
0000
0010
1000
0100
,
1000
0000
0001
0000
,
1001
0000
0010
0000
,
0000
0000
0000
0000
0000
0000
0001
1000
,
0100
1000
0010
0001
,
0100
0000
0010
0000
1000
0001
1000
0000
,
0101
0100
0010
1000
,
0001
0000
1000
0000
0100
1000
0100
0000
,
1000
1000
2000
3100
,
0010
0010
0020
0031
,
0200
0301
2000
3010
,
0010
0010
0010
0100
,
0010
1000
0001
1001
,
0001
0100
0010
1000
,
0100
0100
1000
0010
,
1000
0100
0010
0000
,
1000
0100
0010
0000
,
1100
0000
1100
0000
,
1100
0011
1010
0101
,
0000
1000
0001
0100
,
0001
0000
1000
0001
,
0100
0110
0010
0100
,
0010
0000
0010
1000
,
0001
0101
0100
0001
,
0001
0000
1000
0001
,
0100
0010
0000
0000
0000
0000
0000
0000
,
0000
0000
0010
0010
,
0010
1001
1000
0001
,
0001
0000
0001
1000
,
0100
1100
1000
1100
,
0011
0000
0001
0100
,
0010
0110
0010
1000
,
0001
0000
1000
0001
,
0100
0010
1000
0000
0000
0000
1000
0000
,
0000
1000
0001
0100
;

//---------------dance-single - ----------------
#NOTES:
     dance-single:
     :
     Beginner:
     1:
     0.069,0.150,0.018,0.000,0.000: // measure 1
0000
0000
0000
0000
,  // measure 2
0000
0000
0000
0000
,  // measure 3
0000
0000
0000
0000
,  // measure 4
0000
0000
0000
0000
,  // measure 5
0000
0000
0000
0000
,  // measure 6
0000
0000
0000
0000
,  // measure 7
0010
0000
0000
0000
,  // measure 8
0000
0000
0000
0000
,  // measure 9
0000
0000
0000
0000
,  // measure 10
0000
0000
0000
0000
,  // measure 11
0001
0000
0000
0000
,  // measure 12
1000
0000
0000
0000
,  // measure 13
0010
0000
0010
0000
,  // measure 14
0010
0000
0000
0000
,  // measure 15
0100
0000
0000
0000
,  // measure 16
1000
0000
0000
0000
,  // measure 17
0001
0000
0001
0000
,  // measure 18
0001
0000
0000
0000
,  // measure 19
0000
0000
0000
0000
,  // measure 20
0010
0000
0000
0000
,  // measure 21
0000
0000
0000
0000
,  // measure 22
1000
0000
0000
0000
,  // measure 23
0000
0000
0000
0000
,  // measure 24
1001
0000
0000
0000
,  // measure 25
0000
0000
0000
0000
,  // measure 26
0001
0000
0000
0000
,  // measure 27
0000
0000
0000
0000
,  // measure 28
0010
0000
0000
0000
,  // measure 29
0000
0000
0000
0000
,  // measure 30
0100
0000
0000
0000
,  // measure 31
0000
0000
0000
0000
,  // measure 32
1000
0000
0000
0000
,  // measure 33
0000
0000
0000
0000
,  // measure 34
0001
0000
0000
0000
,  // measure 35
0000
0000
0000
0000
,  // measure 36
0000
0000
0000
0000
,  // measure 37
0010
0000
0000
0000
,  // measure 38
0010
0000
0000
0000
,  // measure 39
1000
0000
0000
0000
,  // measure 40
0001
0000
0000
0000
,  // measure 41
0010
0000
0000
0000
,  // measure 42
0010
0000
0000
0000
,  // measure 43
1000
0000
0000
0000
,  // measure 44
1000
0000
0000
0000
,  // measure 45
0001
0000
0000
0000
,  // measure 46
0100
0000
0000
0000
,  // measure 47
0010
0000
0000
0000
,  // measure 48
0010
0000
0000
0000
,  // measure 49
0010
0000
0000
0000
,  // measure 50
0010
0000
0010
0000
,  // measure 51
0010
0010
0010
0010
,  // measure 52
0000
1000
0000
0000
,  // measure 53
0000
0000
0000
0000
,  // measure 54
0000
0001
0000
0000
,  // measure 55
0000
0000
0000
0000
,  // measure 56
0000
0100
0000
0000
,  // measure 57
0000
0000
0000
0000
,  // measure 58
0000
0010
0000
0010
,  // measure 59
0000
0010
0000
0000
,  // measure 60
0000
1001
0000
0000
,  // measure 61
0000
0000
0000
0000
,  // measure 62
0000
1000
0000
0000
,  // measure 63
0000
0000
0000
0000
,  // measure 64
0000
0001
0000
0000
,  // measure 65
0000
0000
0000
0000
,  // measure 66
0000
0100
0000
0100
,  // measure 67
0000
0100
0100
0100
;
