#TITLE:Dazzlin' Darlin;
#SUBTITLE:;
#ARTIST:HHH;
#TITLETRANSLIT:;
#SUBTITLETRANSLIT:;
#ARTISTTRANSLIT:;
#CREDIT:;
#BANNER:bn.PNG;
#BACKGROUND:bg.png;
#LYRICSPATH:Dazzlin' Darlin.lrc;
#CDTITLE:15 trooper.png;
#MUSIC:Dazzlin' Darlin.mp3;
#OFFSET:0.280;
#SAMPLESTART:87.040;
#SAMPLELENGTH:12.000;
#SELECTABLE:YES;
#BPMS:0.000=149.000,163.000=74.500,184.000=149.000;
#STOPS:98.000=2.013
,184.000=3.624
;
#BGCHANGES:;

//---------------dance-single - ----------------
#NOTES:
     dance-single:
     :
     Medium:
     6:
     0.380,0.721,0.358,0.075,0.000:
0000
0000
0000
0000
,
1000
0000
0001
0000
0001
0100
0001
0100
,
0000
0010
0100
1000
,
0010
0000
0100
0000
0001
1000
0001
0000
,
0000
0010
1000
0100
,
0010
0000
0001
0000
0100
1000
0100
0000
,
0000
0000
0010
0000
0100
0000
2000
0200
,
0000
0000
0000
0000
,
0000
0000
3300
0000
,
0001
0100
0010
0110
,
1000
0000
0100
0000
0011
0000
0001
0100
,
1000
0010
0001
0100
,
1000
0100
0010
0001
0010
0000
0100
0000
,
0010
0010
0011
0100
,
1000
0000
0100
0000
1001
0000
0010
0100
,
0010
1100
0010
0011
,
0001
1000
0001
1000
0001
0000
0010
0100
,
1000
0010
0001
0100
,
1000
0000
0010
0000
0100
0000
0001
1000
,
0010
0100
1000
0001
,
0100
0010
0100
0010
0100
0000
1000
0000
,
1100
0010
0001
0100
,
0011
0001
0100
1000
,
1100
0000
0010
0000
0010
0100
0000
0000
,
1000
0100
0010
0001
0010
0000
1000
0000
,
0100
0000
0010
0001
0010
0001
0000
0000
,
0100
1000
0010
0001
,
0100
1000
0001
0100
,
0010
0010
0010
0110
,
1010
0000
0001
1000
0001
1000
0000
0000
,
1000
0100
0010
0001
,
0100
1000
0010
0002
,
1000
1000
1000
1003
,
1100
0000
0010
1000
0010
1000
0000
0000
,
0110
0011
0011
0011
,
0100
0000
1000
0100
1000
0100
0000
0000
,
0110
0110
0110
0110
,
0001
0000
1000
0100
0010
0001
0000
0000
,
0010
0000
0100
0000
2000
0200
0000
0000
,
0000
0000
0000
3300
,
0000
0000
0000
0000
0000
0000
0001
0010
,
0100
1000
0001
0100
1000
0010
0200
0000
,
2300
0000
3010
0001
0011
0000
0101
0010
,
0100
1000
1001
0010
0100
1000
1100
0000
,
0011
0000
0110
1010
0110
0000
0011
0110
,
1100
0000
1010
0101
0011
1100
1010
0011
,
1001
0000
0010
0000
0100
0000
1000
0100
,
1000
0100
0000
0000
0010
0000
0001
0000
,
0100
0000
1000
0000
0001
0000
0010
0100
,
0010
0100
0000
0000
1000
0000
0100
0000
,
0010
0000
0001
0000
1000
0000
0100
1000
,
0100
1000
0000
0000
0010
0000
0100
0000
,
1000
0002
0100
0000
0000
0000
0100
0000
,
0000
0000
0100
0000
0100
0000
0100
0003
,
0010
0000
1010
0000
0011
0000
0100
1000
,
0100
1000
0000
0000
0010
0000
1000
0000
,
0001
0000
0110
0000
0001
0000
1000
0100
,
1000
0000
0010
0001
,
0010
0000
0011
0000
1100
0000
0010
0100
,
0010
0100
0000
0000
0010
0000
1000
0000
,
0100
2000
0100
0000
0000
0000
0010
0000
,
0000
0000
3001
0100
0010
1000
0001
0000
;

//---------------dance-single - ----------------
#NOTES:
     dance-single:
     :
     Easy:
     4:
     0.304,0.386,0.350,0.200,0.000:
0000
0000
0000
0000
,
2002
0000
0000
0000
,
0000
0000
0000
0000
,
0000
0000
0000
0000
,
0000
0000
3000
0000
,
0200
0000
0000
0000
,
0000
0000
0000
0000
0000
0000
0000
0303
,
0000
0000
0000
0000
,
0000
0000
0000
1000
,
0100
0010
0001
1000
,
0100
0010
0001
1000
,
0100
0010
0001
1000
,
1001
1001
2002
3003
,
0001
0100
0020
1030
,
0100
0001
1000
0020
,
1030
0100
0010
0001
,
1100
1100
2200
3300
,
0011
1000
0001
0100
,
0010
1000
0100
0001
,
1000
0010
0100
1000
,
0011
0011
0022
0033
,
0001
1000
0100
0010
,
0001
1000
0100
0010
,
0001
1000
0100
0001
,
0110
0110
0110
1000
,
0001
0100
0020
0000
,
1000
0000
1000
0000
,
0100
0000
0100
0000
,
0001
0000
0000
0000
0001
0030
1000
0000
,
0001
0100
0100
0000
,
0010
0000
0001
0000
,
1000
0000
0100
0000
,
0001
1000
0100
0010
,
0001
0011
0011
0000
,
0001
0100
1000
1010
,
1010
1010
1010
0000
,
1000
0001
0100
0110
,
0110
0110
0110
0000
,
1000
0001
1000
0200
,
0000
0302
0000
0020
,
0000
0000
0033
2000
,
0000
3200
0000
0302
,
0023
0000
1030
0001
1001
0000
0110
0000
,
0000
2000
0000
0001
,
0001
0000
3001
0001
0001
0000
1000
1000
,
1000
0000
0110
0000
0110
0000
0010
0010
,
1001
1000
0100
0010
,
0001
0000
0001
1000
,
0100
1001
0010
1000
,
0100
0000
0001
0010
,
0100
1100
0010
0001
,
0100
0000
0010
0001
,
1000
0002
0000
0203
,
0000
0000
0010
0000
0010
0000
0010
0300
,
1000
1001
1001
1010
,
1010
0001
0100
1000
,
0010
0011
1100
1010
,
1001
0002
1000
2000
,
3003
1010
0100
0001
,
0100
0010
1000
0010
,
0100
0011
0100
1010
,
0100
0000
1000
0001
1000
0001
1000
0000
;

//---------------dance-single - ----------------
#NOTES:
     dance-single:
     :
     Hard:
     8:
     0.401,0.775,0.258,0.108,0.129: // measure 1
0000
0000
0000
0000
,  // measure 2
1000
0000
1000
0000
0001
1000
0001
0000
,  // measure 3
0000
0010
0100
0010
,  // measure 4
0100
0000
0010
0000
0001
1000
0010
0000
,  // measure 5
0000
1000
0100
0010
,  // measure 6
0001
0000
0010
0000
0100
1000
0100
0000
,  // measure 7
0000
0000
1000
0000
0010
0000
0002
0200
,  // measure 8
0000
0000
0000
0000
,  // measure 9
0303
0000
0000
0000
0000
0000
1000
0100
,  // measure 10
0001
0000
0000
1000
0000
0000
0100
0000
1000
0000
0000
0000
0010
0000
0000
0000
,  // measure 11
0100
0000
0000
1000
0000
0000
0100
0000
0010
0000
0000
0000
0001
0000
0100
0000
,  // measure 12
0010
0000
0000
1000
0000
0000
0010
0000
1000
0000
0000
0010
0000
0000
1000
0000
,  // measure 13
0100
1000
0100
1000
0100
0000
1000
0100
,  // measure 14
0010
0000
0000
0010
0000
0000
0010
0000
0001
0000
0000
0000
0100
0000
0000
0000
,  // measure 15
1000
0000
0000
0100
0000
0000
0010
0000
0001
0000
0000
0000
0001
0000
0100
0000
,  // measure 16
0001
0000
0000
0010
0000
0000
0001
0000
0100
0000
0000
0010
0000
0000
0001
0000
,  // measure 17
0100
1000
0100
0010
0100
0000
0010
1000
,  // measure 18
0010
0000
0000
1000
0000
0000
0100
0000
0010
0000
0000
0000
0001
0000
0000
0000
,  // measure 19
0100
0000
0000
1000
0000
0000
0010
0000
0100
0000
0000
0000
1000
0000
0100
0000
,  // measure 20
0010
0000
0000
0010
0000
0000
0010
0000
0001
0000
0000
0001
0000
0000
0001
0000
,  // measure 21
0010
0100
1000
0100
0010
0000
0001
1000
,  // measure 22
0001
0000
0000
0001
0000
0000
0001
0000
0010
0000
0000
0000
0100
0000
0000
0000
,  // measure 23
1000
0000
0000
1000
0000
0000
0100
0000
1000
0000
0000
0000
0010
0000
1000
0000
,  // measure 24
0001
0001
0000
0000
1000
1000
0000
0000
,  // measure 25
1000
0100
0010
0001
0010
0000
0210
0000
,  // measure 26
1000
0010
0001
0010
,  // measure 27
1000
0010
0001
0010
,  // measure 28
1000
0010
0001
0010
,  // measure 29
1300
0100
0001
0210
,  // measure 30
1000
0010
0001
0010
,  // measure 31
1000
0010
0001
0010
,  // measure 32
1000
0010
0001
0010
,  // measure 33
1300
0001
0010
2100
,  // measure 34
0100
0010
3001
0000
,  // measure 35
0010
1000
0100
0102
,  // measure 36
0100
0010
1003
0000
,  // measure 37
1000
0100
0010
0120
,  // measure 38
0001
0100
1030
0000
,  // measure 39
1000
0000
0100
0000
0020
0002
0000
0000
,  // measure 40
0000
0000
0000
0000
0000
0000
0000
0000
0000
0000
0000
0030
0003
0000
0000
0000
,  // measure 41
0000
0000
0000
0000
1000
0001
0110
0000
,  // measure 42
0000
0000
0000
0000
1000
0000
0000
0000
0000
0000
0001
1000
1001
0000
0000
0000
,  // measure 43
0010
0000
0000
0000
0110
0000
1010
0000
0101
0000
1000
0100
0011
0000
0000
0000
,  // measure 44
0000
0000
0001
0000
0100
0000
0000
0000
0000
0000
0010
1000
1010
0000
0000
0000
,  // measure 45
0110
0000
0000
0000
1000
0001
1000
0001
1000
0000
1000
0100
0010
0001
0010
0100
,  // measure 46
1000
0000
0010
1000
1010
1010
0000
0000
0101
0101
0000
0000
1000
0100
0010
0001
,  // measure 47
0011
0000
1020
0000
1030
0000
1000
0100
,  // measure 48
1000
0000
0010
0001
,  // measure 49
0100
0000
0000
0000
1002
0000
0000
0000
1000
0000
0000
0003
1000
0000
0100
0000
,  // measure 50
0001
0000
0010
0100
,  // measure 51
1000
0000
1000
0000
0101
0000
1000
0010
,  // measure 52
1000
0100
0110
0001
,  // measure 53
1000
0000
0100
0000
0010
0000
0000
0010
0000
0000
0010
0000
0100
0000
0000
0100
,  // measure 54
0000
0100
1000
0100
0010
0001
0010
0000
,  // measure 55
0010
0000
0011
0000
0100
0000
0010
1000
,  // measure 56
0001
0100
1010
0110
,  // measure 57
0011
0000
0001
0000
1001
0000
1000
0100
,  // measure 58
0010
0001
0101
1010
,  // measure 59
0101
0000
0001
0000
1001
0000
0010
1000
,  // measure 60
0010
0100
1000
0100
,  // measure 61
1000
0000
0010
0000
0100
0000
0000
0100
0000
0000
0100
0000
1000
0000
0000
1000
,  // measure 62
0000
1000
0001
0100
0010
2000
0002
0000
,  // measure 63
3003
0000
0000
0000
;
