#TITLE:Dance Vision;
#SUBTITLE:(Single Edit);
#ARTIST:RYU*;
#TITLETRANSLIT:;
#SUBTITLETRANSLIT:;
#ARTISTTRANSLIT:;
#CREDIT:;
#BANNER:bn.png;
#BACKGROUND:bg.png;
#LYRICSPATH:;
#CDTITLE:;
#MUSIC:Dance vision (Single Edit).mp3;
#OFFSET:-0.540;
#SAMPLESTART:41.000;
#SAMPLELENGTH:12.000;
#SELECTABLE:YES;
#BPMS:0.000=149.000,164.000=74.500,184.000=149.000,224.000=74.500,227.000=149.000;
#STOPS:224.000=0.800
;
#BGCHANGES:;

//---------------dance-single - ----------------
#NOTES:
     dance-single:
     :
     Hard:
     7:
     0.474,0.645,0.480,0.155,0.126:
0000
0000
0000
0000
,
0000
0000
0000
0000
,
0000
0000
0000
0000
,
0000
0000
0000
0000
,
0000
0000
0000
0000
,
0000
0000
0000
0000
,
0000
0000
0000
0000
,
0000
0000
0000
0000
,
0000
0000
0000
0000
0000
0000
1000
0001
,
0101
0000
0000
0000
0001
0010
0001
0100
,
0010
1000
0001
0100
0010
0000
0001
1000
,
1001
0000
0000
0000
1000
0100
0010
0100
,
1100
0000
0011
0000
1001
0000
0001
0100
,
0110
0000
0000
0000
0001
1000
0001
0100
,
0001
0010
0001
0100
0010
0000
1010
0000
,
0101
1100
0011
0110
,
1001
1001
1002
2003
,
3100
0000
0000
0000
1000
0001
0100
0010
,
0100
0001
1000
0100
1000
0000
0100
1000
,
0020
0000
0030
0000
0010
1000
0010
0100
,
0101
0000
1100
0000
0101
0000
0001
0100
,
0020
0000
0000
0030
0010
0100
0001
1000
,
0010
1000
0100
0010
0100
0000
1010
0000
,
0101
0000
0000
0000
0001
0010
0100
1000
,
0020
0000
0000
0000
0030
0000
0010
1000
,
1010
0000
0010
0000
0010
0100
0001
1000
,
0100
0010
1000
0100
0010
0000
0001
0100
,
0022
0000
0033
0000
0010
1000
0100
1000
,
1100
0000
0011
0000
1100
0000
0001
0100
,
0110
0000
0000
0000
0010
0100
0010
1000
,
0001
0100
0001
0010
0001
0000
0011
0000
,
1100
1010
0101
0110
,
2002
0000
3003
0000
,
1000
0000
0000
0000
0001
0000
0000
0000
0100
0000
0001
0100
0000
0100
0010
0000
,
0010
0000
0000
0000
1000
0000
0000
0000
0100
0000
1000
0100
0000
1000
0001
0000
,
0001
0000
0000
0000
1000
0000
0000
0000
0100
0000
0010
0100
0000
0100
0010
0000
,
0010
0110
0000
1001
0000
0011
0000
0010
,
0100
0000
0000
0000
0100
0000
0000
0000
0010
0000
0010
0001
0000
0001
0100
0000
,
0100
0000
0000
0000
0001
0000
0000
0000
0100
0000
0010
0100
0000
0100
0010
0000
,
1010
0100
0110
0010
,
1010
0011
0110
0000
,
2002
3003
0010
0100
,
0101
0000
0000
0000
0001
0100
0010
1000
0100
1000
0010
1000
0010
0000
1000
0010
,
0100
0000
0000
0000
1000
0100
0010
0001
0100
0000
0010
0000
1000
0000
1000
0010
,
0100
0000
0000
0000
0010
1000
0100
1000
0001
0010
0001
0100
0010
0000
1000
0000
,
1000
0000
0000
0000
1000
0100
0010
0001
0100
0000
0000
0000
0000
0000
0001
0100
,
1010
0000
0010
0000
1000
0010
0100
0001
,
0100
0001
0010
0001
0100
0000
0100
0001
,
0101
0000
0000
0000
0010
1000
0010
0100
,
0110
0000
0110
0000
0110
0000
0010
1000
,
1010
0000
0000
0000
1000
0100
0010
0001
,
0100
0001
0100
0010
0100
0000
0110
0000
,
0110
0000
0000
0000
1000
0100
0010
0100
,
1000
0000
0000
0000
1000
0100
0010
0100
,
1000
0000
0000
0000
0001
0100
0001
0010
0001
0000
0000
0000
1000
0001
0100
0001
,
0010
0000
0000
0001
0010
0000
0000
0010
0100
0000
0001
1000
0100
0010
0100
1000
,
0010
0100
0010
1001
,
0000
0000
0010
0100
0010
1000
0100
1000
,
0010
1000
0100
0000
0001
0100
0002
0000
,
0003
0000
0001
0010
0001
0100
0101
0000
,
0110
0000
1001
0000
0100
1000
0020
0000
,
0030
0000
0010
1000
0010
0100
0010
1000
,
0010
1000
0100
0000
1100
0000
0022
0000
,
0033
0000
0001
0100
0010
2000
0200
0000
,
0000
0000
3300
0000
0001
1000
1010
0000
,
0010
0000
0010
0100
0010
0100
0010
0100
,
0010
1000
0001
0000
0001
1000
0200
0000
,
0300
0000
0100
1000
0100
0010
0011
0000
,
1100
0000
0011
0000
0001
0010
0200
0000
,
0310
0000
0010
0001
0100
0010
1000
0001
,
1000
0100
1000
0000
1010
0000
0101
0000
,
0110
1001
1100
0022
,
0000
0000
0000
0033
;

//---------------dance-single - ----------------
#NOTES:
     dance-single:
     :
     Medium:
     5:
     0.378,0.430,0.377,0.207,0.004:
0000
0000
0000
0000
,
0000
0000
0000
0000
,
0000
0000
0000
0000
,
0000
0000
0000
0000
,
0000
0000
0000
0000
,
0000
0000
0000
0000
,
0000
0000
0000
0000
,
0000
0000
0000
0000
,
0000
0000
0000
0000
,
1001
0001
0100
0010
,
1010
0010
0110
0010
,
1010
1000
0001
0100
,
0101
1000
1100
0001
,
1001
0001
0100
0010
,
1010
0010
0110
0010
,
1001
0000
1001
0000
,
1001
1001
1002
2003
,
3002
0000
1003
0001
,
0100
0000
0010
1000
0001
0000
1000
0001
,
0100
0000
0001
1000
,
0101
0000
1100
0000
0101
0000
1000
0001
,
0200
0000
0301
0000
0001
0100
0001
0000
,
0100
0010
1000
1010
,
0202
0000
0303
0000
0001
0010
0100
1000
,
0002
0000
0000
0000
0003
0000
1000
0001
,
1001
0000
1000
0000
1000
0001
1000
0000
,
0001
0100
0001
0000
0010
0000
0100
0000
,
1001
0000
0000
0000
0001
0100
0001
0000
,
0101
0000
1100
0000
0101
0000
1000
0001
,
0200
0000
0301
0000
0001
0100
0001
0000
,
0001
0100
0010
1000
,
1010
0100
0101
1000
,
2002
0000
3003
0000
,
1000
0000
0001
0000
0100
0000
0010
1000
,
0001
0000
1000
0000
0001
0000
1000
0001
,
0100
0000
0010
0000
1000
0000
0010
1000
,
0010
1000
0000
0001
0000
1000
0000
0001
,
0100
0000
0001
0000
0100
0000
0010
1000
,
0001
0000
1000
0000
0001
0000
1000
0001
,
0101
0000
1000
0100
1100
0000
1000
0001
,
2000
3002
0203
0320
,
2000
3030
0000
0000
,
1001
0000
0001
1000
0001
0100
0010
1000
,
0100
0000
0010
0001
0100
0100
0100
0010
,
1000
0000
0001
0100
0010
0100
0010
1000
,
0001
0000
0000
0000
0001
0000
1000
0000
0010
0000
0000
0000
0000
0000
1000
0010
,
0200
0300
0010
1000
,
1001
1000
1001
0001
,
0101
0001
0100
0010
,
1010
0101
1001
1000
,
1100
1000
0010
0001
,
0101
1000
1010
0010
,
0110
0000
0000
0000
1000
0000
0001
0100
,
0020
0000
0030
0000
1000
0000
0001
0100
,
0020
0000
1000
1000
1030
0000
1000
0001
,
0100
0010
1000
0100
1000
0100
0010
0001
,
0010
0001
1000
1100
,
0000
0001
1000
0001
,
0100
0000
0010
0000
0010
2000
0200
0000
,
3300
0000
1000
0100
1000
0000
1010
0000
,
1100
0000
1010
0000
0001
0100
0020
0000
,
0030
0010
1000
0001
,
1000
0001
1000
0000
1001
0000
0110
0000
,
0000
0000
1000
0001
0100
0020
2000
0000
,
0000
0000
3030
0000
0010
1000
0020
0000
,
0000
1000
1000
1000
,
1000
0000
1030
0000
1000
0100
0020
0000
,
0000
0001
0001
0031
,
1100
0000
1001
0000
0001
0100
0020
0000
,
1030
0000
1000
0100
0010
1000
0100
1000
,
0010
1000
0001
0000
1000
0000
1001
0000
,
1000
0101
0010
2002
,
0000
0000
0000
3003
;

//---------------dance-single - ----------------
#NOTES:
     dance-single:
     :
     Easy:
     4:
     0.280,0.376,0.288,0.163,0.000:
0000
0000
0000
0000
,
0000
0000
0000
0000
,
0000
0000
0000
0000
,
0000
0000
0000
0000
,
0000
0000
0000
0000
,
0000
0000
0000
0000
,
0000
0000
0000
0000
,
0000
0000
0000
0000
,
0000
0000
0000
1000
,
1001
0000
0001
1000
,
0001
0100
1000
0001
,
0100
0000
1000
0001
,
0001
0010
1000
0010
,
0001
0000
0001
1000
,
0001
0100
0010
1000
,
1100
0010
0011
0100
,
1001
1001
1001
0000
,
0002
0003
1000
1000
,
1000
1000
1000
0001
,
0200
0300
0010
0010
,
0110
0110
0110
0010
,
2000
3000
0001
0001
,
0001
0001
0001
1000
,
0001
0000
0001
0100
,
0020
0000
0000
0000
0030
0000
1000
0010
,
1000
0000
1000
1000
,
0001
0001
1000
0001
,
0200
0300
0010
1000
,
1010
1010
1010
0010
,
2000
3000
0001
0001
,
1000
1000
0001
1000
,
1001
0001
0101
0001
,
0022
0000
0033
0000
,
1000
0000
1000
0000
,
0001
0000
0001
0000
,
0100
0000
0010
0000
,
1000
0000
0001
0000
,
1001
0000
1000
0000
,
0001
0000
0100
0000
,
0010
0000
1000
0000
,
0001
0000
1000
0000
,
2200
3300
0000
0000
,
1001
0001
0100
0010
,
0010
0000
1000
0000
1000
0001
0100
0010
,
1000
1000
0001
1000
,
0001
0000
1000
0001
0100
0000
0000
1000
,
1001
0000
0001
0100
,
0010
1000
0010
0100
,
0020
0030
0010
1000
,
1010
1010
1010
1000
,
2002
3003
0001
0100
,
0010
1000
0100
1000
,
1010
0000
0010
1000
,
1100
0000
0010
1000
,
1100
1000
1100
0100
,
1100
0011
1010
0101
,
0000
1000
0001
2002
,
3003
0001
1000
0001
,
0100
0010
1000
0020
,
0030
1000
0001
0101
,
1100
0101
0001
0200
,
0300
0001
0100
0010
,
1000
0010
1000
0200
,
0300
1000
0001
0200
,
0000
0300
0010
1010
,
0000
1000
0000
1000
,
0001
1000
0000
1001
,
0000
0010
0000
0100
,
0100
0100
0000
1010
,
0000
0010
1000
0001
,
0100
0001
0010
0002
,
0013
0002
0103
0002
,
0000
0000
0003
1001
;

//---------------dance-single - ----------------
#NOTES:
     dance-single:
     :
     Beginner:
     2:
     0.097,0.161,0.044,0.000,0.000: // measure 1
0000
0000
0000
0000
,  // measure 2
0000
0000
0000
0000
,  // measure 3
0000
0000
0000
0000
,  // measure 4
0000
0000
0000
0000
,  // measure 5
0000
0000
0000
0000
,  // measure 6
0000
0000
0000
0000
,  // measure 7
0000
0000
0000
0000
,  // measure 8
0000
0000
0000
0000
,  // measure 9
0000
0000
0000
0000
,  // measure 10
0010
0000
0000
0000
,  // measure 11
0010
0000
0010
0000
,  // measure 12
0010
0000
0000
0000
,  // measure 13
1000
0000
1000
0000
,  // measure 14
1000
0000
0000
0000
,  // measure 15
0001
0000
0000
0000
,  // measure 16
0001
0000
1000
0000
,  // measure 17
0001
0001
0001
0000
,  // measure 18
1001
0000
0000
0000
,  // measure 19
0000
0000
0000
0000
,  // measure 20
1000
0000
0000
0000
,  // measure 21
0000
0000
0000
0000
,  // measure 22
0010
0000
0000
0000
,  // measure 23
0000
0000
0000
0000
,  // measure 24
0100
0000
0000
0000
,  // measure 25
1000
0000
0000
0000
,  // measure 26
0001
0000
0000
0000
,  // measure 27
0000
0000
0000
0000
,  // measure 28
1000
0000
0000
0000
,  // measure 29
0010
0010
0010
0000
,  // measure 30
0010
0000
0000
0000
,  // measure 31
0100
0000
0000
0000
,  // measure 32
0010
0000
0010
0000
,  // measure 33
0010
0000
0000
0000
,  // measure 34
1001
0000
0000
0000
,  // measure 35
1000
0000
0000
0000
,  // measure 36
1000
0000
0000
0000
,  // measure 37
0001
0000
0000
0000
,  // measure 38
0001
0000
0000
0000
,  // measure 39
0100
0000
0000
0000
,  // measure 40
0010
0000
0010
0000
,  // measure 41
0010
0000
0010
0000
,  // measure 42
1001
0000
0000
0000
,  // measure 43
1000
0000
0000
0000
,  // measure 44
0000
0000
0000
0000
,  // measure 45
0001
0000
0000
0000
,  // measure 46
0000
0000
0000
0000
,  // measure 47
0010
0000
0000
0000
,  // measure 48
0010
0000
0010
0000
,  // measure 49
0010
0000
0000
0000
,  // measure 50
1000
1000
1000
0000
,  // measure 51
1000
0000
0000
0000
,  // measure 52
0001
0000
0000
0000
,  // measure 53
0001
0000
1000
0000
,  // measure 54
0001
0000
1000
0000
,  // measure 55
0001
0000
1000
0000
,  // measure 56
0001
0001
1000
1000
,  // measure 57
0000
0000
0000
0110
,  // measure 58
0000
0010
0000
0000
,  // measure 59
0000
0000
0000
1000
,  // measure 60
0000
0001
0000
1000
,  // measure 61
1000
1000
0000
1001
,  // measure 62
0000
0000
0000
0010
,  // measure 63
0000
0000
0000
0010
,  // measure 64
0000
0010
0000
0010
,  // measure 65
0000
0000
0000
1001
,  // measure 66
0000
0000
0000
1000
,  // measure 67
1000
1000
0000
0001
,  // measure 68
0000
0000
0000
0100
,  // measure 69
0100
0100
0000
0010
,  // measure 70
0000
0000
0000
1000
,  // measure 71
0000
0000
0000
0001
,  // measure 72
0000
1000
0000
0100
,  // measure 73
0000
0000
0000
0001
;
