#TITLE:DDR MEGAMIX;
#SUBTITLE:;
#ARTIST:DDR;
#TITLETRANSLIT:;
#SUBTITLETRANSLIT:;
#ARTISTTRANSLIT:;
#CREDIT:;
#BANNER:DDR MEGAMIX.png;
#BACKGROUND:DDR MEGAMIX-bg.png;
#LYRICSPATH:;
#CDTITLE:pop'n music 10.png;
#MUSIC:DDR MEGAMIX.mp3;
#OFFSET:-3.400;
#SAMPLESTART:1.760;
#SAMPLELENGTH:12.500;
#SELECTABLE:YES;
#DISPLAYBPM:*;
#BPMS:0.000=150.000,32.000=155.000,67.000=180.000,68.000=200.000,103.000=180.000,140.500=65.000,156.000=70.000,158.000=155.000,191.000=160.000,227.000=150.000,262.000=155.000,274.000=83.000,282.000=331.999;
#STOPS:;
#BGCHANGES:;

//---------------dance-single - ----------------
#NOTES:
     dance-single:
     :
     Hard:
     11:
     0.742,1.000,0.495,0.183,0.444:
1000
0000
0000
1000
0000
0000
0001
0000
0010
0000
0000
0001
0000
0000
1000
0000
,
0100
1100
0000
0101
0000
0110
0000
1001
,
0000
0101
0000
0110
0000
1100
0000
1001
,
0000
0000
0011
0000
0000
0000
1100
0000
0000
0000
0001
1000
0100
0000
0001
0010
,
0001
0000
0010
0000
0100
0000
1000
0100
0000
0001
0100
0000
0010
0000
1000
0000
,
0001
0000
1000
0000
0100
0000
0001
0010
0000
1000
0100
0000
0001
0000
0100
0000
,
0020
0130
2000
3100
,
0001
0000
0010
0000
1000
0000
0100
1000
0000
1000
0000
1000
0001
0000
0010
0000
,
0001
1000
0000
1001
0000
0101
0000
0011
0000
0001
0000
0010
0001
0000
0100
0000
,
0110
0000
1001
0000
1100
0000
1000
0001
,
0010
0100
0000
0010
0000
1000
0000
0001
0000
1000
0100
0000
1000
0000
0001
0000
,
0010
0001
0010
0100
1000
0000
0001
0100
0010
0000
0100
0000
0010
0000
0010
0000
,
0010
1000
0000
1010
0000
0101
0000
0011
0000
1100
0000
1000
0001
0000
0010
0000
,
0011
0000
1100
0000
1001
0000
0001
1000
,
1100
0000
1000
0001
0101
0000
0110
0000
,
0001
1000
0001
0010
0001
0000
0001
0010
0001
1000
0100
0000
1000
0100
0010
0001
,
0100
0110
0000
0010
1100
0001
0110
0000
,
2002
0000
3003
0000
0000
0000
1000
0100
,
0000
0001
0010
0010
0001
0010
0001
0010
,
0100
1000
2002
0000
3003
0000
0001
0001
,
0000
0100
1000
1000
0001
0100
0010
0010
,
0100
0010
2020
0000
3030
0000
1000
0100
,
0000
1000
0100
0001
0100
0010
0100
0100
,
0010
0000
2000
0000
0002
3003
0000
0000
0000
0000
0000
0000
1000
0000
0100
0000
,
0001
0010
0001
0100
0010
1000
0001
0010
,
0100
0000
0000
1000
0000
0000
2020
0000
0000
0000
0000
0000
3030
0000
0000
0000
0000
0000
1000
0000
0000
0000
0100
0000
,
1000
0000
0000
0001
0000
0100
0001
0000
0000
0001
0000
1000
,
0001
0000
0000
0010
0000
0000
0100
0000
0000
0010
0000
0010
,
0100
0000
0000
1000
0000
1000
0100
0000
0000
1100
0000
0000
,
0011
0000
0000
0110
0000
0000
1001
0000
0000
1000
0000
1000
,
0100
0000
0100
0010
0000
0001
0010
0000
0001
0100
0000
0010
,
0000
0000
0000
0000
0000
0000
0001
0000
0000
1000
0000
0000
0100
0000
0000
0000
0000
0000
0000
0000
1000
0000
0000
0000
0100
0000
0000
0000
0000
0000
0000
0000
0000
0000
0000
0000
1100
0000
0000
0000
0000
0000
0000
0000
0000
0000
0000
0000
,
0011
0000
0000
0001
0010
0100
1000
0001
0100
0020
0000
0000
,
0000
0000
0000
0000
,
0030
0000
0000
0000
,
0000
0000
0000
0100
0010
0100
1000
0001
0010
0001
0010
1000
0100
0001
0100
0010
0100
1000
0001
0010
0001
1000
0100
0001
,
0010
1000
0100
2000
0000
0000
0000
3001
1000
0100
0010
0001
0100
0010
1000
0001
0010
1000
0100
0001
1000
0001
0100
0001
,
1000
0000
0000
0001
0010
0001
0011
0000
1100
0000
1001
0000
0100
0000
0110
0000
1000
0001
1001
0000
1000
0100
0000
0001
,
0100
0000
0010
1000
0001
0010
0001
0010
0100
1000
0100
0010
0001
1000
0001
0100
0010
1000
0100
0010
0001
0010
0100
1000
,
0200
0000
0000
0000
0000
0000
0000
0000
0000
0000
0000
0000
0000
0000
0000
0000
0000
0300
0000
0000
0000
0000
0000
0000
1000
0000
0000
0000
0000
0000
0001
0000
0000
0000
0000
0000
0100
0000
0000
0000
0000
0000
0001
0000
0000
0000
0000
0000
,
0010
0001
0100
0110
0000
0110
0000
0110
,
0000
0110
0000
1000
0001
0100
0001
0010
,
0001
0100
0020
1000
0030
1000
1000
0001
,
0010
0001
0100
0010
1000
0000
1000
0001
,
1000
0001
0100
0001
0010
0001
0100
0001
,
1000
0001
1000
0100
1000
0001
0100
0100
,
0100
0100
0100
0100
0001
1000
0010
0010
,
0010
0010
0010
0010
0110
1001
0000
0000
,
0000
0000
0000
0000
0000
0000
0000
0100
1000
0000
0000
0001
0010
0000
0000
0001
,
0100
0000
0000
0010
1000
0000
0000
1000
0100
0000
0000
0000
0011
0000
0000
0000
,
1001
0000
0001
0102
0000
0000
0100
0000
,
1000
0000
0010
0013
0000
0000
0000
0001
,
1000
0100
0001
0010
0002
0000
0000
0000
,
0000
0000
0010
0020
0000
0000
0033
0000
,
0000
0001
1000
0000
1001
0001
0100
0001
,
0010
0000
1001
1000
0001
0100
0010
0100
,
0010
1000
0100
0001
0010
0001
0100
0010
1000
0001
0100
0001
0020
0000
0000
0000
,
0032
0000
0000
0000
0103
0000
0000
0000
0110
0000
0000
0010
1000
0000
0100
0000
,
1100
0000
0000
0001
0010
0000
0001
0000
0201
0000
0310
0000
0110
0000
0000
0000
,
0010
1000
0001
0000
1000
0100
1000
0001
,
0100
0000
0001
0010
0001
0100
0010
1000
,
0100
1000
1001
0000
,
0000
0000
0001
0001
0000
1000
0000
0001
,
0000
0100
0000
0010
0100
0000
0010
0100
,
0000
0010
0000
0010
1000
0000
0010
0000
,
0100
0010
1000
0001
0000
1001
0100
1001
,
0000
0000
1000
0000
0000
0000
0000
0000
1000
0100
1000
0000
0000
0000
0001
0000
,
0001
0010
0001
0000
0000
0000
0100
0000
0010
0000
1000
0000
0001
1000
0100
0000
,
0000
0000
0000
0000
0000
0000
0000
0000
0000
0000
0000
0000
0000
0000
0000
0000
1000
0000
0000
0001
0000
0000
0100
0000
0000
0000
0000
0000
0000
0000
0000
0000
,
0000
0000
0000
0000
0000
0000
0001
0000
0001
0000
0000
1000
0000
0000
1000
0000
0010
0000
0000
1000
0000
0000
0001
0000
0000
0000
0000
0000
0000
0000
0000
0000
,
0000
0000
0000
0000
0000
0000
1000
0000
0002
0000
0000
1000
0003
0000
0001
0000
0100
0000
0000
0000
0000
0000
0000
0000
0010
0000
0000
0000
0000
0000
0000
0000
,
1000
0001
0010
0001
,
0001
1000
0100
0000
1001
0000
0001
0000
,
0100
0001
0010
0001
,
0100
0001
0100
0000
0010
0000
0100
0010
,
0000
1000
0100
0000
0001
0000
0010
0001
,
0000
1000
0100
0000
1001
0000
0001
0100
,
0000
0010
0100
0000
0010
1000
0001
0000
,
0010
0000
0001
0000
1000
0000
0001
0100
,
0001
0000
1000
0100
1000
0000
0001
1000
,
0001
1000
0001
0000
0100
0000
0010
0100
,
0010
0000
1000
0001
1000
0000
1000
0100
,
0010
0001
0100
0010
0200
0000
0310
0100
,
0000
0010
0000
0010
1000
0000
0001
0010
,
0000
0001
0000
0010
0001
0000
1000
0100
,
0000
1000
0000
0001
1001
0000
0000
1001
,
0000
0000
1000
0000
1000
0100
0010
0001
,
1000
0001
0100
0000
0010
0000
1000
0000
,
0001
0000
0010
0000
0001
0010
0001
1000
,
0100
1000
0100
0000
1000
0000
0001
0000
,
0100
0000
0010
0000
1000
0001
1000
0000
,
1000
0001
0100
0000
0010
1000
0001
0000
,
0001
0010
1000
0100
0001
0100
0010
1000
,
0100
0010
0001
1000
0001
1000
0100
0001
,
0010
0001
1000
0100
0110
0000
0000
0110
,
0000
1000
2002
0000
,
3003
0000
1000
0000
0011
0000
1000
0100
,
0000
0001
0100
0000
0110
0000
0010
1000
,
0000
0001
0010
0000
0011
0000
1000
0100
,
0000
0001
0100
0000
0110
0000
0010
1000
,
0000
0001
0010
0000
1000
0001
0100
0010
,
0100
1000
0001
0010
1000
0100
0010
0001
,
0100
0010
1000
0001
0020
0000
0000
0000
,
0030
0000
0000
0000
;

//---------------dance-single - DDR Charts----------------
#NOTES:
     dance-single:
     DDR Charts:
     Challenge:
     10:
     0.648,1.000,0.407,0.014,0.268:
0010
0100
1000
0100
,
0010
0100
0001
0100
,
0010
1000
0100
0000
0010
0001
0100
0000
,
0100
0000
0010
1000
0100
0010
0001
0100
,
0101
0000
1010
0000
0101
0000
0010
1000
,
0100
0000
1000
0001
0100
0000
0010
0001
,
0100
0000
0001
0100
1000
0000
1000
0100
,
0001
0000
1000
0010
0001
0010
0001
0010
,
0010
0000
0000
0000
0010
0000
0000
0000
0100
0000
0000
0001
1000
0000
0010
0000
,
0100
0000
0100
0000
0100
0000
0010
1000
,
1000
0000
0000
0000
0001
0000
0000
0000
0100
0000
0000
0010
1000
0000
0001
0000
,
0100
0010
0100
0010
0100
0010
0100
0100
,
0001
0000
0000
0000
1000
0000
0000
0000
0010
0000
0000
1000
0001
0000
0100
0000
,
0010
0000
1010
0000
0100
0000
0010
1000
,
1000
0000
0000
0000
0001
0000
0000
0000
0100
0000
0000
0001
0010
0000
0001
0000
,
1000
0010
0100
0001
1000
1000
0010
0100
,
0001
0001
0000
1000
0010
1000
0001
0000
,
1100
0000
0000
0000
0000
0000
0010
0001
,
0000
0100
0001
1000
0100
0000
0010
0001
,
1000
0000
1001
0000
0000
0000
0010
1000
,
0000
0100
1000
0001
0100
0000
0010
1000
,
0001
0000
1001
0000
0000
0000
0010
0001
,
0000
0100
0001
1000
0100
0000
0010
0001
,
1000
0000
1001
0000
0000
0000
0010
1000
,
0000
0100
1000
0001
0100
0000
0010
1000
,
0001
1001
0000
0001
,
1000
0000
0000
0000
0001
0000
0000
0000
1000
0000
0000
0000
0001
0000
0000
0001
,
1000
0000
0000
1000
0001
0000
0000
0001
1000
0000
0000
0000
0010
0000
0000
0100
,
0001
0000
0000
0010
0100
0000
0000
1000
0010
0000
0000
0100
0001
0000
0000
1000
,
0001
0000
0000
1000
0001
0000
0000
1000
0001
0000
0000
1000
0010
0000
0000
0100
,
0010
0000
0000
0100
0010
0000
0000
0100
0010
0000
0000
0100
0001
0000
1000
0000
,
0000
0000
0000
0001
1000
0000
0000
0001
1000
0000
0000
0001
1000
0000
0000
0001
,
0010
0000
0000
0010
0100
0000
0000
0100
1000
0000
0000
1000
0001
0000
0000
0000
,
0000
0000
0000
0000
,
0000
0000
0000
0000
,
0000
0000
0000
1000
0001
0100
0001
0000
1000
0001
0000
0010
0001
0000
0100
0001
0000
0100
0010
0000
1000
0001
1000
0010
,
1000
0000
0100
1000
0000
0000
0000
0001
0100
0010
0000
1000
0001
0000
0100
0010
0000
0001
1000
0000
0100
0010
1000
0001
,
0010
0000
0100
1000
0001
0100
0010
0000
1000
0000
0001
0000
1000
0000
0001
0000
1000
0100
1000
0000
0001
0100
0000
0010
,
1000
0000
0100
0010
0000
0001
0010
0000
0100
1000
0001
1000
0010
0000
0100
0001
1000
0001
0010
0000
0100
0000
1000
0001
,
1000
0000
0000
0000
0110
0000
1000
0001
,
0000
1000
0100
0100
0000
0110
0000
0011
,
0000
1100
0000
0000
1010
0000
0100
0001
,
0000
0010
0001
0010
0000
1100
0000
0011
,
0000
1100
0000
0000
0001
0000
1000
0100
,
0000
1000
0000
0010
0000
0001
0000
1000
,
0000
0001
0000
0010
0000
0001
0100
0000
,
0010
1000
0100
0000
0010
0001
0100
0000
,
0010
1000
0100
0000
0001
0000
0010
0000
,
0010
1100
0011
1000
,
0010
0100
0001
0000
1010
0000
0001
0000
,
0110
0001
1000
0000
0011
0000
1000
0000
,
0110
1000
0001
0000
0110
0000
0001
0010
,
0100
1000
1001
0000
0101
0000
1100
0001
,
0100
0000
1001
0000
1100
0000
0101
1000
,
0100
0000
1001
0000
0100
1000
0000
0000
,
1001
0000
0100
0001
1000
0100
0000
0010
,
0010
0001
0000
1000
0100
0100
0000
0000
,
0000
0000
0000
0000
0100
0010
1001
0000
,
0100
0010
1001
0000
1000
0010
1000
0000
,
0001
0100
0001
0000
1000
0100
0010
0001
,
1000
0100
1000
0001
0010
0001
0010
0001
,
1000
0100
0100
0000
1000
0100
0001
0000
,
1000
0100
0001
0000
1000
0100
0001
0100
,
1000
0100
0001
0000
0110
0000
0110
0000
,
1001
0110
0011
1001
,
1100
0000
1001
0000
0000
0001
1000
0100
,
0000
0000
0110
0000
0000
0000
0000
0000
0100
0010
0100
0000
0000
0000
0001
0000
,
1000
0000
0100
0000
0000
0000
0010
0000
0001
1000
0001
0000
0100
0000
0010
0000
,
0000
0000
0000
0000
0000
0000
0000
0000
0000
0000
0000
0000
0000
0000
0000
0000
0000
0000
0000
0000
0000
0000
0000
0000
0100
0000
0000
0000
1000
0000
0000
0000
0000
0010
0000
0000
0000
0000
0000
0000
0000
0000
0000
0000
0000
0001
0000
0000
,
1001
0000
0000
0000
0000
0000
0000
0000
0000
0100
0000
0000
0100
0000
0000
0000
0001
0000
0000
0000
0000
0010
0000
0000
0010
0000
0000
0000
0001
0000
0000
0000
0000
0100
0000
0000
0000
0000
0000
0000
0000
0000
0000
0000
0000
1000
0000
0000
,
1001
0000
0000
0000
0000
0000
0000
0000
0000
0010
0000
0000
0010
0000
0000
0000
1000
0000
0000
0000
0000
0100
0000
0000
0010
0000
0000
0000
0000
0000
0000
0000
0000
0000
0000
0000
0001
0000
0000
0000
0000
0000
0000
0000
0000
0000
0000
0000
,
0010
0001
1000
0100
,
1000
0100
1000
0000
0010
0000
1000
0000
,
0010
1000
0001
0100
,
0001
0100
0001
0000
1000
0000
0001
0000
,
0010
0100
1000
0000
0001
0000
1000
0000
,
0010
0100
0001
0000
0010
0000
0100
0000
,
1000
0001
1000
0000
0001
1000
0010
0000
,
0100
0001
1000
0000
0001
0000
1000
0100
,
1000
0000
1000
0100
1000
0000
0001
0100
,
0001
0000
0001
0100
0001
0000
1000
0001
,
1000
0000
1000
0100
1000
0000
0001
1000
,
0001
0000
0001
0100
0010
0000
0100
0001
,
0100
0000
0010
1000
0010
0000
0100
0001
,
0100
0000
0010
1000
0001
0000
0010
0001
,
0010
0000
0001
0100
0001
0000
1000
0010
,
1000
0000
0001
0100
0010
1000
0010
1000
,
0010
1000
0001
0000
0010
0001
0010
0001
,
0010
0001
1000
0000
0010
1000
0010
0100
,
0001
1000
0100
0000
0010
0001
0010
0100
,
1000
0001
0100
0000
0010
1000
0001
0010
,
0100
0000
1000
0100
0010
0001
1000
0010
,
0100
0000
0001
0100
0010
1000
0100
0010
,
0001
0100
0010
1000
0100
0010
0001
0100
,
0010
1000
0001
0100
0001
0000
0000
1010
,
0000
0000
1001
0000
0101
0000
0000
0010
,
1000
0000
1010
0000
1001
0000
0000
0100
,
0001
0000
0101
0000
1001
0000
0000
0010
,
0001
0000
0011
0000
1001
0000
0000
0100
,
1000
0000
1100
0000
1001
0000
0000
0010
,
1000
0000
1010
0000
0010
0100
0000
0001
,
0100
0000
1001
0000
0010
0001
0000
0001
,
0100
0110
2002
0000
,
0000
0000
0000
0000
,
0000
3003
0000
0000
;

//---------------dance-single - ----------------
#NOTES:
     dance-single:
     :
     Medium:
     8:
     0.485,0.699,0.380,0.122,0.041:
0001
0000
1000
0000
0001
0000
1000
0001
,
0100
0010
0000
0010
0000
0100
0000
0100
,
0000
0010
0000
0010
0000
0100
0000
0100
,
0000
0010
0000
0100
0000
0010
2002
0000
,
3003
0000
0000
0001
0000
1000
0000
0001
,
0000
0100
0010
0100
0000
0010
0000
0100
,
0000
0010
1000
0010
0000
0001
0000
0100
,
0020
0100
0100
0130
,
0010
1010
0010
0110
,
1001
0000
1100
0000
0011
0000
0001
0001
,
0101
0010
0110
0010
,
0010
1000
0001
1000
0001
1000
0001
0001
,
1000
0001
0100
0010
,
1010
0000
0101
0000
0110
0000
0010
0100
,
0010
0010
0110
0010
,
1000
0100
0010
1000
0100
0010
1000
0100
,
0010
0010
0000
0010
0100
0010
1000
0000
,
1001
0000
0000
0001
,
1000
0000
0001
0000
1000
0001
1000
0001
,
1000
1001
0000
0001
,
0100
0000
0001
0000
0100
0001
0100
0001
,
0100
0101
0000
0010
,
0010
0000
0010
0000
1000
0010
1000
0010
,
1000
0010
0000
1001
,
0110
0000
0010
0100
0010
0100
0010
1000
,
0001
1000
0001
0000
0000
0000
1000
0000
,
0001
0100
0010
0100
,
0010
1000
0010
0100
,
0010
1000
0010
0110
,
0110
0110
0110
1001
,
1001
1001
1001
2002
,
3003
1001
1001
0001
,
0100
0010
1000
2200
,
0000
0000
0000
0000
,
0000
3300
0000
0000
,
0000
0000
0000
1000
0000
0100
1000
0000
0000
0000
0000
0000
0010
0000
0000
0001
0000
0100
0001
0000
0000
0000
0000
0000
,
0010
0000
0000
0100
0000
0010
0100
0000
0000
0000
0000
0000
0010
0000
0000
1000
0000
0000
0001
0000
0000
1000
0000
0000
,
0001
0000
0000
0100
0000
0000
0010
0000
0100
0000
0010
0000
1000
0000
0001
0000
1000
0000
0001
0000
0100
0000
0010
0000
,
1000
0000
0000
1000
0000
0000
0100
0000
0000
0010
0000
0000
0001
0000
0000
1000
0000
1000
0100
0000
0010
0001
0000
0001
,
0100
0000
0000
0000
0010
0000
0100
0010
,
0000
0010
1000
0020
0000
1000
0000
1000
,
0000
1030
0000
0000
1000
0000
1000
0001
,
0000
0001
1000
0200
0000
0000
0300
1000
,
0100
0000
1100
0000
1100
0000
1000
0200
,
0000
1000
0000
1000
0000
0010
0000
0010
,
0000
1000
0000
0010
0000
0010
0020
0000
,
0000
0300
0000
0001
0000
0001
0002
0000
,
0000
0000
0033
0000
1100
0011
0000
0000
,
0000
0000
0001
1000
,
0001
0100
0001
0000
0100
0000
0010
0000
,
0100
0010
0100
0000
0010
0000
1010
0000
,
0101
0000
0100
0100
0000
0000
0000
0010
,
0100
0010
1000
0001
2000
0000
0000
0000
,
0000
0000
3200
2000
0000
0000
0000
0000
,
3300
0000
1000
0000
1100
0000
0010
0010
,
0000
0000
0102
0000
0010
0013
0000
0000
,
0000
2002
0000
3003
,
0000
0000
0101
0010
,
0101
0000
0010
0000
0001
0100
0000
0010
,
0000
0010
0100
0010
0000
0100
0000
0100
,
0000
0010
1000
0001
0000
1000
0000
0001
,
0000
0000
0000
0000
0101
0000
0001
0100
,
0000
0000
0100
0010
0000
1000
0000
0001
,
0000
1000
0000
0001
0100
0000
0010
1000
,
0000
0010
0000
1000
0010
0000
0010
0000
,
1000
0000
0001
0000
0000
0100
0100
0100
,
0000
0101
0000
0000
0001
1000
0000
1000
,
0001
0100
0000
0100
0001
0010
0001
1000
,
0000
0000
1000
0001
,
0100
0010
1000
0100
,
1000
0100
0010
0001
1000
0000
0100
0000
,
1000
0100
1000
0100
,
1000
0100
0010
0001
,
0010
0001
0010
0001
,
0010
0001
0100
0001
,
0100
0001
0010
0100
,
0010
0100
0010
1000
,
0001
1000
0010
1000
,
0001
0100
0001
0100
,
0001
0100
0010
0100
,
0010
0100
0010
1000
,
0001
1000
0010
1000
,
0010
0100
1000
0100
,
0010
0001
0010
0100
,
0001
0100
0010
1000
,
0001
0100
0010
1000
,
0100
0010
0001
0010
,
0100
1000
0100
0010
,
0001
0010
0100
0010
,
0100
0010
1000
0001
,
0100
0000
0010
0000
0100
0000
0000
0010
,
0000
0000
1000
0000
0001
0000
0000
1000
,
0000
0000
0100
0000
0010
0000
0000
0001
,
0000
0010
0001
0000
,
0000
0000
0000
0000
1001
0000
0000
1100
,
0000
0110
0000
0000
,
0000
0000
0010
0000
0110
0000
0000
1000
,
0000
0000
0100
0000
1100
0000
0000
0010
,
0000
0000
0001
0000
0011
0000
0000
0001
,
0000
0000
0100
0000
0101
0000
0000
0010
,
0000
0000
0100
0000
0110
0000
0000
1100
,
0000
0000
0011
0000
0110
0000
0000
1100
,
0000
0010
0011
0000
,
1001
0000
0000
0000
;

//---------------dance-single - ----------------
#NOTES:
     dance-single:
     :
     Easy:
     5:
     0.335,0.489,0.332,0.081,0.000:
1000
0000
0001
1000
,
0100
0000
0100
0000
,
1100
0000
1000
0000
,
1000
0001
0100
0020
,
1030
0000
1000
0000
,
0001
0000
0001
0000
,
1000
0001
0100
0010
,
1010
0101
1001
0000
,
1000
0001
0100
0010
,
1010
1010
1010
0010
,
1010
1000
0010
1000
,
1100
1100
1100
1100
,
1000
0100
0010
0001
,
0101
0101
0101
0001
,
0101
0100
0110
0010
,
0010
1000
0001
1000
,
0001
1000
0000
1000
0100
0000
1000
0000
,
1001
0000
0000
0001
,
1000
0001
0100
0100
,
0100
0101
0000
0001
,
0100
0010
1000
0100
,
1000
1010
0000
0010
,
1000
0001
0100
0001
,
0010
0011
0000
0001
,
1000
0001
0100
0100
,
0100
0110
0000
0010
,
0000
0010
0000
0100
,
0000
0100
0000
0010
,
0000
0100
0000
0010
,
0010
0010
0010
1000
,
1000
1000
1000
0010
,
0010
0010
0010
0100
,
0100
0100
0100
1001
,
0000
0000
0000
0000
,
0000
0000
0000
0000
,
0000
0001
0000
0001
0000
1000
0000
0001
,
0000
0100
0000
0010
0000
0100
0010
1000
,
0100
1100
0000
0010
0000
0001
0000
0100
,
0000
0010
0000
1000
0000
0001
1000
0001
,
0010
0000
0000
0000
0001
0000
0000
0010
,
0000
0001
0000
0020
0000
0030
0000
0000
,
0000
0000
0000
0000
1000
0000
0000
0100
,
0000
1000
0000
0200
0000
0300
0000
0000
,
1000
0000
0001
0000
0100
0000
0000
0001
,
0000
0001
0000
1000
0000
1000
0000
0001
,
0000
1000
0000
0002
0000
0000
0200
0000
,
0303
0000
0000
2000
0000
0000
0200
0000
,
0000
0000
3300
0000
0000
1000
0000
0000
,
0000
0000
0001
1000
,
0001
0100
0010
0100
,
0100
0000
0100
0010
0000
0000
0010
0000
,
0010
0000
0010
0100
0000
0000
0000
0000
,
0010
1000
0002
0000
,
0000
1000
0000
2000
0000
0000
0000
0000
,
3003
0000
0001
0000
1001
0000
0000
0010
,
0000
0000
1001
0000
0000
0100
0000
0000
,
0000
0000
0000
0000
,
1000
0001
0101
0000
,
0101
0000
0001
0100
,
0010
1000
0100
1000
,
0001
1000
0002
0100
,
0010
0103
0101
0000
,
0000
0000
0001
1000
0001
0000
1000
0000
,
0100
1000
0010
0100
,
0001
0010
0011
1100
,
1010
0000
0101
0000
0000
1000
0001
1000
,
0000
0001
0000
0000
1000
0000
0000
0000
,
1000
0000
0001
1000
,
0000
0000
1000
0000
,
0000
0001
0100
0000
,
0000
0010
1000
0000
,
0001
0000
0100
0000
,
0010
0100
0010
0000
,
0100
0000
0010
0000
,
1000
0000
1010
0000
,
0000
0000
0110
0000
,
0000
0000
1001
0000
,
0000
0000
1100
0000
,
0000
0000
0001
0000
,
0001
0100
0000
0100
,
0010
0100
0010
1000
,
0010
1000
0010
0000
,
0100
0000
0010
0000
,
0010
0100
0000
0100
,
0010
0000
0010
1000
,
0010
1000
0010
0000
,
0100
0000
0010
0000
,
0100
0010
0000
0010
,
0100
0000
0010
1000
,
0010
1000
0010
0000
,
1000
0000
1001
0000
,
0000
0000
0110
0000
,
0000
0000
1100
0000
,
0000
0000
0011
0000
,
0000
0000
1001
0000
,
0000
0000
0000
0000
,
0000
1000
1100
0000
,
0000
0010
0011
0000
,
0000
0001
0101
0000
,
0000
0100
0110
0000
,
0000
0010
1010
0000
,
0000
0001
0011
0000
,
0000
1000
2002
0000
,
3003
0000
0000
0000
;

//---------------dance-single - ----------------
#NOTES:
     dance-single:
     :
     Beginner:
     2:
     0.113,0.174,0.095,0.000,0.000: // measure 1
0010
0000
0000
0000
,  // measure 2
0010
0000
0000
0000
,  // measure 3
1000
0000
0000
0000
,  // measure 4
0000
0000
0000
0000
,  // measure 5
0001
0000
0000
0000
,  // measure 6
0001
0000
0000
0000
,  // measure 7
1000
0000
0000
0000
,  // measure 8
0100
0000
0010
0000
,  // measure 9
1001
0000
0000
0000
,  // measure 10
0100
0000
0000
0000
,  // measure 11
0010
0000
0000
0000
,  // measure 12
1000
0000
0000
0000
,  // measure 13
0001
0000
0000
0000
,  // measure 14
1000
1000
1000
0000
,  // measure 15
0001
0000
0001
0000
,  // measure 16
0001
0000
0000
0000
,  // measure 17
0100
0000
0000
0000
,  // measure 18
0010
0000
0000
0100
,  // measure 19
0000
0000
0000
0000
,  // measure 20
0000
0000
0000
0010
,  // measure 21
0000
0000
0000
0000
,  // measure 22
0000
0000
0000
1000
,  // measure 23
0000
0000
0000
0000
,  // measure 24
0000
0000
0000
0001
,  // measure 25
0000
0000
0000
0000
,  // measure 26
0000
0000
0000
1000
,  // measure 27
0000
0000
0000
0001
,  // measure 28
0000
0000
0000
0100
,  // measure 29
0000
0000
0000
0010
,  // measure 30
0000
0000
0000
0010
,  // measure 31
0000
0000
0000
0010
,  // measure 32
0000
0000
0000
1000
,  // measure 33
0000
0001
0000
0110
,  // measure 34
0000
0000
0000
0000
,  // measure 35
0000
0000
0000
0000
,  // measure 36
0000
0010
0000
0000
0000
0000
0000
0000
,  // measure 37
0000
1000
0000
0000
0000
0000
0000
0000
,  // measure 38
0000
0001
0000
0000
0000
0000
0000
0000
,  // measure 39
0000
1000
0000
0000
0000
0010
0000
0000
,  // measure 40
0000
0000
0100
0000
,  // measure 41
0000
0000
0000
0000
,  // measure 42
0000
0000
0010
0000
,  // measure 43
0000
0000
0000
0000
,  // measure 44
1000
1000
1000
0000
,  // measure 45
0000
0000
0001
0000
,  // measure 46
0000
0000
0100
0000
,  // measure 47
0000
0000
0100
0000
,  // measure 48
0000
0000
0000
0010
,  // measure 49
0000
0000
1000
0000
,  // measure 50
0000
0000
0000
0001
,  // measure 51
0000
0000
0000
0001
,  // measure 52
0000
0000
0000
0000
,  // measure 53
1000
1000
1000
0000
,  // measure 54
0000
0000
0000
0000
,  // measure 55
0000
0000
0010
0000
,  // measure 56
0000
0010
0000
0000
,  // measure 57
0000
0000
0000
0000
,  // measure 58
0000
0000
1000
0000
,  // measure 59
1000
0000
1000
0000
,  // measure 60
0000
0000
0001
0000
,  // measure 61
0000
0000
0100
0000
,  // measure 62
0000
0000
0010
0000
,  // measure 63
0000
0000
0010
0000
,  // measure 64
0000
0000
1000
0000
,  // measure 65
0001
0000
0100
0000
,  // measure 66
0000
0000
0000
0010
,  // measure 67
0000
0000
0100
0000
,  // measure 68
0100
0000
0010
0010
,  // measure 69
0000
0000
1000
0000
,  // measure 70
0000
0000
0001
0000
,  // measure 71
0000
0000
1000
0000
,  // measure 72
0000
0000
0000
0000
,  // measure 73
0000
0000
0000
0000
,  // measure 74
0000
0000
0010
0000
,  // measure 75
0000
0000
0010
0000
,  // measure 76
0000
0000
0100
0000
,  // measure 77
0000
0000
0010
0000
,  // measure 78
0000
0000
1000
0000
,  // measure 79
0000
0000
0001
0000
,  // measure 80
0000
0000
0000
0000
,  // measure 81
0000
0000
1000
0000
,  // measure 82
1000
0000
1000
0000
,  // measure 83
0000
0000
0010
0000
,  // measure 84
0000
0000
0000
0000
,  // measure 85
0000
0000
0100
0000
,  // measure 86
0100
0000
0100
0000
,  // measure 87
0000
0000
1001
0000
,  // measure 88
0000
0000
0000
0000
,  // measure 89
0000
0000
0010
0000
,  // measure 90
0010
0000
0010
0000
,  // measure 91
0000
0000
0110
0000
,  // measure 92
0000
0000
0110
0000
,  // measure 93
0000
0000
0110
0000
,  // measure 94
0000
0000
0110
0000
,  // measure 95
0000
0000
0001
0000
,  // measure 96
0000
0000
0000
0000
,  // measure 97
0000
0000
1001
0000
,  // measure 98
0000
0000
0110
0000
,  // measure 99
0000
0000
0110
0000
,  // measure 100
0000
0000
0110
0000
,  // measure 101
0000
0000
1001
0000
,  // measure 102
0000
0000
0110
0000
,  // measure 103
0000
0000
1001
0000
;

//---------------dance-double - ----------------
#NOTES:
     dance-double:
     :
     Easy:
     5:
     0.322,0.487,0.068,0.000,0.000: // measure 1
00000001
00001000
00000001
00001000
,  // measure 2
00000100
00010000
00000100
00010000
,  // measure 3
00001000
00000000
01000000
00000000
,  // measure 4
00010000
00000000
10000000
00000000
,  // measure 5
00100000
00000000
00001000
00010000
,  // measure 6
00000010
00000000
00000100
00000001
,  // measure 7
00000010
00000000
00000100
00001000
,  // measure 8
00010000
00001000
00010000
00001000
,  // measure 9
01000000
00000000
00001000
00010000
,  // measure 10
00000010
00000010
00000010
00001000
,  // measure 11
00000001
00000000
00000100
00000010
,  // measure 12
00010000
00010000
00001000
01000000
,  // measure 13
00100000
00000000
10000000
00010000
,  // measure 14
01000000
01000000
01000000
00001000
,  // measure 15
00010000
00000000
00000010
00001000
,  // measure 16
00000100
00010000
00001000
00100000
,  // measure 17
01000000
00000000
00000000
00010000
00001000
00010000
00001000
00000000
,  // measure 18
00000100
00000000
00000000
00000001
,  // measure 19
00000100
00001000
00010000
01000000
,  // measure 20
10000000
10010000
00000000
10000000
,  // measure 21
01000000
00010000
00001000
00000100
,  // measure 22
00000001
00001001
00000000
00000001
,  // measure 23
00000100
00001000
00010000
01000000
,  // measure 24
10000000
10010000
00000000
10000000
,  // measure 25
01000000
00010000
00001000
00000100
,  // measure 26
00000001
00001001
00000000
01000000
,  // measure 27
00000000
01000000
00000000
00001000
,  // measure 28
00010000
00001000
00000000
00000010
,  // measure 29
00000000
00000010
00000000
00010000
,  // measure 30
00001000
00010000
00000000
01000000
,  // measure 31
00000000
01000000
00000000
00001000
,  // measure 32
00010000
00001000
00000000
00000010
,  // measure 33
00000010
00000001
00000100
00001000
,  // measure 34
00000000
00000000
00000000
00000000
,  // measure 35
00000000
00000000
00000000
00000000
,  // measure 36
00000000
00100000
01000000
00001000
00000000
00010000
00000010
00000100
,  // measure 37
00000000
00000010
00000000
00000001
00000010
00000100
00001000
00010000
,  // measure 38
00100000
01000000
00100000
10000000
00000000
01000000
00100000
00001000
,  // measure 39
00010000
00000100
00000010
00000001
00000100
00000010
00010000
00001000
,  // measure 40
01000000
00100000
00000000
00000000
10000000
00000000
10000000
00000000
,  // measure 41
00010000
01000000
00010000
00010000
,  // measure 42
00000010
00000100
00000001
00000001
,  // measure 43
00001000
00000100
00010000
00010000
,  // measure 44
00100000
01000000
00010000
00000000
,  // measure 45
10000000
00000000
00010000
00000000
,  // measure 46
10000000
00000000
00010000
00001000
,  // measure 47
00000010
00000000
00000001
00000100
,  // measure 48
00001000
00000000
00001000
00000001
,  // measure 49
00000000
00000000
00000001
00000010
,  // measure 50
00000010
00000100
00000100
00000010
,  // measure 51
00001000
00010000
00100000
00001000
,  // measure 52
00000010
00000001
00000100
00000100
,  // measure 53
00001000
00000100
00001000
00000010
,  // measure 54
00000001
00000110
00001000
00010000
,  // measure 55
00100000
10000000
00010000
01000000
,  // measure 56
01000000
10000000
01000000
01000000
,  // measure 57
00010000
01000000
00100000
00010000
,  // measure 58
00001000
00000010
00000101
00000000
,  // measure 59
00001100
00000000
00000010
00000010
,  // measure 60
00000100
00001000
00010000
00001000
,  // measure 61
00010000
00000100
00010000
00001000
,  // measure 62
00100000
01000000
10010000
00000000
,  // measure 63
00000000
00000000
01000000
01000000
,  // measure 64
00010000
00100000
10000000
10000000
,  // measure 65
00010000
00010000
01000000
00010000
,  // measure 66
00100000
00100000
10000000
01000000
,  // measure 67
00010000
00011000
00000010
00000010
,  // measure 68
00000001
00000100
00001000
00010000
,  // measure 69
01000000
00000000
00100000
10000000
,  // measure 70
01000000
00010000
00001000
00000100
,  // measure 71
00000001
00001000
00000100
00000010
,  // measure 72
00000001
00000000
00000100
00000000
,  // measure 73
00000100
00000000
00001000
00000000
,  // measure 74
00010000
00000000
01000000
00000000
,  // measure 75
00100000
00000000
10000000
00000000
,  // measure 76
01000000
00000000
10000000
00000000
,  // measure 77
00010000
00000000
10000000
00000000
,  // measure 78
00100000
00000000
01000000
00000000
,  // measure 79
00001000
00000000
00010000
00001000
,  // measure 80
00010000
00000000
00000100
00000000
,  // measure 81
00000100
00000000
00000010
00000000
,  // measure 82
00000001
00000000
00000100
00000000
,  // measure 83
00000001
00000000
00000100
00000010
,  // measure 84
00000100
00000000
00001000
00000000
,  // measure 85
00001000
00000000
00010000
00000000
,  // measure 86
00100000
00000000
00010000
00000000
,  // measure 87
00001000
00000000
00010000
01000000
,  // measure 88
00010000
00000000
00001000
00000000
,  // measure 89
00010000
00000000
01000000
00000000
,  // measure 90
00100000
00000000
00001000
00000000
,  // measure 91
00010000
00000000
00000100
00000000
,  // measure 92
00000010
00000000
00000001
00000000
,  // measure 93
00000100
00000000
00001000
00000000
,  // measure 94
00010000
00000000
00100000
00000000
,  // measure 95
10000000
00000000
00000000
00000000
01000000
00000000
00000000
01000000
,  // measure 96
00000000
01000000
00010000
00000000
,  // measure 97
00010000
00000000
00000000
00000000
00001000
00000000
00000000
00001000
,  // measure 98
00000000
00000000
00001000
00000000
00000100
00000000
00000000
00000100
,  // measure 99
00000000
00000000
00000100
00000000
00000001
00000000
00000000
00000001
,  // measure 100
00000000
00000000
00000001
00000000
00000010
00000000
00000000
00000010
,  // measure 101
00000000
00000000
00000010
00000000
00001000
00000000
00000000
00001000
,  // measure 102
00000000
00000000
00001000
00000000
00010000
00000000
00000000
00010000
,  // measure 103
00000000
00010000
00011000
00000000
;

//---------------dance-double - ----------------
#NOTES:
     dance-double:
     :
     Medium:
     7:
     0.478,0.626,0.339,0.000,0.031: // measure 1
00010000
00001000
00000100
00000001
,  // measure 2
00000010
00000100
00010000
00001000
,  // measure 3
00100000
01000000
00010000
00001000
,  // measure 4
00000010
00000000
00000001
00000000
00000100
00001000
00000100
00000000
,  // measure 5
00001000
00001000
00010000
00010000
,  // measure 6
01000000
01000000
00010000
00001000
,  // measure 7
00010000
00010000
00000010
00000100
,  // measure 8
00000001
00001000
00000100
00010100
,  // measure 9
00000010
00010000
00001000
00100000
,  // measure 10
00010000
00000000
10000000
00000000
00100000
00000000
01000000
00010000
,  // measure 11
10000000
00000000
00100000
00101000
,  // measure 12
00000100
00000000
00000100
00000000
00001000
00000001
00001000
00000001
,  // measure 13
00000100
00000100
00000001
00001000
,  // measure 14
00000010
00000000
00010000
00000000
00001000
00000000
01000000
00010000
,  // measure 15
10000000
00000000
00100000
00100000
,  // measure 16
10000000
00000000
00010000
00100000
00001000
00010000
00000000
00000000
,  // measure 17
00000010
00001000
00000000
00000001
00000100
00000001
00000100
00000000
,  // measure 18
00001001
00000000
00000000
00000000
00000000
00000000
00001000
00000100
,  // measure 19
00000000
00000001
00000100
00000000
00001000
00000000
00010000
00000000
,  // measure 20
01000000
00000000
01100000
00000000
00000000
00000000
00010000
01000000
,  // measure 21
00000000
10000000
01000000
00000000
00010000
00000000
00001000
00000000
,  // measure 22
00000100
00000000
00000110
00000000
00000000
00000000
00001000
00000100
,  // measure 23
00000000
00000001
00000100
00000000
00001000
00000000
00010000
00000000
,  // measure 24
01000000
00000000
01100000
00000000
00000000
00000000
00010000
01000000
,  // measure 25
00000000
10000000
01000000
00000000
00010000
00000000
00001000
00000000
,  // measure 26
00000100
00000110
00000000
00000010
,  // measure 27
00001000
00000100
00010000
00001000
,  // measure 28
00100000
00010000
10000000
01000000
,  // measure 29
00100000
00001000
00010000
00000100
,  // measure 30
00000010
00000001
00000100
00000010
,  // measure 31
00001000
00000001
00000010
00000100
,  // measure 32
00010000
00001000
00100000
00010000
,  // measure 33
00100000
00000000
00000000
00000000
00000000
00000000
00000000
00000000
10000000
00000000
00000000
00000000
00000000
00000000
00000000
00000000
01000000
00000000
00000000
00000000
00000000
00100000
00000000
00000000
01000000
00000000
00000000
00000000
00000000
00000000
00000000
00000000
,  // measure 34
00000000
00000000
00000000
00000000
,  // measure 35
00000000
00000000
00000000
00000000
,  // measure 36
00000000
00000000
00000000
00000000
00000000
00000000
00000000
00000000
00100000
00000000
00000000
00000000
00000000
00000000
00000000
00000000
00001000
00000000
00000000
00000000
00000000
00000000
00000000
00000000
01000000
00000000
00000000
00000000
00000000
00001000
00000000
00000000
00010000
00000000
00000000
00000000
00000000
00000000
00000000
00000000
00000010
00000000
00000000
00000000
00000000
00000000
00000000
00000000
00000100
00000000
00000000
00000000
00000000
00000000
00000000
00000000
00000001
00000000
00000000
00000000
00000000
00000000
00000000
00000000
,  // measure 37
00000010
00000000
00000000
00000000
00000000
00000000
00000000
00000000
00000100
00000000
00000000
00000000
00000000
00000000
00000000
00000000
00000000
00000000
00000000
00000000
00000000
00010000
00000000
00000000
00001000
00000000
00000000
00000000
00000000
00000000
00000000
00000000
01000000
00000000
00000000
00000000
00000000
00000000
00000000
00000000
00100000
00000000
00000000
00000000
00000000
10000000
00000000
00000000
01000000
00000000
00000000
00000000
00000000
00000000
00000000
00000000
00010000
00000000
00000000
00000000
00000000
00000000
00000000
00000000
,  // measure 38
00001000
00000000
00000000
00000000
00000000
00000000
00000000
00000000
00000010
00000000
00000000
00000000
00000000
00000000
00000000
00000000
00000001
00000000
00000000
00000000
00000000
00000000
00000000
00000000
00000100
00000000
00000000
00000000
00000000
00000000
00000000
00000000
00000000
00000000
00000000
00000000
00000000
00000000
00000000
00000000
00000010
00000000
00000000
00000000
00000000
00000000
00000000
00000000
00010000
00000000
00000000
00000000
00000000
00000000
00000000
00000000
01000000
00000000
00000000
00000000
00000000
00100000
00000000
00000000
,  // measure 39
00001000
00000000
00000000
00000000
00000000
00000000
00000000
00000000
00010000
00000000
00000000
00000000
00000000
00100000
00000000
00000000
10000000
00000000
00000000
00000000
00000000
00000000
00000000
00000000
01000000
00000000
00000000
00000000
00000000
00000000
00000000
00000000
00010000
00000000
00000000
00000000
00000000
00000000
00000000
00000000
00001000
00000000
00000000
00000000
00000000
00000010
00000000
00000000
00000001
00000000
00000000
00000000
00000000
00000000
00000000
00000000
00000100
00000000
00000000
00000000
00000000
00000000
00000000
00000000
,  // measure 40
00001000
00000000
10010000
10010000
,  // measure 41
00001000
00010000
00011000
00011000
,  // measure 42
00000001
00000100
00001001
00001001
,  // measure 43
00010000
00001000
00011000
00011000
,  // measure 44
10000000
01000000
00010000
01000000
,  // measure 45
10000000
01000000
00010000
01000000
,  // measure 46
10000000
01000000
00010000
00001000
,  // measure 47
00000010
00000001
00000001
00000100
,  // measure 48
00001000
00000100
00000001
00000100
00000010
00000001
00001000
00000000
,  // measure 49
00000000
00000000
00000110
00001000
,  // measure 50
00010000
00000000
00001000
00000100
00000001
00000000
00000100
00000000
,  // measure 51
00001000
00000000
00010000
01000000
10000000
00000000
01100000
00000000
,  // measure 52
11000000
00000000
00100000
00010000
00001000
00000000
00010010
00000000
,  // measure 53
00001000
00000010
00000100
00000000
00000101
00000000
00001100
00000000
,  // measure 54
00000010
00001000
00010000
00000000
00100000
00010000
00001000
00000000
,  // measure 55
01001000
01010000
00100000
00010000
,  // measure 56
11000000
00100000
10000000
01010000
,  // measure 57
10010000
01000000
10000000
01000000
,  // measure 58
10000000
00000000
11000000
00000000
00010000
00001000
00010000
00000000
,  // measure 59
00000010
00001000
00000100
00000000
00000001
00000000
00000001
00000000
,  // measure 60
00001000
00000000
00001000
00000000
00000001
00000010
00000001
00000000
,  // measure 61
00001000
00000100
00010000
00000000
00001000
00000000
00001000
00000000
,  // measure 62
00010000
01000000
00100000
00000000
10000000
00000000
00100000
00000000
,  // measure 63
01000000
00010000
10000000
10000000
,  // measure 64
01000000
00000000
01000000
00000000
00100000
00010000
01000000
00000000
,  // measure 65
10000000
00010000
01000000
00000000
01000000
00000000
00001000
00000000
,  // measure 66
00010000
00000000
00000010
00000000
00000000
00000100
00001000
00010000
,  // measure 67
00000000
01100000
00000000
00000000
00100000
00001000
00000000
00010000
,  // measure 68
00001000
00000100
00000000
00000001
00000010
00000100
00001000
00000001
,  // measure 69
00000000
00000000
00000000
00000000
00000000
00000000
00000000
00000000
00000001
00000000
00000000
00000000
00000010
00000000
00000000
00000100
,  // measure 70
00000100
00000000
00000000
00000000
00000010
00000000
00000000
00000000
00000001
00000000
00000000
00000000
00000100
00000000
00000000
00001000
,  // measure 71
00001000
00010000
00100000
01000000
00010000
00000000
10000000
00000000
,  // measure 72
00010000
01000000
00100000
10000000
,  // measure 73
01000000
00010000
00001000
00000010
,  // measure 74
00000100
00000010
00000001
00000100
,  // measure 75
00001000
00000100
00000010
00001000
,  // measure 76
00000100
00000010
00000001
00000100
,  // measure 77
00001000
00010000
00001000
00010000
,  // measure 78
00100000
10000000
01000000
00100000
,  // measure 79
00010000
01000000
00100000
10000000
,  // measure 80
01000000
00010000
00001000
00000010
,  // measure 81
00000100
00001000
00000100
00000000
00000010
00000000
00000001
00000000
,  // measure 82
00000100
00001000
00010000
00100000
,  // measure 83
01000000
00010000
01000000
00000000
00100000
00000000
10000000
00000000
,  // measure 84
01000000
00100000
00001000
00010000
,  // measure 85
00000100
00000010
00000100
00000000
00000010
00000000
00000001
00000000
,  // measure 86
00000100
00000010
00010000
00001000
,  // measure 87
01000000
00100000
01000000
00000000
00010000
00000000
10000000
00000000
,  // measure 88
01000000
00100000
00001000
00010000
,  // measure 89
00000010
00000100
00000001
00000000
00001000
00000000
00000001
00000000
,  // measure 90
00000100
00000010
00010000
00001000
,  // measure 91
00100000
01000000
10000000
00000000
00010000
00000000
00010000
00000000
,  // measure 92
01000000
01000000
00100000
00100000
,  // measure 93
00010000
00010000
00001000
00001000
,  // measure 94
00000100
00000100
00000010
00000010
,  // measure 95
00001000
00000000
00001000
00000000
00001100
00000000
00000000
00001001
,  // measure 96
00000000
00001010
00000100
00000000
,  // measure 97
00000100
00000000
00000000
00000000
00010010
00000000
00000000
00011000
,  // measure 98
00000000
00000000
00010100
00000000
00011000
00000000
00000000
00101000
,  // measure 99
00000000
00000000
01100000
00000000
11000000
00000000
00000000
10010000
,  // measure 100
00000000
00000000
01010000
00000000
01001000
00000000
00000000
00011000
,  // measure 101
00000000
00000000
00010010
00000000
00001010
00000000
00000000
00000110
,  // measure 102
00000000
00000000
00000101
00000000
00000110
00000000
00000000
00001010
,  // measure 103
00000000
00010010
00011000
00000000
;

//---------------dance-double - ----------------
#NOTES:
     dance-double:
     :
     Hard:
     10:
     0.614,1.000,0.292,0.000,0.224: // measure 1
10000000
01000000
00010000
00001000
,  // measure 2
00010000
00001000
00000010
00000001
,  // measure 3
00000010
00000001
00000100
00000000
00000010
00001000
00000100
00000000
,  // measure 4
00010000
00000000
00001000
00000000
00010000
00000000
00100000
00000000
10000000
00000000
01000000
00000000
00010000
00001000
00000000
00000000
,  // measure 5
00011000
00000000
00010100
00000000
00001000
00000001
00000100
00000000
,  // measure 6
00000010
00010000
00001000
00000000
00100000
00010000
01000000
00000000
,  // measure 7
00010000
10000000
01000000
00000000
00100000
00001000
00010000
00000000
,  // measure 8
00001000
00010000
00001000
00000100
00000001
00000010
00000100
00000000
,  // measure 9
00000001
00000000
00001000
00000001
00000100
00000000
00010000
00001000
,  // measure 10
01000000
00000000
01000000
00000000
01000000
00100000
10000000
00010000
,  // measure 11
01000000
00000000
00000000
00000000
01000000
00000000
00100000
00000000
10000000
00000000
00000000
10000000
00010000
00000000
00100000
00000000
,  // measure 12
00001000
00000000
00001000
00000000
00010000
00000000
00000010
00001000
,  // measure 13
00000100
00000000
00000000
00000000
00000010
00000000
00000000
00000000
00001000
00000000
00000000
00000001
00001000
00000000
00000010
00000000
,  // measure 14
00000100
00000000
00000100
00000000
00001000
00000000
00100000
00010000
,  // measure 15
10000000
00000000
00000000
00000000
00100000
00000000
00000000
00000000
01000000
00000000
00000000
00010000
10000000
00000000
00100000
00000000
,  // measure 16
01000000
00010000
00100000
00001000
00010000
00000100
00000000
00000000
,  // measure 17
00001000
00000010
00000000
00010000
00000100
00010000
00000100
00000000
,  // measure 18
00001000
00000000
00000000
00000000
00000000
00000000
00000010
00001000
,  // measure 19
00000000
00000010
00000001
00000100
00001000
00010000
01000000
10000000
,  // measure 20
00010000
00000000
10010000
00000000
00000000
00000000
00100000
00010000
,  // measure 21
00000000
00100000
10000000
01000000
00010000
00001000
00000100
00000001
,  // measure 22
00001000
00000000
00001001
00000000
00000000
00000000
00000010
00001000
,  // measure 23
00000000
00000010
00000001
00000100
00001000
00010000
01000000
10000000
,  // measure 24
00010000
00000000
10010000
00000000
00000000
00000000
00100000
00010000
,  // measure 25
00000000
00100000
10000000
01000000
00010000
00001000
00000100
00000001
,  // measure 26
00001000
00001001
00000000
00010000
,  // measure 27
01000000
00000000
00000000
00000000
00000000
00000000
00000000
00000000
00001000
00000000
00000000
00000000
00000000
00000000
00000000
00000000
00010000
00000000
00000000
00000000
00000000
00000010
00000000
00000000
00001000
00000000
00000000
00000000
00000000
00000100
00000000
00000000
,  // measure 28
00010000
00000000
00000000
00000000
00000000
00001000
00000000
00000000
00100000
00000000
00000000
00000000
00000000
00000000
00000000
00000000
00010000
00000000
00000000
00000000
00000000
00000000
00000000
00000000
10000000
00000000
00000000
00000000
00000000
00000000
00000000
00000000
,  // measure 29
00100000
00000000
00000000
00000000
00000000
00000000
00000000
00000000
00100000
00000000
00000000
00000000
00000000
00000000
00000000
00000000
01000000
00000000
00000000
00000000
00000000
00010000
00000000
00000000
00100000
00000000
00000000
00000000
00000000
01000000
00000000
00000000
,  // measure 30
10000000
00000000
00000000
00000000
00000000
00010000
00000000
00000000
00100000
00000000
00000000
00000000
00000000
00001000
00000000
00000000
00010000
00000000
00000000
00000000
00000000
00000000
00000000
00000000
00000010
00000000
00000000
00000000
00000000
00000000
00000000
00000000
,  // measure 31
00010000
00000000
00000000
00000000
00000000
00000000
00000000
00000000
00001000
00000000
00000000
00000000
00000000
00000000
00000000
00000000
01000000
00000000
00000000
00000000
00000000
00001000
00000000
00000000
00010000
00000000
00000000
00000000
00000000
00000010
00000000
00000000
,  // measure 32
00001000
00000000
00000000
00000000
00000000
00000100
00000000
00000000
00000010
00000000
00000000
00000000
00000000
00000000
00000000
00000000
00000001
00000000
00000000
00000000
00000000
00000000
00000000
00000000
00001000
00000000
00000000
00000000
00000000
00000000
00000000
00000000
,  // measure 33
00000010
00000000
00000000
00000000
00000000
00000001
00000000
00000000
00000100
00000000
00000000
00000000
00000000
00000000
00000000
00000000
00000010
00000000
00000000
00000000
00000000
00001000
00000000
00000000
00000100
00000000
00000000
00000000
00000000
00000000
00000000
00000000
,  // measure 34
00000000
00000000
00000000
00000000
,  // measure 35
00000000
00000000
00000000
00000000
,  // measure 36
00000000
00000000
00000000
00000000
00000000
00000000
00000000
00000000
10000000
00000000
01000000
00000000
00000000
00100000
00000000
00000000
00001000
00000000
00000000
00000000
00000000
00010000
00000000
00000000
00000100
00000000
00000000
00000000
00000000
00000010
00000000
00000000
00000001
00000000
00000000
00000000
00000000
00000001
00000000
00000000
00000100
00000000
00000000
00000000
00000000
00000010
00000000
00000000
00001000
00000000
00000000
00000000
00000000
00000100
00000000
00000000
01000000
00000000
00100000
00000000
00000000
10000000
00000000
00000000
,  // measure 37
00010000
00000000
00000000
00000000
00000000
01000000
00000000
00000000
00100000
00000000
00000000
00000000
00000000
00000000
00000000
00000000
00000000
00000000
10000000
00000000
00000000
01000000
00000000
00000000
00100000
00000000
00000000
00000000
00000000
00001000
00000000
00000000
00010000
00000000
00000000
00000000
00000000
00000010
00000000
00000000
00000100
00000000
00000000
00000000
00000000
00000001
00000000
00000000
00000010
00000000
00000000
00000000
00000000
00000100
00000000
00000000
00010000
00000000
00001000
00000000
00000000
00010000
00000000
00000000
,  // measure 38
00000100
00000000
00000000
00000000
00000000
00000000
00000000
00000000
00000010
00000000
00000001
00000000
00000000
00000010
00000000
00000000
00000100
00000000
00000000
00000000
00000000
00010000
00000000
00000000
00000000
00000000
00001000
00000000
00000000
00000000
00000000
00000000
01000000
00000000
00000000
00000000
00000000
01000000
00000000
00000000
00000000
00000000
00100000
00000000
00000000
10000000
00000000
00000000
00100000
00000000
00000000
00000000
00000000
01000000
00000000
00000000
00001000
00000000
00000000
00000000
00000000
00010000
00000000
00000000
,  // measure 39
00000010
00000000
00000000
00000000
00000000
00010000
00000000
00000000
00000100
00000000
00000000
00000000
00000000
00000010
00000000
00000000
00000001
00000000
00000000
00000000
00000000
00000100
00000000
00000000
00000010
00000000
00010000
00000000
00000000
00000100
00000000
00000000
00010000
00000000
00000000
00000000
00000000
00001000
00000000
00000000
01000000
00000000
00100000
00000000
00000000
00000000
00000000
00000000
10000000
00000000
00000000
00000000
00000000
01000000
00000000
00000000
00000000
00000000
00010000
00000000
00000000
00000000
00000000
00000000
,  // measure 40
00001000
00000000
10010000
11000000
,  // measure 41
00100000
00010000
01000000
00000000
00011000
00000000
01000000
00000000
,  // measure 42
00001000
00010000
00000010
00000000
00001001
00000000
00000101
00000000
,  // measure 43
00000010
00001000
00000100
00000000
00011000
00000000
00000100
00000000
,  // measure 44
00010000
00001000
00100000
00000000
10010000
00000000
01000000
00000000
,  // measure 45
01010000
00001000
00011000
00000100
,  // measure 46
00001100
00000001
00001000
00000100
,  // measure 47
00000001
00000010
00010000
01000000
,  // measure 48
10000000
00000000
00100000
00000000
00010000
10000000
00100000
00000000
,  // measure 49
00010000
01000000
00100000
11000000
,  // measure 50
00100000
00000000
00010000
00001000
00000010
00000000
00000110
00000000
,  // measure 51
00000010
00000001
00000100
00001000
00010000
00000000
01100000
00000000
,  // measure 52
10000000
01000000
00010000
00001000
00000100
00000000
00000101
00000000
,  // measure 53
00000010
00000001
00000100
00001000
00010000
00000000
00101000
00000000
,  // measure 54
00100000
00010000
01000000
00000000
01001000
00000000
01010000
00000000
,  // measure 55
00100000
00001000
00010000
00000000
00010010
00000000
00001000
00000100
,  // measure 56
00000001
00000000
00001010
00000000
00000001
00000100
00001000
00010000
,  // measure 57
00000010
00000100
00001000
00010000
01000000
00010000
00001000
00010000
,  // measure 58
00000000
00010000
00001000
00000000
00000010
00001000
00000100
00000000
,  // measure 59
00000010
00000001
00000100
00000000
00000010
00000001
00000010
00000000
,  // measure 60
00000100
00001000
00000100
00000000
00010000
00000100
00010000
00001000
,  // measure 61
00010000
00100000
01000000
00000000
00100000
01000000
00010000
10000000
,  // measure 62
00010000
01000000
01000000
00000000
00100000
00000000
00100000
00000000
,  // measure 63
10000000
00010000
01000000
00001000
00010000
00000000
00010000
00000000
,  // measure 64
00001000
00010000
00000010
00000000
00000001
00000000
00000001
00000000
,  // measure 65
00001000
00001000
00000010
00011000
,  // measure 66
01000000
00000000
00011000
00000000
00000000
00000010
00001000
00000100
,  // measure 67
00000000
00000000
00001001
00000000
00000000
00000000
00000000
00000000
00010000
00001000
00010000
00000000
00000000
00000000
01000000
00000000
,  // measure 68
10000000
00000000
00100000
00000000
00000000
00000000
00010000
00000000
00001000
00000010
00001000
00000000
00000010
00000000
00000001
00000000
,  // measure 69
00000000
00000000
00000000
00000000
00000000
00000000
00000000
00000000
00000000
00000000
00000000
00000000
00000000
00000000
00000000
00000000
00000100
00000000
00000000
00000010
00000000
00000000
00000001
00000000
00000000
00000000
00000000
00000000
00000000
00000000
00000100
00000000
,  // measure 70
00000100
00000000
00000000
00000000
00000000
00000000
00001000
00000000
00001000
00000000
00000000
00010000
00000000
00000000
00100000
00000000
01000000
00000000
00000000
10000000
00000000
00000000
00100000
00000000
00000000
00000000
00000000
00000000
00000000
00000000
01000000
00000000
,  // measure 71
01000000
00000000
00000000
00000000
00000000
00000000
00001000
00000000
00001000
00000000
00000000
00010000
00000000
00000000
00000100
00000000
00000010
00000000
00000000
00000000
00000000
00000000
00000000
00000000
00000001
00000000
00000000
00000000
00000000
00000000
00000000
00000000
,  // measure 72
00001000
00010000
00100000
10000000
,  // measure 73
00010000
10000000
01000000
00000000
00010000
00000000
00001000
00000000
,  // measure 74
00010000
00000100
00000010
00000001
,  // measure 75
00000100
00001000
00000100
00000000
00010000
00000000
00100000
00000000
,  // measure 76
10000000
01000000
10000000
00000000
01000000
00000000
00010000
00000000
,  // measure 77
00001000
00010000
00001000
00000000
00000010
00000000
00000001
00000000
,  // measure 78
00001000
00000001
00000100
00000000
00001000
00000000
00010000
00000000
,  // measure 79
01000000
00100000
00001000
00000000
00010000
00000000
00100000
10000000
,  // measure 80
00100000
00000000
10000000
01000000
10000000
00000000
01000000
00010000
,  // measure 81
01000000
00000000
00010000
00001000
00010000
00000000
00001000
00000010
,  // measure 82
00001000
00000000
00000010
00000001
00000010
00000000
00000001
00000100
,  // measure 83
00000010
00000000
00010000
00001000
00010000
00000000
00100000
10000000
,  // measure 84
01000000
00000000
00100000
00001000
00010000
00000000
00001000
00000010
,  // measure 85
00000100
00000000
00001000
00000001
00000100
00000000
00001000
00010000
,  // measure 86
00100000
00000000
00010000
00100000
01000000
00000000
00100000
10000000
,  // measure 87
01000000
00000000
01000000
00010000
00001000
00000000
00001000
00000010
,  // measure 88
00000001
00000000
00001000
00000100
00000010
00000000
00000001
00000100
,  // measure 89
00000010
00000000
00010000
00001000
00010000
00000000
00100000
10000000
,  // measure 90
00100000
00000000
01000000
00010000
10000000
00000000
01000000
00010000
,  // measure 91
00001000
00000000
00010000
00001000
00000010
00000000
00000001
00000100
,  // measure 92
00000010
00000000
00010000
00001000
00010000
00000000
00000100
00000010
,  // measure 93
00000001
00000000
00000100
00001000
00010000
00000000
00001000
00010000
,  // measure 94
00100000
00000000
10000000
01000000
00100000
00001000
00010000
00100000
,  // measure 95
01000000
00001000
00010000
00000000
00011000
00000000
00000000
01001000
,  // measure 96
00000000
00000000
00110000
00000000
00100000
00000000
00000000
00010000
,  // measure 97
01000000
00000000
01010000
00000000
10100000
00000000
00000000
01000000
,  // measure 98
00001000
00000000
00011000
00000000
00010100
00000000
00000000
00001000
,  // measure 99
00000100
00000000
00000011
00000000
00001001
00000000
00000000
00000100
,  // measure 100
00000001
00000000
00010010
00000000
00011000
00000000
00000000
00001000
,  // measure 101
01000000
00000000
01010000
00000000
00100000
10000000
00000000
10000000
,  // measure 102
01000000
00000000
00101000
00000000
00010000
00000100
00000000
00000100
,  // measure 103
00000010
00000011
00001001
00000000
;
