#TITLE:D;
#SUBTITLE:;
#ARTIST:Eagle;
#TITLETRANSLIT:;
#SUBTITLETRANSLIT:;
#ARTISTTRANSLIT:;
#CREDIT:;
#BANNER:bn.png;
#BACKGROUND:bg2.png;
#LYRICSPATH:;
#CDTITLE:;
#MUSIC:D.mp3;
#OFFSET:-0.060;
#SAMPLESTART:73.100;
#SAMPLELENGTH:12.000;
#SELECTABLE:YES;
#BPMS:0.000=120.200,72.000=130.000,76.000=140.000,80.000=150.000,84.000=160.000,86.000=170.000,88.000=180.000,90.000=190.000,92.000=200.000,93.000=210.000,94.000=220.000,95.000=240.000,96.000=49.999,100.000=174.999,216.000=170.000,217.500=159.999,218.500=149.999,220.000=140.000,224.000=130.000,228.000=29.999,230.000=240.000,232.750=120.040,265.000=60.010,267.000=60.000;
#STOPS:96.000=0.020
,230.000=0.820
,230.500=0.250
,231.000=0.250
,231.500=0.063
,231.750=0.063
,232.000=0.250
,232.500=0.063
,232.750=0.320
;
#BGCHANGES:;

//---------------dance-single - ----------------
#NOTES:
     dance-single:
     :
     Hard:
     9:
     0.641,0.741,0.222,0.304,0.592: // measure 1
0000
0000
0000
0000
,  // measure 2
0000
0000
0000
0000
,  // measure 3
0000
0000
0000
0000
,  // measure 4
0000
0000
0000
0000
,  // measure 5
0000
0000
0000
0000
,  // measure 6
1000
0001
0100
0010
1000
0100
0010
0000
,  // measure 7
0001
1000
0001
1000
0001
0010
0100
0000
,  // measure 8
1000
0001
0100
0001
0010
0001
0100
0001
,  // measure 9
1001
0000
0000
1100
0000
0000
0001
0100
0000
0101
0000
0001
0010
0100
1000
0001
,  // measure 10
0100
0000
0010
0000
1000
0000
0010
0100
0000
0010
0100
0000
0002
0000
0100
0000
,  // measure 11
0013
0000
0100
0000
0001
0000
1000
0001
0000
0001
0010
0000
0002
0000
0100
0000
,  // measure 12
0203
0000
0301
0000
1000
0000
0010
1000
0000
0010
0100
0000
0010
0000
0100
0000
,  // measure 13
0010
1000
0001
0100
0010
1000
0001
0200
0000
0000
0000
0000
0310
0000
0000
0000
,  // measure 14
1000
0000
0001
0100
0001
0000
0010
0000
0100
0010
0100
0000
1000
0000
0001
1000
,  // measure 15
0100
1000
0100
1000
0100
0000
0001
0100
0001
0100
0001
0000
0001
0010
0001
0000
,  // measure 16
2002
0000
3003
0000
1000
0000
0001
0100
0000
0010
0200
0000
0310
0000
1000
0000
,  // measure 17
1100
0000
0001
0100
0000
0010
0100
0000
1000
0001
0000
0010
0100
0000
0010
0000
,  // measure 18
0110
0010
0100
0010
1000
0001
1001
0000
,  // measure 19
0001
1000
0001
0100
0001
0100
0110
0000
,  // measure 20
1000
0001
1000
0001
0100
0001
0011
0000
,  // measure 21
1000
0000
0001
0100
0000
0000
0010
0000
0100
0010
0000
0100
0010
0000
0100
0000
,  // measure 22
0001
1000
0001
1000
0001
1000
0001
1000
,  // measure 23
0001
1000
0001
1000
0001
1000
0001
1000
,  // measure 24
0001
1000
0001
1000
0001
1000
0001
1000
,  // measure 25
0200
0000
0000
0000
,  // measure 26
0300
0000
0000
0000
,  // measure 27
1000
0000
0001
0000
0100
0000
0010
0000
0000
0100
0000
0000
0010
0100
0000
1000
,  // measure 28
0001
0000
0000
0001
0000
0000
0001
0000
0000
0001
0000
0000
0001
0000
0100
0000
,  // measure 29
0001
0000
0100
0000
0010
0000
1000
0000
0010
0000
0000
0010
0100
0000
0010
0000
,  // measure 30
1000
0000
0000
0100
0000
0000
1000
0000
0000
0001
0000
0000
0100
0000
0001
0000
,  // measure 31
0100
0000
0001
0000
1000
0000
0100
0000
0000
1000
0000
0001
0000
0100
0000
0001
,  // measure 32
0100
0000
0000
0010
0000
0000
0100
0000
0000
0010
0000
1000
0000
0000
0001
0000
,  // measure 33
0100
0000
0010
0000
1000
0000
0000
0001
0000
1000
0000
1000
0001
0000
1000
0000
,  // measure 34
0100
0000
0000
1000
0000
0000
0001
0000
0000
0100
0000
0000
0100
0000
0001
0000
,  // measure 35
0002
0000
1003
0000
0010
0000
0200
0000
0000
0310
0000
0000
0100
0010
0000
0002
,  // measure 36
1000
0000
0000
1000
0000
0000
1000
0000
0000
1000
0000
0000
1003
0000
0010
0000
,  // measure 37
1000
0000
0010
0000
1000
0000
0001
0000
2000
0000
3000
0200
0010
0000
0310
0000
,  // measure 38
0002
0000
0000
0010
0000
0000
0010
0000
0000
1000
0000
0000
0013
0000
0010
0000
,  // measure 39
0010
0000
0001
0000
1000
0000
0020
0000
0000
0100
0000
0130
0000
0010
0000
2000
,  // measure 40
0010
0000
0000
0100
0000
0000
0010
0000
0000
0100
0000
0100
3000
0000
1000
0000
,  // measure 41
0010
0000
0100
0000
0020
0000
0000
1000
0000
1000
0000
1030
0010
0000
0100
0000
,  // measure 42
0001
1000
0001
0000
1000
0010
1000
0000
0100
0002
0020
0000
0033
0000
0000
0000
,  // measure 43
1000
0000
0001
0000
0100
0000
0010
0000
0010
0100
0000
0000
0010
0100
0000
1000
,  // measure 44
0001
0000
0100
0001
0000
0100
0001
0000
0100
0001
0000
0100
0001
0000
0100
0000
,  // measure 45
0001
0000
0100
0000
0010
0000
1000
0000
0010
0000
0000
0010
0100
0000
0010
0000
,  // measure 46
1000
0000
0010
0100
0000
0001
1000
0000
0010
0001
0000
0001
0100
0000
0001
0000
,  // measure 47
0100
0000
0001
0000
1000
0000
0100
0000
0000
1000
0000
0001
0000
0100
0000
0001
,  // measure 48
0100
0000
0100
0010
0000
0010
0100
0000
0100
0010
0000
1000
0001
0000
0001
0000
,  // measure 49
0100
0000
0010
0000
1000
0000
0000
0001
0000
1000
0000
1000
0001
0000
1000
0000
,  // measure 50
0002
0023
0230
2300
3200
0320
0032
0023
,  // measure 51
0031
0000
1000
1100
0000
0010
0100
0100
,  // measure 52
1001
0100
0000
0010
1001
0000
1100
0000
,  // measure 53
0011
0000
1000
0001
0000
0100
0020
0130
,  // measure 54
0200
0310
0000
0002
0100
0000
0013
0000
,  // measure 55
1001
1000
0001
0101
0000
0010
0100
1000
,  // measure 56
1100
0000
0100
0000
0000
0011
0000
0001
0000
0000
0000
2000
0000
0000
0000
0001
,  // measure 57
3000
0000
0000
0010
0000
0100
0000
0000
0000
1000
0000
0001
0000
1000
0000
0200
,  // measure 58
0000
0000
0000
0000
0000
0000
0000
0000
0300
0000
1100
0000
0011
0000
1000
0001
,  // measure 59
1000
0000
0001
0100
1010
0000
0000
0001
1000
0000
1000
0001
0100
0010
1000
0001
,  // measure 60
0010
0001
0010
0000
1000
0000
0001
0100
0010
0000
1000
0001
1000
0001
0100
0001
,  // measure 61
0010
0001
0100
0000
0010
0000
1000
0001
0100
0000
0010
0100
0000
0010
1000
0001
,  // measure 62
0100
0000
0000
0001
0000
0000
0100
0000
0000
0000
0000
0000
1000
0000
0100
0000
1000
0000
0200
0000
0000
0000
0000
0000
2300
0000
0000
0000
0000
0000
0000
0000
0000
0002
0000
0000
0000
0000
0000
0000
0000
0000
0000
0000
0000
0000
0000
0000
,  // measure 63
3003
0000
0000
0000
0001
0000
0000
1000
0100
0000
0001
0010
0000
1000
0001
0100
,  // measure 64
0001
0010
0001
0000
0000
0000
0000
0000
1000
0000
0001
0010
0000
1000
0100
1000
,  // measure 65
0001
1000
0100
0000
0000
0000
0000
0000
1000
0000
1000
0001
0000
0100
0010
1000
,  // measure 66
0001
1000
0100
0000
1100
0000
0001
0101
0000
0010
0110
0000
1000
1100
0000
0001
,  // measure 67
1001
1000
0220
0000
0000
0000
0330
0000
;

//---------------dance-single - ----------------
#NOTES:
     dance-single:
     :
     Medium:
     6:
     0.381,0.467,0.164,0.164,0.066: // measure 1
0000
0000
0000
0000
,  // measure 2
0000
0000
0000
0000
,  // measure 3
0000
0000
0000
0000
,  // measure 4
0000
0000
0000
0000
,  // measure 5
0000
0000
0000
0000
,  // measure 6
1000
0001
0100
0000
0100
0000
0100
0000
,  // measure 7
0100
0001
0010
0000
0010
0000
0001
0000
,  // measure 8
1000
0001
0100
0000
0001
0100
0001
0000
,  // measure 9
0101
0000
0000
0110
0000
0000
1000
0001
0000
1000
0000
0010
0100
0000
0001
0000
,  // measure 10
1000
0000
0000
0000
0001
0000
0000
0200
0000
0000
0000
0000
0301
0000
0000
0000
,  // measure 11
2000
0000
0000
0000
0000
0020
0000
0000
0000
0000
0000
0000
3030
0000
0000
0000
,  // measure 12
0001
0000
1000
0100
0000
0010
0001
0000
,  // measure 13
1000
0000
0001
0000
1000
0000
0002
0200
0000
0000
0000
0000
0303
0000
0000
0000
,  // measure 14
1000
0000
0001
0100
0000
0010
0100
0000
,  // measure 15
2000
0000
0002
3003
,  // measure 16
0220
0000
0000
0000
0330
0220
0000
0330
,  // measure 17
0001
0000
0000
1000
0000
0000
0010
0000
0000
1000
0000
0000
0001
0000
1000
0000
,  // measure 18
1001
0000
0001
0000
1000
0000
0100
1000
,  // measure 19
0100
0000
1000
0000
0010
0000
0100
0010
,  // measure 20
0100
1000
0001
1000
,  // measure 21
0001
0000
0000
0001
0000
0000
0001
0000
,  // measure 22
1000
0000
0001
0000
0100
0000
0010
1000
,  // measure 23
0010
1000
0100
0010
,  // measure 24
0001
0000
1000
0000
0001
1000
0100
0000
,  // measure 25
0020
0000
0000
0000
,  // measure 26
0030
0000
0000
0000
,  // measure 27
0001
1000
0001
0000
0001
0000
0100
0000
,  // measure 28
0010
1000
1000
1000
,  // measure 29
0010
1000
0010
0000
1000
0000
0100
0000
,  // measure 30
0010
0010
0010
0010
,  // measure 31
0001
1000
0001
0000
0100
0000
0001
0000
,  // measure 32
0010
1000
0001
1000
,  // measure 33
0001
0100
0001
0000
1000
0000
0001
0000
,  // measure 34
1000
0001
1000
0001
0100
0001
0100
0000
,  // measure 35
0001
1000
0001
0000
0010
0000
0011
0000
,  // measure 36
0001
0010
0100
0000
0001
0010
0100
0000
,  // measure 37
0001
1000
0001
0000
1000
0000
0001
0000
,  // measure 38
1000
1000
0001
0001
,  // measure 39
0001
0101
0100
0010
,  // measure 40
0010
1000
0010
0000
0010
0000
0100
0000
,  // measure 41
0010
0100
0010
0000
0001
1000
0010
0000
,  // measure 42
2020
0000
0000
3030
,  // measure 43
0010
1000
0010
0000
0100
0000
0010
0100
,  // measure 44
0001
0001
1000
1001
,  // measure 45
0001
0100
0010
0000
0001
0100
0010
0000
,  // measure 46
0110
0110
1010
1010
,  // measure 47
0010
1000
0001
0000
0010
1000
0001
0000
,  // measure 48
1001
1001
1100
1100
,  // measure 49
0010
1000
0001
0000
0010
1000
0001
0000
,  // measure 50
1000
0001
1000
0001
1000
0001
1000
0001
,  // measure 51
1000
0000
0001
0100
0000
0100
0001
0000
,  // measure 52
0100
0001
0000
0100
0010
0000
0010
0000
,  // measure 53
0010
0000
0000
0110
0000
0010
1000
0000
,  // measure 54
0100
1000
0000
0010
1000
0000
0001
0000
,  // measure 55
1000
0000
0001
0000
0100
0000
0001
0100
,  // measure 56
0001
0000
0000
0000
0000
0000
0000
1000
0000
0000
0000
0000
0000
0000
0000
2000
,  // measure 57
0000
0000
0000
0000
0000
0000
0000
0000
0000
0000
0000
0000
0000
0000
0000
0002
,  // measure 58
0000
0000
0000
0000
,  // measure 59
0000
3000
0003
0000
1000
0001
0100
0001
,  // measure 60
0100
0001
0000
0000
0001
1000
0010
1000
,  // measure 61
0001
0010
0000
0000
1000
0100
0010
0001
,  // measure 62
1000
0100
2002
0000
0000
0000
0000
0000
,  // measure 63
3003
0000
0001
0100
0010
1000
0001
0100
,  // measure 64
0010
0010
0000
0000
0010
0100
0001
1000
,  // measure 65
0010
1000
0000
0000
1000
0100
0010
0001
,  // measure 66
0100
0000
0001
0000
1000
0000
0001
0100
0000
1000
0100
0000
0001
0100
0000
0010
,  // measure 67
0100
1000
2002
0000
0000
0000
3003
0000
;

//---------------dance-double - ----------------
#NOTES:
     dance-double:
     :
     Challenge:
     9:
     0.607,0.714,0.650,0.378,0.312:
00000000
00000000
00000000
00000000
,
00000000
00000000
00000000
00000000
,
00000000
00000000
00000000
00000000
,
00000000
00000000
00000000
00000000
,
00000000
00000000
00000000
00000000
,
10000000
00010000
02000000
00000000
00100000
00000000
03100000
00000000
,
00010000
10000000
02000000
00000000
10000000
00000000
13000000
00000000
,
00100000
00001000
00020000
00000000
00001000
00000000
00031000
00000000
,
00011000
00000000
00000000
00001100
00000000
00000000
00000001
00000010
00000001
00000000
00000000
00000001
00000100
00000000
00000010
00000000
,
00001100
00000000
00000000
00011000
00000000
00000000
00120000
00000000
00000000
00000000
00100000
00000000
00130000
00000000
00000000
00000000
,
20000000
00000000
00000000
02000000
00000000
33000000
00000000
00000000
,
10000000
00010000
01000000
00000000
00110000
00000000
11000000
00000000
,
10000000
01000000
00100000
00001000
00010000
00000100
00001000
00000200
00000000
00000000
00000000
00000000
00000300
00000000
00000000
00000000
,
00000011
00000001
00000010
00000100
00001000
00000100
00010000
00001000
,
00010000
00100000
01000000
10000000
00020000
00000000
00130000
01000000
10000000
00010000
00200000
00000000
00310000
00000000
00000000
00000000
,
00020200
00000000
00030300
00000000
00000001
00000100
00000100
00000000
,
00001100
00000000
00000000
00011000
00000000
00000000
00110000
00000000
00000000
10010000
00000000
00000000
10000000
00000000
00010000
00000000
,
01000000
00000000
00100000
10000000
00010000
00000000
10000000
01000000
,
00100000
00000000
00001000
00000100
00001000
00000000
00000010
00000001
,
00001000
00000000
00010000
00000100
00010000
00000000
00010000
01000000
,
01100000
00000000
00000000
11000000
00000000
00000000
00110000
00000000
00000000
00011000
00000000
00000000
00001100
00000000
00000011
00000000
,
00001002
00000023
00000230
00002300
,
00003200
00020300
00032000
00203000
,
00320000
02030000
03200000
20300000
,
00020000
00000000
00000000
30030000
,
00000000
00000000
00000000
00000000
,
10000000
00010000
01000000
00010000
00100000
01000000
10000000
00010000
,
01000000
00000000
00000000
01000000
00000000
00000000
00100000
00000000
00000000
00100000
00000000
00000000
10000000
00000000
00010000
00000000
,
01000000
00100000
00001000
00010000
00000100
00001000
00000010
00000001
,
00000100
00000000
00000000
00000100
00000000
00000000
00000010
00000000
00000000
00000010
00000000
00000000
00001000
00000000
00000001
00000000
,
00000100
00000010
00001000
00000100
00000010
00000001
00000100
00000010
,
00001000
00000000
00000000
00000100
00000000
00000000
00010000
00000000
00000000
00001000
00000000
00000000
00100000
00000000
00010000
00000000
,
01000000
00100000
10000000
00010000
00100000
01000000
10000000
00010000
,
02020000
00000000
00000000
03030000
,
10000000
10000000
01000000
01000000
00100000
00100000
00010000
00010000
,
00110000
00000000
00000000
00011000
00000000
00000000
00110000
00000000
00000000
00011000
00000000
00000000
00110000
00000000
00011000
00000000
,
00001100
00001000
00000100
00000100
00000010
00000010
00000001
00000001
,
00000011
00000000
00000000
00000110
00000000
00000000
00000011
00000000
00000000
00000110
00000000
00000000
00001000
00000000
00000100
00000000
,
00010000
00010000
00000100
00000100
00010000
00010000
00001000
00001000
,
00011000
00000000
00000000
00101000
00000000
00000000
00011000
00000000
00000000
00010100
00000000
00000000
00001000
00000000
00010000
00000000
,
00001000
00100000
00010000
00100000
00010000
01000000
00100000
10000000
,
10010000
00000000
00000000
00000000
01100000
00000000
00100000
10000000
00010000
00000000
01000000
00000000
01010000
00000000
00000000
00000000
,
10000000
00010000
01000000
00100000
10000000
01000000
00100000
00010000
,
01010000
00000000
00000000
10100000
00000000
00000000
10010000
00000000
00000000
11000000
00000000
00000000
00110000
00000000
01100000
00000000
,
11000000
10000000
00100000
01000000
00100000
10000000
00010000
10000000
,
01100000
00000000
00000000
00110000
00000000
00000000
00011000
00000000
00000000
00001100
00000000
00000000
00000011
00000000
00000110
00000000
,
00001100
00001000
00000001
00000100
00000010
00001000
00000001
00000100
,
00001001
00000000
00000000
00000010
00000000
00000000
00001001
00000000
00000000
00000100
00000000
00000000
00000001
00000000
00000010
00000000
,
00000100
00010000
00001000
00100000
00010000
01000000
00100000
10000000
,
00020000
20030000
30020000
20030000
30020000
20030000
30020000
20030000
,
30010000
00000000
00010000
01010000
00000000
00100000
00001000
00010000
,
00000100
00001000
00000000
00000001
00000100
00000000
00000110
00000000
,
00002100
00000000
00000100
00003100
00000000
00000001
00000010
00000100
,
00002000
00003100
00000000
00000001
00000100
00000000
00000110
00000000
,
00011000
00000000
00010000
00100000
00000000
10000000
00010000
01000000
,
00100000
00000000
10000000
00000000
00000000
00010000
00000000
10000000
00000000
00000000
00000000
10000000
00000000
00010000
01000000
00100000
,
00000000
01100000
00000000
00000000
00000000
00010000
00000000
00000100
00000000
00000000
00000000
00000100
00000000
00020000
00000000
00002000
,
00000000
00000000
00000000
00000000
00033000
00011000
00110000
11000000
,
00110000
00000000
10010000
00000000
01100000
00000000
00000000
00000000
10010000
00000000
00010000
01000000
00000000
00100000
10000000
00010000
,
01000000
00200000
20000000
00000000
30300000
00000000
00000000
00000000
00110000
00000000
00010000
00100000
00000000
10000000
00010000
01000000
,
00010000
00200000
00020000
00000000
00330000
00000000
00000000
00000000
00001100
00000000
00000100
00001000
00000000
00001000
00000001
00000100
,
00000010
00000000
00000000
00000100
00000000
00000000
00000010
00000000
00000000
00000000
00000000
00000000
00000100
00000000
00001000
00000000
00000100
00000000
00001000
00000000
00000100
00000000
00000000
00000000
00002000
00000000
00000000
00000000
00000000
00000000
00000000
00000000
00000000
00000002
00000000
00000000
00000000
00000000
00000000
00000000
00000000
00000000
00000000
00000000
00000000
00000000
00000000
00000000
,
00003003
00000000
00000000
00000000
00110000
00000000
00000000
00000000
10000000
00000000
00010000
01000000
00000000
00100000
10000000
01000000
,
00100000
00010000
00100000
00000000
00000000
00000000
00000000
00000000
00001100
00000000
00001000
00000010
00000000
00000100
00000001
00000010
,
00000100
00001000
00000001
00000000
00000000
00000000
00000000
00000000
00001100
00000000
00000100
00010000
00000000
00010000
00001000
00100000
,
00010000
00100000
01000000
00000000
11000000
00000000
00000000
01100000
00000000
00000000
00011000
00000000
00000000
00000110
00000000
00000000
,
00000011
00000010
00002200
00000000
00000000
00000000
00003300
00000000
;

//---------------dance-single - ----------------
#NOTES:
     dance-single:
     :
     Easy:
     3:
     0.234,0.357,0.115,0.337,0.000: // measure 1
0000
0000
0000
0000
,  // measure 2
0000
0000
0000
0000
,  // measure 3
0000
0000
0000
0000
,  // measure 4
0000
0000
0000
0000
,  // measure 5
0000
0000
0000
0000
,  // measure 6
1000
0001
1000
0000
,  // measure 7
0001
0100
0001
0000
,  // measure 8
1000
0010
1000
0000
,  // measure 9
2200
0000
0000
3300
,  // measure 10
0002
2003
0200
3300
,  // measure 11
0002
0000
0020
0033
,  // measure 12
0001
1000
0100
0010
,  // measure 13
1000
0100
1000
0100
1000
0000
0000
0000
,  // measure 14
1001
0101
0001
0010
,  // measure 15
0202
0000
0000
0303
,  // measure 16
0101
0010
1000
1100
,  // measure 17
1001
0100
1001
0010
,  // measure 18
1001
0000
1000
0000
,  // measure 19
0001
0000
1000
0000
,  // measure 20
0100
0000
0010
0000
,  // measure 21
0001
0000
0001
0001
,  // measure 22
0001
0000
1000
0000
,  // measure 23
0001
0000
1000
0000
,  // measure 24
0001
0000
1000
0000
,  // measure 25
1001
0000
0000
0000
,  // measure 26
0000
0000
0000
0000
,  // measure 27
2000
0000
0000
0000
,  // measure 28
0000
0000
3000
0000
,  // measure 29
0002
0000
0000
0000
,  // measure 30
0000
0000
0000
0003
,  // measure 31
0200
0000
0000
0000
,  // measure 32
0000
0000
0000
0300
,  // measure 33
0020
0000
0000
0000
,  // measure 34
0000
0000
0000
0030
,  // measure 35
1000
0001
0100
0001
,  // measure 36
0200
0000
0000
0300
,  // measure 37
0010
1000
0001
1000
,  // measure 38
0002
0000
0000
0003
,  // measure 39
1000
0001
0100
0010
,  // measure 40
2000
0000
0000
3000
,  // measure 41
0010
1000
0100
1000
,  // measure 42
2002
0000
0000
3003
,  // measure 43
0001
0000
1000
0000
0001
0000
0100
0001
,  // measure 44
0200
0000
0000
0300
,  // measure 45
0001
0000
1000
0000
0010
0000
0010
0100
,  // measure 46
0020
0000
0000
0030
,  // measure 47
1000
0000
0001
0000
0100
0000
0001
0100
,  // measure 48
0002
0000
0000
0003
,  // measure 49
1000
0000
0001
0000
1000
0000
0100
1000
,  // measure 50
0200
0000
0000
0000
,  // measure 51
1300
0000
0000
1000
0000
0000
0001
0000
,  // measure 52
0100
0000
0010
0010
,  // measure 53
1000
0000
0000
0001
0000
0000
0100
0000
,  // measure 54
0010
0000
0010
1000
,  // measure 55
1001
0000
0000
1000
0000
0000
0002
0000
,  // measure 56
2000
0003
0000
0000
0002
0000
0000
0000
,  // measure 57
3003
0000
0000
0000
,  // measure 58
0000
0000
0000
0000
,  // measure 59
0000
0100
2000
0100
,  // measure 60
0200
3300
0000
0000
0002
0000
0100
0000
,  // measure 61
0200
0303
0020
0100
,  // measure 62
0200
0330
2002
0000
0000
0000
0000
0000
,  // measure 63
3003
2000
0100
0100
,  // measure 64
0200
3300
0000
0000
0020
0000
0100
0000
,  // measure 65
0200
0330
0000
0000
0002
0000
0100
0000
,  // measure 66
0200
0303
0001
0000
1000
0000
0100
0000
,  // measure 67
0010
2002
0000
3003
;

//---------------dance-single - ----------------
#NOTES:
     dance-single:
     :
     Beginner:
     1:
     0.080,0.136,0.058,0.000,0.000:
0000
0000
0000
0000
,
0000
0000
0000
0000
,
0000
0000
0000
0000
,
0000
0000
0000
0000
,
0000
0000
0000
0000
,
0010
0000
0000
0000
,
0010
0000
0000
0000
,
0010
0000
0000
0000
,
1001
0000
0000
0000
,
1000
0000
0000
0000
,
0001
0000
0000
0000
,
0100
0000
0000
0000
,
0110
0000
0000
0000
,
0010
0000
0000
0000
,
1000
0000
0000
0000
,
1001
0000
0000
0000
,
0010
0000
0000
0000
,
1000
0000
0000
0000
,
0001
0000
0000
0000
,
0100
0000
0000
0000
,
0010
0000
0010
0000
,
0010
0000
0000
0000
,
0010
0000
0000
0000
,
1000
0000
0000
0000
,
0001
0000
0000
0000
,
0000
0000
0000
0000
,
1000
0000
0000
0000
,
0000
0000
0000
0000
,
0001
0000
0000
0000
,
0000
0000
0000
0000
,
0100
0000
0000
0000
,
0000
0000
0000
0000
,
0010
0000
0000
0000
,
1000
0000
0000
0000
,
0001
0000
0000
0000
,
0000
0000
0000
0000
,
1000
0000
0000
0000
,
0000
0000
0000
0000
,
0010
0000
0000
0000
,
0000
0000
0000
0000
,
0100
0000
0000
0000
,
1001
0000
0000
0000
,
0001
0000
0000
0000
,
0001
0000
0000
0000
,
1000
0000
0000
0000
,
1000
0000
0000
0000
,
0010
0000
0000
0000
,
0100
0000
0000
0000
,
1000
0000
0000
0000
,
0000
0000
0000
0000
,
1001
0000
0000
0000
,
0010
0000
0010
0000
,
0010
0000
0000
0000
,
1000
0000
0000
0000
,
0001
0000
0000
0000
,
1000
0000
0000
0000
,
0001
0000
0000
0000
,
0000
0000
0000
0000
,
0000
0010
0000
0000
,
0000
0010
0010
0000
,
0000
1000
1000
0000
,
0000
1001
0000
0000
,
0000
0001
0001
0000
,
0000
0100
0100
0000
,
0000
0010
0010
0000
,
0000
1000
0000
0001
,
0000
1001
0000
0000
;
