#TITLE:Cybertravels;
#SUBTITLE:;
#ARTIST:Tatsh;
#TITLETRANSLIT:;
#SUBTITLETRANSLIT:;
#ARTISTTRANSLIT:;
#CREDIT:;
#BANNER:bn.png;
#BACKGROUND:bg.png;
#LYRICSPATH:;
#CDTITLE:;
#MUSIC:Cybertravels.mp3;
#OFFSET:-0.400;
#SAMPLESTART:69.400;
#SAMPLELENGTH:12.000;
#SELECTABLE:YES;
#BPMS:0.000=76.520,48.000=153.040,255.000=76.520;
#STOPS:48.000=0.392
;
#BGCHANGES:;

//---------------dance-single - ----------------
#NOTES:
     dance-single:
     :
     Hard:
     7:
     0.421,0.464,0.442,0.000,0.114:
0000
0000
0000
0000
,
0000
0000
0000
0000
,
0000
0000
0000
0000
,
0000
0000
0000
0000
,
1000
0100
0001
0010
0000
0000
0000
0000
0000
0000
0000
0000
0000
0000
0000
0000
,
0001
0100
0010
1000
0000
0000
0000
0000
0000
0000
0000
0000
0000
0000
0000
0000
,
1000
1000
0001
0010
0000
0000
0000
0000
0000
0000
0000
0000
0000
0000
0000
0000
,
0001
0001
1000
0100
0000
0000
0000
0000
0000
0000
0000
0000
0000
0000
0000
0000
,
1001
0000
0000
0001
0000
0000
0100
0000
0000
0010
0000
0000
0000
0000
0000
0000
0000
0000
0100
0000
0000
0000
0000
0000
0000
0000
0000
0000
0000
0000
0000
0000
0000
0000
0000
0000
0000
0000
0000
0000
0000
0000
0000
0000
0000
0000
0000
0100
,
0010
0000
1000
0000
,
0001
0000
0000
0100
0000
0000
0001
0000
0000
0010
0000
0000
0000
0000
0000
0000
0000
0000
0100
0000
0000
0000
0000
0000
0000
0000
0000
0000
0000
0000
0000
0000
0000
0000
0000
0000
0000
0000
0000
0000
0000
0000
0000
0000
0000
0000
0000
1000
,
0100
0000
0000
0000
0000
0000
0000
0000
0000
0000
0000
0000
0000
0000
0000
0000
0000
0000
0000
0000
0000
0000
0000
0001
0010
0000
0000
0000
0000
0000
0000
0000
0000
0000
0000
0000
0000
0000
0000
0000
0000
0000
0000
0000
0000
0000
0000
0000
,
0000
0000
1001
0000
0001
0001
0000
0001
,
0100
0000
0110
0000
0010
1000
0000
0001
,
0010
0000
0011
0000
1000
0100
0000
0001
,
0100
0000
1001
0000
0010
0100
0110
0000
,
1001
0000
1000
0001
0100
0001
0010
0000
,
1100
0000
1000
0001
0010
0001
0100
0000
,
1010
0000
0010
1000
0001
0010
0001
0000
,
1100
0000
0010
1000
0010
0100
0001
0010
,
0011
0000
1000
0100
1100
0000
0001
0100
,
0101
0000
0010
1000
1010
0000
0100
0010
,
0110
0000
1000
0001
1001
0000
1000
0100
,
1100
0000
0001
0010
0011
0000
0001
0100
,
1010
0000
1000
0100
0011
0000
0001
1000
,
0110
0000
0010
0100
1001
0000
1000
0001
,
0011
0000
0001
0100
1010
0000
1000
0001
,
0110
0000
0010
1000
0011
0000
1000
0001
,
0010
0001
0100
0000
0110
0000
0010
1000
,
0001
1000
0010
0000
0101
0000
0001
1000
,
0100
0001
0010
0100
0010
0001
0100
0010
,
1000
0000
0001
0000
0100
0000
0001
0000
0010
0000
0001
0000
0101
0000
0000
0011
,
0000
0001
1000
0001
,
0100
0000
1100
0000
0001
0100
0010
0000
,
1000
0001
0100
1010
,
0001
0000
0000
0000
0010
0000
0000
0000
0100
0000
0000
0000
1001
0000
0000
0101
,
0000
0100
0010
0000
0110
0000
0010
0000
,
1000
0001
0010
0000
0001
0100
0010
0000
,
0100
0000
0011
0000
1010
1000
1001
0000
,
1000
0000
0000
0000
0001
0000
0000
0000
0010
0000
0000
0000
0011
0000
0000
1100
,
0000
1000
0100
0000
1100
0000
0001
0000
,
1000
0001
0010
0000
0001
0100
0010
0000
,
0100
0010
1000
0000
0001
0000
1100
0000
,
0001
0000
0000
0000
0001
0000
0000
0000
1000
0000
0000
0000
0101
0000
0000
0110
,
0000
0000
0010
0000
1000
0000
0000
0000
1001
0000
0001
0000
0010
0000
0000
0001
,
0000
0010
0001
0000
0100
0010
1000
0000
,
0010
1000
1100
0000
1100
1000
1001
0000
,
0001
0000
0001
0000
0001
0000
0000
0000
0001
0000
0100
0000
0010
0000
0000
0100
,
0000
0000
0010
0000
0000
0000
0010
0000
1000
0000
0001
0000
0100
0000
0000
0001
,
0000
0000
0100
0000
0010
0000
0000
0000
0010
0000
1000
0000
0001
0000
0000
1000
,
0000
0001
0100
0000
0010
1000
0001
0000
,
1000
0000
0000
0000
0001
0000
0000
0000
0100
0000
0000
0000
0110
0000
0000
0010
,
0000
0000
1000
0000
0001
0000
0000
0000
1000
0000
0000
0000
0001
0000
0000
0100
,
0000
0010
1000
0000
0010
0100
0001
0000
,
0001
1000
0010
0000
1000
0000
1001
0000
,
0010
0000
0110
0000
0010
0000
0000
1000
,
0001
0100
0000
0000
0000
0000
0010
0000
,
0000
0100
0000
0000
0000
0000
0001
0001
,
0100
0001
0010
0000
0000
0010
1000
0000
,
0000
0011
0000
0000
0001
0000
0001
0100
,
0010
1000
0100
0000
0000
0000
1000
0001
,
0100
0010
0000
0000
0100
0000
0010
0010
,
1000
0001
0000
0000
1000
0000
1001
0000
,
0101
0000
0000
0000
1010
0000
0000
0000
1100
0000
0000
0000
0001
0000
0000
1000
,
0000
0000
0010
0000
1000
0000
0000
0001
0000
0000
0100
0000
0001
0000
0000
1000
,
0000
0000
0010
0000
1000
0000
0000
0001
0000
0000
0000
0000
0000
0000
0000
0000
;

//---------------dance-single - ----------------
#NOTES:
     dance-single:
     :
     Medium:
     5:
     0.314,0.387,0.410,0.024,0.051:
0000
0000
0000
0000
,
0000
0000
0000
0000
,
0000
0000
0000
0000
,
0000
0000
0000
0000
,
0010
0000
0000
1000
0000
0000
0000
0000
0000
0000
0000
0000
0000
0000
0000
0000
,
0001
0000
0000
0100
0000
0000
0000
0000
0000
0000
0000
0000
0000
0000
0000
0000
,
0010
0000
0000
1000
0000
0000
0000
0000
0000
0000
0000
0000
0000
0000
0000
0000
,
1000
0000
0000
0001
0000
0000
0000
0000
0000
0000
0000
0000
0000
0000
0000
0000
,
0011
0000
0000
0100
0000
0000
0001
0000
0000
0000
0000
0000
0000
0000
0000
0000
,
1010
0000
0000
0000
0000
0000
0000
0000
1000
1000
0000
0000
0000
0000
0000
0000
,
1001
0000
0000
0010
0000
0000
0100
0000
0000
0000
0000
0000
0000
0000
0000
0000
,
0010
0000
1001
0000
,
0000
0000
1001
0000
0000
1100
0000
0000
,
0001
0000
0101
0000
0000
0010
0000
0100
,
0000
0000
0110
0000
0000
0010
0000
0100
,
0000
0000
0110
0000
0010
1000
0001
0000
,
1000
0000
0001
1000
0001
0000
1000
0000
,
1100
0000
0001
1000
0001
0000
0100
0000
,
0101
0000
0001
0100
0010
0000
0100
0000
,
0110
0000
0010
1000
0001
0000
1000
0000
,
1100
0001
1010
0001
,
1010
0001
1010
1000
,
0011
1000
0011
1000
,
0011
1000
0011
1000
,
0110
0001
0110
1000
,
0110
0001
0110
0010
,
1001
0100
1001
0010
,
1001
0000
0100
0000
1001
0000
0001
1000
,
0001
0000
0101
0000
1010
0000
0010
1000
,
0010
0000
1010
0000
0101
0000
0010
1000
,
0001
0000
1000
0100
0001
0000
0001
0100
,
0010
1000
0020
0000
1030
0000
1100
0000
,
0011
0001
0100
0010
,
1000
0000
1001
0000
0001
0001
0001
0000
,
1000
0001
0100
0110
,
0010
1000
0001
1100
,
0011
0000
0001
0000
0100
0010
0100
0000
,
0010
0000
1000
0000
0001
1000
0010
0000
,
1000
0010
0100
0110
,
0001
1000
0001
0101
,
1010
0010
1000
0001
,
0100
0000
0101
0000
0001
0100
0010
0000
,
0100
0010
0010
1000
,
0001
1000
0001
0101
,
1010
0010
0100
0010
,
1000
0000
0001
0000
1000
1000
1000
0000
,
0001
0100
0010
2002
,
0000
0000
0000
0000
0000
0000
0000
0000
3003
0000
0000
0000
0010
0000
0000
1000
,
0000
0100
0000
0000
0000
0000
1000
0000
,
0000
1000
0000
0000
0000
0000
0001
0000
,
0000
1000
0000
0000
0000
0000
1001
0000
,
0000
0000
0001
0000
0000
0000
0000
0000
0000
0000
0000
0000
0001
0000
0000
0100
,
0000
0010
0000
0000
0000
0000
0010
0000
,
0000
0100
0010
0000
0010
1000
0001
0000
,
0000
1010
0001
1001
,
0000
0000
0010
0000
0000
0000
0000
1000
,
0001
0100
0000
0000
0000
0000
0010
0000
,
0000
1000
0000
0000
0000
0000
0010
0001
,
0100
0001
0000
0000
0000
0000
1100
0000
,
0000
0001
0000
0000
0000
0000
0001
0100
,
0010
1000
0000
0000
0000
0000
0010
0000
,
0000
0110
0000
0000
0010
0000
1001
0000
,
0000
0001
0000
0000
0000
0000
1001
0000
,
0000
0000
0010
0000
0000
0000
0000
0000
0010
0000
0000
0000
0010
0000
0000
0010
,
0000
0000
0000
0000
1000
0000
0000
0001
0000
0000
0000
0000
1000
0000
0000
0100
,
0000
0000
0000
0000
0001
0000
0000
0001
0000
0000
0000
0000
0000
0000
0000
0000
;

//---------------dance-single - ----------------
#NOTES:
     dance-single:
     :
     Easy:
     3:
     0.177,0.257,0.103,0.000,0.000:
0000
0000
0000
0000
,
0000
0000
0000
0000
,
0000
0000
0000
0000
,
0000
0000
0000
0000
,
0001
0000
0000
0000
,
0100
0000
0000
0000
,
0010
0000
0000
0000
,
0100
0000
0000
0000
,
1000
0000
0000
0000
,
0001
0000
0100
0000
,
0001
0000
0000
0000
,
0010
0000
1000
0000
,
0000
1001
0000
0000
,
0000
0101
0000
0000
,
0000
1001
0000
0000
,
0000
1010
0000
0001
,
1000
0001
0100
0001
,
1000
0001
0010
0001
,
1000
0001
0100
1000
,
0001
1000
0010
1000
,
0001
0100
0100
0001
,
1000
0100
0100
1000
,
0001
0010
0010
0001
,
1000
0100
0100
1000
,
0001
0100
0100
0010
,
1000
0100
0100
1000
,
0100
0010
0001
0100
,
0010
1000
0001
0100
,
0001
0010
0001
0100
,
0010
1000
0100
1000
,
0010
0100
0010
1000
,
0001
0010
0000
1001
,
1001
0000
0000
0000
,
0000
0000
0010
0000
1000
0010
1000
0000
,
0000
0000
0000
1001
,
0000
0000
0000
0101
,
0000
0000
0000
0000
,
0000
0000
0100
0000
0010
1000
0001
0000
,
0000
0010
1000
0001
,
0000
0000
0000
1010
,
0000
0000
0000
0000
,
0000
0000
1000
0000
0001
1000
0001
0000
,
0000
0000
0000
0100
,
0000
0000
0000
0110
,
0000
0000
0000
0000
,
0000
0000
0100
0000
0010
1000
0001
0000
,
0000
1000
0001
0101
,
0000
0000
0000
1000
,
0001
0010
0000
0000
,
0000
0000
0001
0000
1000
0001
0100
0000
,
0000
0000
0000
0110
,
0000
0000
0000
0010
,
1000
0100
0000
0000
,
0000
0000
1000
0000
0001
0100
0001
0000
,
0000
0001
1000
1100
,
0000
0000
0000
0010
,
0000
1000
0000
0000
0000
0000
0001
0000
,
0000
1000
0000
0000
0000
0000
0100
0000
,
0000
1000
0000
0000
0000
0000
0001
0000
,
0000
0010
0000
0000
0000
0000
0001
0000
,
0000
1000
0000
0000
0000
0000
0001
0000
,
0000
0100
0000
0000
0000
0000
0010
0000
,
0000
1000
0000
0000
0000
0000
0001
0000
,
0000
1000
0000
0000
0000
0000
0100
0000
,
0000
1000
0000
0001
,
0000
0100
0000
0000
;

//---------------dance-single - ----------------
#NOTES:
     dance-single:
     :
     Beginner:
     1:
     0.081,0.129,0.016,0.000,0.000: // measure 1
0000
0000
0000
0000
,  // measure 2
0000
0000
0000
0000
,  // measure 3
0000
0000
0000
0000
,  // measure 4
0000
0000
0000
0000
,  // measure 5
0001
0000
0000
0000
,  // measure 6
1000
0000
0000
0000
,  // measure 7
0100
0000
0000
0000
,  // measure 8
0001
0000
0000
0000
,  // measure 9
0010
0000
0000
0000
,  // measure 10
1000
0000
1000
0000
,  // measure 11
0001
0000
0000
0000
,  // measure 12
0100
0000
0010
0000
,  // measure 13
0000
0001
0000
0000
,  // measure 14
0000
1000
0000
0000
,  // measure 15
0000
0010
0000
0000
,  // measure 16
0000
0100
0000
0100
,  // measure 17
0000
0000
0000
0010
,  // measure 18
0000
0000
0000
1000
,  // measure 19
0000
0000
0000
0001
,  // measure 20
0000
0000
0000
0001
,  // measure 21
0000
0000
0000
1000
,  // measure 22
0000
0000
0000
0010
,  // measure 23
0000
0000
0000
0010
,  // measure 24
0000
0000
0000
0100
,  // measure 25
0000
0000
0000
0100
,  // measure 26
0000
0000
0000
0010
,  // measure 27
0000
0000
0000
1000
,  // measure 28
0000
0000
0000
1000
,  // measure 29
0000
0000
0000
0001
,  // measure 30
0000
0000
0000
0100
,  // measure 31
0000
0000
0000
0010
,  // measure 32
0000
0000
0000
1001
,  // measure 33
0000
0000
0000
0000
,  // measure 34
0000
0010
0000
1000
,  // measure 35
0000
0000
0000
0001
,  // measure 36
0000
0000
0000
1000
,  // measure 37
0000
0000
0000
0000
,  // measure 38
0000
0010
0000
1000
,  // measure 39
0000
0100
0100
0100
,  // measure 40
0000
0000
0000
1001
,  // measure 41
0000
0000
0000
0000
,  // measure 42
0000
0001
0000
1000
,  // measure 43
0000
0000
0000
0100
,  // measure 44
0000
0000
0000
0100
,  // measure 45
0000
0000
0000
0000
,  // measure 46
0000
0001
0000
1000
,  // measure 47
0000
0001
0001
0001
,  // measure 48
0000
0000
0000
0100
,  // measure 49
0000
0000
0000
0100
,  // measure 50
0000
0000
0000
0010
,  // measure 51
0000
0000
0000
0010
,  // measure 52
0000
0000
0000
1000
,  // measure 53
0000
0000
0000
1000
,  // measure 54
0000
0000
0000
0001
,  // measure 55
0000
0000
0000
0001
,  // measure 56
0000
0000
0000
0100
,  // measure 57
0000
0000
0000
0010
,  // measure 58
0000
0000
0000
1000
,  // measure 59
0000
0000
0000
0001
,  // measure 60
0000
0000
0000
1000
,  // measure 61
0000
0000
0000
0100
,  // measure 62
0000
0000
0000
1000
,  // measure 63
0000
0000
0000
0001
,  // measure 64
0000
0000
0000
0010
,  // measure 65
0000
0010
0000
0010
,  // measure 66
0000
0010
0000
0000
;
