#TITLE:Cyber Girl;
#SUBTITLE:;
#ARTIST:Good-Cool;
#TITLETRANSLIT:;
#SUBTITLETRANSLIT:;
#ARTISTTRANSLIT:;
#CREDIT:;
#BANNER:bn.PNG;
#BACKGROUND:bg.PNG;
#LYRICSPATH:;
#CDTITLE:Dance Mania Club Classics.png;
#MUSIC:Cyber Girl (DDR Edit).mp3;
#OFFSET:-7.240;
#SAMPLESTART:43.313;
#SAMPLELENGTH:16.220;
#SELECTABLE:YES;
#BPMS:0.000=133.000,109.000=66.500,125.000=133.000;
#STOPS:76.000=1.353
;
#BGCHANGES:;

//---------------dance-single - ----------------
#NOTES:
     dance-single:
     :
     Hard:
     7:
     0.397,0.399,0.111,0.249,0.157:
0000
0000
0000
0000
,
0000
0000
0000
0000
,
0000
0000
0000
0000
,
0000
0000
0000
0000
,
0010
0000
1000
0000
0001
0000
0200
0000
0000
0010
0000
0000
0310
0000
0000
0000
,
1000
0100
1000
0100
0010
0001
0010
0100
,
0010
0000
0100
0000
0010
0000
0200
0000
0000
0010
0000
0000
0301
0000
0000
0000
,
0010
1000
0010
1000
0001
0100
0010
0001
,
0010
0000
0100
0000
1000
0000
0200
0000
0000
1000
0000
0000
0310
0000
0000
0000
,
0010
1000
0010
1000
0001
0100
0001
0100
,
0010
0000
1000
0000
0100
0000
2000
0000
0000
0002
3000
0000
0013
0000
0000
0000
,
0001
0010
0100
1000
0001
0100
0010
0100
,
1001
0000
0000
1000
0000
0000
0001
0000
0000
0100
0000
0000
1000
0000
0100
0000
,
0010
0000
0000
0001
0000
0000
0100
0000
0000
1000
0000
0000
0010
0000
0100
0000
,
0001
0000
0000
1000
0000
0000
0100
0000
0000
0001
0000
0000
0010
0000
0100
0000
,
1002
0100
0010
0203
,
0310
0000
0000
1000
0000
0000
0100
0000
0000
0010
0000
0000
0001
0000
0100
0000
,
0010
0000
0000
1000
0000
0000
0001
0000
0000
0010
0000
0000
0100
0000
1000
0000
,
0100
0000
0000
0010
0000
0000
1000
0000
0000
0001
0000
0000
0100
0000
1000
0000
,
1001
0000
0000
0000
0010
0000
1000
0000
0010
0000
0000
0000
0100
0000
0000
1000
,
0000
0100
0100
1000
0010
0100
0001
0010
,
0001
0000
0000
1000
0010
0000
0000
0100
0001
0000
0000
0010
0100
0000
0000
1000
,
0100
0000
0000
0010
0100
0000
0000
0010
1000
0000
0000
0001
0100
0000
0000
0010
,
0100
0000
0000
0000
1100
0000
0000
0000
0010
0000
0000
0000
0100
0000
0000
0100
,
0000
0100
1000
0100
0010
0001
0010
0100
,
0010
0000
0000
0010
0100
0000
0000
0010
1000
0000
0000
0001
0100
0000
0000
1000
,
0100
0000
0000
0010
0001
0000
0000
0001
0100
0000
0000
0010
0100
0000
0000
1000
,
0100
0000
0022
0000
0000
0033
2000
0000
,
0000
3000
0200
0000
0000
0300
0020
0000
,
0000
0030
0002
0000
0000
0003
2000
0000
,
0000
3000
0020
0000
0000
0030
0200
0000
,
0000
0000
1300
0100
0010
0001
0010
0100
,
1000
0100
0010
0100
0110
0000
0010
0000
,
0100
0000
1000
0100
1000
0100
1000
0100
,
0010
0001
0010
0100
0001
0100
0010
1000
,
0010
0000
0110
0010
0100
0010
1000
0010
,
0100
0001
0010
0100
1001
0000
0000
0000
,
0010
0000
1000
0100
1000
0100
1000
0100
,
1000
0100
0010
0001
0010
0100
0001
1000
,
0010
0100
0001
0000
1000
0000
0100
1000
,
0200
0310
0002
0203
,
0320
0000
1030
0100
0010
0001
0020
0000
,
0130
0120
1030
0012
,
0103
0000
0001
0010
1000
0001
0200
0000
,
0310
0000
1000
0100
0001
0000
0001
0010
,
0100
0000
1000
0001
0100
0010
2000
0000
,
3001
0000
0110
0000
1010
0000
0001
0100
,
1000
0002
2000
0000
0000
0000
0000
0000
,
3003
0000
0000
0000
;

//---------------dance-single - ----------------
#NOTES:
     dance-single:
     :
     Medium:
     5:
     0.315,0.354,0.222,0.286,0.000:
0000
0000
0000
0000
,
0000
0000
0000
0000
,
0000
0000
0000
0000
,
0000
0000
0000
0000
,
1000
0000
0100
0000
0000
0010
0100
0000
,
0010
1000
0001
0100
,
0010
0001
0010
0200
0000
0000
1300
0000
,
1000
0100
0010
0001
,
0001
1000
0001
2000
0000
0000
3100
0000
,
0010
1000
0100
0010
,
0001
0100
0001
0200
0000
0000
1300
0000
,
2002
0000
0000
3003
,
2000
0000
0100
0000
0010
0000
0100
0100
,
3020
0000
0100
0000
0100
0000
0100
0130
,
0002
0000
0100
0000
0100
0000
0100
0103
,
0200
1000
1300
1100
,
2000
0000
0100
0000
0100
0000
0100
0100
,
3200
0000
0010
0000
0010
0000
0010
0010
,
0320
0000
0001
0000
0001
0000
0001
0001
,
0031
1000
0001
0100
,
0010
0000
1000
1000
0000
0000
0001
0001
,
0000
1100
0101
0011
,
1010
1100
0011
1010
,
1001
0000
0010
0001
0001
0000
0020
0000
,
0130
0000
1000
0100
0000
0000
0010
0001
,
0000
1001
0101
0011
,
1010
1100
0011
0101
,
1010
0000
2002
0000
0000
3000
2003
0000
,
0000
3002
0000
0203
,
0000
0320
0000
2030
,
0000
3002
0000
0203
,
0000
1300
0100
0010
,
0001
0010
1001
0010
,
0100
1000
0001
0010
,
0100
0000
1000
0100
0010
0000
0000
0101
,
0000
0001
0010
0000
0100
0000
1000
0000
,
0010
0000
0100
0010
1001
0000
0010
0000
,
0100
1000
0100
0010
,
0001
0000
0010
1000
0020
0000
0130
0000
,
1010
0000
0010
1000
0020
0000
0130
0000
,
1000
0100
0010
0001
,
0100
0000
1000
0100
0010
0001
0010
0000
,
0010
0200
1300
0020
,
0031
0000
0001
0010
0100
1000
0100
0000
,
0010
2000
3100
0020
,
0031
0000
0001
0100
0010
1000
0200
0000
,
1300
1100
0010
0010
,
1000
0002
0200
0000
0000
0000
0000
0000
,
0303
0000
0000
0000
;

//---------------dance-single - ----------------
#NOTES:
     dance-single:
     :
     Easy:
     3:
     0.240,0.332,0.295,0.240,0.000: // measure 1
0000
0000
0000
0000
,  // measure 2
0000
0000
0000
0000
,  // measure 3
0000
0000
0000
0000
,  // measure 4
0000
0000
0000
0000
,  // measure 5
1000
0200
0000
0301
,  // measure 6
0020
0000
0000
0000
,  // measure 7
1030
0001
0100
0110
,  // measure 8
0002
0000
0000
0000
,  // measure 9
1003
0100
0001
0010
,  // measure 10
2000
0000
0000
0000
,  // measure 11
3001
0100
0010
1000
,  // measure 12
2002
0000
0000
3003
,  // measure 13
0200
0000
0000
0300
,  // measure 14
0002
0000
0000
0003
,  // measure 15
2000
0000
0000
3000
,  // measure 16
0010
0100
1001
1001
,  // measure 17
0200
0000
0000
0300
,  // measure 18
0020
0000
0000
0030
,  // measure 19
2000
0000
0002
0000
,  // measure 20
3003
1000
0010
0001
,  // measure 21
0100
1001
0000
1001
,  // measure 22
0000
0110
1001
0110
,  // measure 23
1001
0110
1001
0110
,  // measure 24
1001
0010
1000
0002
,  // measure 25
0103
2000
3000
0002
,  // measure 26
0003
1100
0101
1010
,  // measure 27
0011
1100
0101
0011
,  // measure 28
1010
1001
0000
0001
,  // measure 29
0000
1000
0000
0100
,  // measure 30
0000
0010
0000
0001
,  // measure 31
0000
0100
0000
1000
,  // measure 32
0000
1000
0001
0100
,  // measure 33
0010
1000
1001
0010
,  // measure 34
1000
0100
0010
0001
,  // measure 35
1000
0001
0010
1001
,  // measure 36
0010
1001
0010
1000
,  // measure 37
0100
0001
0011
0100
,  // measure 38
0001
1000
0010
1000
,  // measure 39
0001
1001
1001
1010
,  // measure 40
0101
1000
0001
0100
,  // measure 41
0000
0020
0000
0032
,  // measure 42
0000
1003
0100
0010
,  // measure 43
0001
2000
0000
3002
,  // measure 44
0000
0103
0010
1000
,  // measure 45
0001
0020
0000
0230
,  // measure 46
0000
1300
0001
0010
,  // measure 47
0100
2000
3001
0020
,  // measure 48
0031
2002
0000
0000
,  // measure 49
3003
0000
0000
0000
;

//---------------dance-single - ----------------
#NOTES:
     dance-single:
     :
     Challenge:
     8:
     0.462,0.458,0.166,0.074,0.438:
0000
0000
0000
0000
,
0000
0000
0000
0000
,
0000
0000
0000
0000
,
0000
0000
0000
0000
,
0001
0100
0000
0001
0000
0000
0100
0000
0000
1000
0000
0000
0100
0000
0000
0000
,
0010
1000
0010
0000
1000
0000
0001
0000
0001
0100
0001
0000
0100
0000
0010
0000
,
0010
0100
0000
1000
0000
0000
0100
0000
0000
0010
0000
0000
0001
0000
0000
0000
,
0001
1000
0001
0000
0010
0000
1000
0000
0001
1000
0100
0000
0010
0000
0001
0000
,
0010
0001
0000
0010
0000
0000
0100
0000
0000
1000
0000
0000
0100
0000
0000
0000
,
0010
1000
0010
0000
0100
0000
0001
0000
0001
0100
0001
0000
0100
0000
0010
0000
,
0001
1000
0000
0010
0000
0000
0100
0000
0000
1000
0000
0000
0100
0000
0000
0000
,
0010
1000
0010
0000
0001
0100
0001
0000
0010
0000
0100
0000
0010
0000
1000
0000
,
1001
0000
0000
0110
0000
0000
1000
0000
0000
1100
0000
0000
1000
0000
1000
0000
,
1100
0000
0000
0011
0000
0000
0001
0000
0000
0101
0000
0000
0010
0000
0100
0000
,
1001
0000
0000
0110
0000
0000
1000
0000
0000
0010
0000
0000
0001
0000
0010
0000
,
0010
1000
0010
0001
0010
0001
0000
0001
0100
0001
0000
0000
1100
0000
0000
0000
,
0110
0000
0000
0010
0000
0000
0100
0000
0000
1000
0000
0000
0100
0000
1000
0000
,
1100
0000
0000
0010
0000
0000
0011
0000
0000
0001
0000
0000
0001
0000
0100
0000
,
0101
0000
0000
0010
0000
0000
1010
0000
0000
0010
0000
0000
0100
0000
1000
0000
,
0101
0000
0000
0000
0010
0000
0001
0000
0010
0000
0000
0000
0100
0000
0000
1000
,
0000
0000
0100
0000
0010
0000
0100
0000
0000
0100
0010
0100
0010
0100
0010
0000
,
0000
0000
0000
0000
0001
0000
0001
0100
0001
0000
0010
1000
0010
0000
0010
0100
,
0010
0000
0001
1000
0001
0000
0010
1000
0010
0000
0001
0100
0001
0000
0100
0000
,
0000
1000
0000
0000
0100
0000
1000
0000
0100
0000
0010
0001
0010
0000
0001
0010
,
0000
0010
0001
0000
0010
0000
0100
0000
0000
0100
0010
0100
0010
0100
0010
0000
,
0000
0000
0000
0000
0010
0000
0010
1000
0010
0000
0001
0100
0001
0000
1000
0100
,
1000
0000
0010
0001
0010
0000
0010
0100
0010
0000
0001
1000
0001
0000
0100
0000
,
0000
0000
1000
0000
0100
0000
0000
0000
0020
0000
0000
0000
0000
0000
0000
0000
0000
0000
0100
0000
0000
0100
0000
0000
0000
0000
0000
0000
0000
0000
0000
0000
,
0000
0000
1000
0000
1030
0000
0000
0000
2000
0000
0000
0000
0000
0000
0000
0000
0000
0000
0001
0000
0000
0001
0000
0000
0000
0000
0000
0000
0000
0000
0000
0000
,
0000
0000
0001
0000
3001
0000
0000
0000
0020
0000
0000
0000
0000
0000
0000
0000
0000
0000
0100
0000
0000
0100
0000
0000
0000
0000
0000
0000
0000
0000
0000
0000
,
0000
0000
0100
0000
0130
0000
0000
0000
0002
0000
0000
0000
0000
0000
0000
0000
0000
0000
1000
0000
0000
1000
0000
0000
2000
0000
0000
0000
0000
0000
0000
0000
,
0000
0000
0000
3003
1001
0000
0010
0000
0110
0000
0010
0100
0000
0100
0010
0000
,
0010
0000
1000
0000
0001
0000
0100
0000
0001
0000
0010
1000
0000
0001
0100
0000
,
1000
0000
0100
0000
0010
0000
0001
0000
0010
0000
0001
0010
0000
0010
0001
0000
,
0001
0000
0010
0000
0100
0000
1000
0000
0100
0000
0010
1000
0000
0001
0100
0000
,
0010
0000
0100
0000
0010
0000
1000
0000
0001
0000
0010
1000
0000
0001
1000
0000
,
0010
0000
1000
0000
0100
0000
0010
0000
0001
0000
0001
0100
0000
0010
1000
0000
,
0001
0000
0100
0000
1000
0000
0001
0000
0010
0000
1000
0100
0000
0010
0001
0000
,
0001
0000
0100
0000
0010
0000
1000
0000
0001
0000
0001
0100
0000
0010
1000
0000
,
0001
0000
0100
0000
0010
0000
0100
0000
1000
0000
0100
2000
0000
0000
0000
0000
,
0000
0100
0010
0001
,
0010
0000
3010
0100
0010
1000
0002
0000
,
0100
0010
0100
1000
,
0103
0000
0010
1000
0001
0100
0020
0000
,
0001
0100
1000
0100
,
0001
0000
0000
0000
1030
0000
0000
0100
0000
0000
0010
0000
0001
0000
0000
0010
,
0000
0000
0100
0000
1000
0100
1000
0000
0010
0000
0001
0010
0001
0000
0010
0100
,
0000
0001
1000
0000
0011
0000
0000
0000
0000
0000
0000
0000
0000
0000
0000
0000
;

//---------------dance-single - ----------------
#NOTES:
     dance-single:
     :
     Beginner:
     1:
     0.045,0.065,0.000,0.000,0.000: // measure 1
0000
0000
0000
0000
,  // measure 2
0000
0000
0000
0000
,  // measure 3
0000
0000
0000
0000
,  // measure 4
0000
0000
0000
0000
,  // measure 5
0001
0000
0000
0000
,  // measure 6
0000
0000
0000
0000
,  // measure 7
1000
0000
0000
0000
,  // measure 8
0000
0000
0000
0000
,  // measure 9
0010
0000
0000
0000
,  // measure 10
0000
0000
0000
0000
,  // measure 11
0100
0000
0000
0000
,  // measure 12
0000
0000
0000
0000
,  // measure 13
1000
0000
0000
0000
,  // measure 14
1000
0000
0000
0000
,  // measure 15
1000
0000
0000
0000
,  // measure 16
0000
0000
0000
0000
,  // measure 17
0001
0000
0000
0000
,  // measure 18
0001
0000
0000
0000
,  // measure 19
0001
0000
0000
0000
,  // measure 20
0000
0010
0000
0000
,  // measure 21
0000
0000
0000
0000
,  // measure 22
0000
0010
0000
0000
,  // measure 23
0000
0000
0000
0000
,  // measure 24
0000
0100
0000
0100
,  // measure 25
0000
0100
0000
0000
,  // measure 26
0000
1000
0000
0000
,  // measure 27
0000
0000
0000
0000
,  // measure 28
0000
0001
0000
0000
,  // measure 29
0000
1000
0000
0000
,  // measure 30
0000
0010
0000
0000
,  // measure 31
0000
0100
0000
0000
,  // measure 32
0000
1000
0000
0000
,  // measure 33
0000
0001
0000
0000
,  // measure 34
0000
1000
0000
0000
,  // measure 35
0000
0001
0000
0000
,  // measure 36
0000
0100
0000
0000
,  // measure 37
0000
0100
0000
0000
,  // measure 38
0000
0100
0000
0000
,  // measure 39
0000
0010
0000
0000
,  // measure 40
0000
1000
0000
0000
,  // measure 41
0000
0000
0000
0000
,  // measure 42
0000
0001
0000
0000
,  // measure 43
0000
0000
0000
0000
,  // measure 44
0000
0010
0000
0000
,  // measure 45
0000
0000
0000
0000
,  // measure 46
0000
0100
0000
0100
,  // measure 47
0000
0000
0000
0000
,  // measure 48
0000
1000
0000
0000
;
