#TITLE:Contract;
#SUBTITLE:;
#ARTIST:Suzaku;
#TITLETRANSLIT:;
#SUBTITLETRANSLIT:;
#ARTISTTRANSLIT:;
#CREDIT:;
#BANNER:bn.PNG;
#BACKGROUND:bg.PNG;
#LYRICSPATH:;
#CDTITLE:Beatmania IIDX.png;
#MUSIC:CONTRACT.mp3;
#OFFSET:-6.610;
#SAMPLESTART:1.200;
#SAMPLELENGTH:12.000;
#SELECTABLE:YES;
#BPMS:0.000=180.000,44.000=360.000,116.000=90.000,144.000=180.000,152.000=360.000,216.000=1440.000,344.000=45.000,350.000=180.000,358.000=360.000,486.000=22.501;
#STOPS:;
#BGCHANGES:;

//---------------dance-single - ----------------
#NOTES:
     dance-single:
     :
     Challenge:
     12:
     0.962,1.000,0.480,0.226,0.330:
0000
0000
0000
0000
,
0000
0000
0000
0000
,
0000
0000
0000
0000
,
0000
0000
0000
0000
,
0001
1000
0010
1000
0001
1000
0010
1000
,
0001
0010
0100
1000
0100
0010
0001
0010
,
0100
0001
1000
0010
1000
0001
1000
0010
,
0001
0010
0100
1000
1100
0000
0011
0000
,
0001
0100
0010
1000
0001
0010
0100
1000
,
0100
0010
0001
0010
0100
0010
1000
0001
,
0100
0010
1000
0010
0100
0010
1000
0001
,
2002
3003
2002
3003
2002
3003
2002
3003
,
1000
0100
0010
0001
0010
0100
1000
0001
,
0100
0000
0010
0100
0010
0000
1000
0100
,
1000
0100
0010
0001
0010
0100
0010
0000
,
1000
0000
1000
0100
0001
0000
0010
0100
,
0001
0100
0001
1000
0100
0010
0001
0000
,
0001
0000
0010
0001
0010
0000
0010
0001
,
1000
0010
1000
0010
1000
0001
1000
0000
,
0010
1000
0010
0000
0001
0100
0001
0000
,
1001
0000
0101
0000
0010
0001
0010
0000
,
0010
0000
0100
0010
0100
0000
0001
0010
,
0001
0010
0100
1000
0100
0010
0100
0000
,
0001
0000
0001
0010
1000
0000
0100
0010
,
1000
0010
1000
0001
0010
0100
1000
0000
,
0010
1000
0010
0000
0001
0100
0001
0000
,
1000
0100
1000
0000
0010
0001
0010
0000
,
1001
1100
0011
0110
,
1000
0001
0010
0100
1000
0001
1000
0001
,
1001
0000
0001
1000
0001
0000
0100
0000
1100
0000
0010
0001
0010
0000
0100
0000
,
0101
0000
0010
0100
0010
0000
1000
0000
0001
0100
1000
0100
0010
0001
0010
1000
,
1001
0000
0001
0100
0001
0000
1000
0000
1010
0000
0010
0100
0010
0000
1000
0000
,
1100
0000
0010
1000
0010
0000
0100
0000
0001
0010
0100
1000
0010
0000
0100
0000
,
0001
1000
0001
1000
0002
0000
0100
0000
0013
0000
0001
0010
0100
0001
1000
0000
,
0001
1000
0001
1000
0010
1000
0001
1000
0020
0000
1030
0100
0010
0001
0010
0100
,
0001
1000
0010
1000
0002
0000
0100
0000
1003
0000
1000
0100
1000
0100
1000
0000
,
0010
1000
0010
0000
0001
0100
0001
0000
1000
0100
1000
0000
0010
0001
0010
0000
,
0110
0000
1100
0000
0011
0000
1100
0000
1000
0001
0010
0100
1000
0100
0010
0001
,
1001
0000
1000
0100
0010
0000
1001
0000
,
1000
0100
0010
0000
1001
0000
1000
0100
,
0010
0000
1001
0000
1000
0100
0010
0000
,
1000
0100
0010
0001
0010
0100
1000
0001
,
1001
0000
0001
0010
0100
0000
1001
0000
,
0001
0010
0100
0000
1001
0000
0001
0010
,
0100
0000
1001
0000
0001
0010
0100
0000
,
0001
0010
0100
1000
0100
0010
0001
1000
,
0110
0000
0100
0001
1000
0000
0110
0000
,
0100
0001
1000
0000
0110
0000
0100
0001
,
1000
0000
0110
0000
0100
0001
1000
0000
,
0100
0001
1000
0010
1000
0001
0100
0010
,
0100
0010
0100
0000
1000
0100
1000
0000
,
0001
0010
0001
0000
1000
0100
1000
0000
,
0011
1100
0110
0011
,
1000
0001
0010
0100
1000
0100
0010
0002
,
2000
0000
0000
0000
,
0000
0000
0000
0000
,
0000
0000
0000
0000
,
0000
0000
0000
0000
,
0000
0000
0000
0000
,
0000
0000
0000
0000
,
0000
0000
0000
0000
,
0000
0000
0000
0000
,
0000
0000
0000
0000
,
0000
0000
0000
0000
,
0000
0000
0000
0000
,
0000
0000
0000
0000
,
0000
0000
0000
0000
,
0000
0000
0000
0000
,
0000
0000
0000
0000
,
0000
0000
0000
0000
,
0000
0000
0000
0000
,
0000
0000
0000
0000
,
0000
0000
0000
0000
,
0000
0000
0000
0000
,
0000
0000
0000
0000
,
0000
0000
0000
0000
,
0000
0000
0000
0000
,
0000
0000
0000
0000
,
0000
0000
0000
0000
,
0000
0000
0000
0000
,
0000
0000
0000
0000
,
0000
0000
0000
0000
,
0000
0000
0000
0000
,
0000
0000
0000
0000
,
0000
0000
0000
0000
,
0000
0000
0000
0000
0000
0000
0000
0000
0000
0000
0000
0000
0000
0000
0000
0000
0000
0000
0000
0000
0000
0000
0000
0000
0000
0000
0000
0000
0000
0000
0000
3003
,
1001
0001
0010
0100
2000
0000
0100
0000
3001
0000
0010
0100
0001
1000
0010
0000
1000
0100
0010
0001
0010
0100
0010
1000
0001
0000
0001
0010
0100
1000
0100
0010
,
0001
0010
1000
0001
1000
0000
0020
0000
0130
0000
1000
0100
0010
1000
0010
0000
0001
0000
0100
0000
0001
0000
0000
0000
1000
0000
0100
0000
1000
0000
0000
0000
,
0001
1000
0001
0000
0010
0100
0010
0000
0011
0000
1100
0000
0110
0000
0011
0000
,
0001
0010
0100
1000
0001
0010
0100
1000
0001
0000
0000
0000
0000
0000
0000
0000
,
0001
1000
0001
1000
0002
0000
0000
0000
,
0010
0000
0103
0000
,
1000
0100
1000
0100
1000
0100
1000
0100
,
1000
0000
0000
0000
0010
1000
0100
0001
,
0010
0001
0010
0001
0010
0001
0100
0001
,
0100
0001
0100
0000
0002
0000
0000
0000
,
1003
0000
0000
0001
0010
0001
0010
0001
,
0010
0001
0010
0000
0100
1000
0100
1000
,
0100
1000
0100
1000
0200
0000
0000
0000
,
0010
0000
0310
0000
,
0001
1000
0001
1000
0001
1000
0001
1000
,
0001
0000
0000
0000
0100
1000
0100
0000
,
0010
0001
0010
0000
0001
0100
0001
0000
,
1000
0010
1000
0000
0011
0000
1010
0000
,
1001
0000
0011
0000
1000
0001
0100
0010
,
1000
0001
1000
0100
0010
0100
0010
0100
,
0010
1000
0100
1000
0100
1000
0100
0010
,
0001
0010
0001
0010
0001
0100
1000
0100
,
1000
0100
1000
0100
0001
0100
1000
0100
,
0001
0010
0100
1000
0001
0010
0100
0010
,
0001
0010
0100
1000
0010
0100
1000
0100
,
0010
1000
0100
1000
0010
1000
0100
0010
,
0001
0100
1000
0100
0001
0100
1000
0010
,
0100
0010
0100
0001
1000
0010
0100
1000
,
0010
0100
0001
0100
0010
1000
0100
0010
,
1000
0010
0100
1000
0010
0100
0001
0100
,
0010
1000
0100
1000
0010
0100
1000
0100
,
0010
0100
1000
0100
0001
1000
0002
0000
,
1003
0100
2000
0000
3001
0010
0002
0000
,
0103
0010
0200
0300
0011
0000
1010
0000
,
0011
0000
0110
0000
0001
0010
0100
1000
,
0001
0100
0010
2000
0002
3003
0000
0000
;

//---------------dance-single - ----------------
#NOTES:
     dance-single:
     :
     Hard:
     11:
     0.861,1.000,0.160,0.094,0.306:
0000
0000
0000
0000
,
0000
0000
0000
0000
,
0000
0000
0000
0000
,
0000
0000
0000
0000
,
0010
1000
0010
1000
0001
0100
0010
0000
,
0001
1000
0010
0100
0001
1000
0100
0000
,
1000
0100
0001
0100
1000
0010
0001
0000
,
0001
1000
0010
0100
0101
0000
1100
0000
,
0010
1000
0001
0100
0001
1000
0001
0100
,
0001
0010
1000
0100
0001
0100
1000
0100
,
0010
0001
0010
1000
0001
0100
0010
1000
,
1001
1001
1001
1001
,
0001
0100
0001
0100
0010
1000
0010
1000
,
0001
0000
1000
0001
1000
0000
0001
0010
,
0100
1000
0100
0010
0001
0100
0001
0000
,
0001
0000
1000
0001
1000
0000
0001
0010
,
0100
1000
0100
0010
0001
0100
0001
0000
,
0001
0000
1000
0001
1000
0000
0001
0010
,
0100
1000
0100
0010
0001
0100
0001
0000
,
1000
0100
1000
0000
0001
0100
0001
0000
,
0001
0000
1000
0000
0001
0010
0100
1000
,
0010
0000
0100
0010
0100
0000
0010
1000
,
0001
0100
0001
1000
0010
0001
0010
0000
,
0010
0000
0100
0010
0100
0000
0010
1000
,
0001
0100
0001
1000
0010
0001
0010
0000
,
0100
1000
0100
0000
0001
0010
0001
0000
,
0001
0100
0001
0000
0010
1000
0010
0000
,
1100
0011
0101
1010
,
0001
1000
0010
0100
1000
0100
0010
0001
,
0010
0000
0100
0000
1000
0000
0001
0000
0100
0000
1000
0100
0001
0000
0010
0000
,
1000
0000
0100
0000
0010
0000
0001
0000
0100
0000
0010
1000
0001
0100
1000
0100
,
0001
0000
1000
0000
0100
0000
0001
0100
1000
0000
0010
0000
1000
0000
0001
0010
,
1000
0000
0010
0000
0100
0000
1000
0000
0001
1000
0010
0000
0100
0000
0010
0000
,
1000
0100
1000
0100
1000
0000
0200
0000
0310
0000
0001
1000
0100
1000
0001
0000
,
0001
0100
0010
1000
0100
0001
0010
0100
1000
0000
0001
1000
0010
0100
1000
0100
,
0010
0001
0010
0100
0020
0000
0100
0000
0130
0000
0010
1000
0010
0100
0001
0000
,
0001
0100
0001
0000
1000
0100
1000
0000
0010
0001
0010
0000
0010
0100
0010
0000
,
0001
0000
1000
0000
0010
0000
0100
0000
1000
0100
0010
0001
0010
0100
1000
0001
,
1000
0000
0001
1000
0001
0000
0100
0000
,
0010
0100
0010
0000
1000
0000
0100
1000
,
0100
0000
0010
0000
0001
0010
0001
0000
,
0001
0010
0100
1000
0001
0010
0100
1000
,
0100
0000
0010
0100
0010
0000
0001
0000
,
1000
0100
1000
0000
0001
0000
0010
0100
,
0010
0000
1000
0000
0001
0100
0001
0000
,
0010
0100
1000
0001
0010
0100
1000
0001
,
1000
0000
0001
0100
0001
0000
0010
0000
,
1000
0001
1000
0000
0100
0000
0001
0010
,
0001
0000
1000
0000
0100
0010
0100
0000
,
0100
0010
0100
1000
0001
0010
0100
1000
,
0100
1000
0100
0000
0001
0010
0001
0000
,
0001
0100
0001
0000
0010
1000
0010
0000
,
1100
0011
0110
1100
,
0001
0010
0100
1000
0010
0100
0010
0002
,
2000
0000
0000
0000
,
0000
0000
0000
0000
,
0000
0000
0000
0000
,
0000
0000
0000
0000
,
0000
0000
0000
0000
,
0000
0000
0000
0000
,
0000
0000
0000
0000
,
0000
0000
0000
0000
,
0000
0000
0000
0000
,
0000
0000
0000
0000
,
0000
0000
0000
0000
,
0000
0000
0000
0000
,
0000
0000
0000
0000
,
0000
0000
0000
0000
,
0000
0000
0000
0000
,
0000
0000
0000
0000
,
0000
0000
0000
0000
,
0000
0000
0000
0000
,
0000
0000
0000
0000
,
0000
0000
0000
0000
,
0000
0000
0000
0000
,
0000
0000
0000
0000
,
0000
0000
0000
0000
,
0000
0000
0000
0000
,
0000
0000
0000
0000
,
0000
0000
0000
0000
,
0000
0000
0000
0000
,
0000
0000
0000
0000
,
0000
0000
0000
0000
,
0000
0000
0000
0000
,
0000
0000
0000
0000
,
0000
0000
0000
3003
,
1000
0001
0010
0100
1000
0000
0002
0000
0103
0000
0010
0100
0010
1000
0010
0000
1000
0100
0010
0001
0010
0100
0010
1000
0001
0000
0001
0100
0001
1000
0010
1000
,
0010
1000
0001
0010
0100
0000
0020
0000
1030
0000
1000
0100
0010
0001
0010
0000
1000
0000
0100
0000
1000
0000
0000
0000
0010
0000
0001
0000
0010
0000
0000
0000
,
0100
1000
0100
0000
0001
0100
0001
0000
1000
0000
0001
0000
1000
0000
0001
0000
,
0010
0100
1000
0100
0010
0001
0010
0100
1000
0000
0000
0000
0001
0000
0100
0000
,
0001
0000
0001
0010
0100
1000
0100
0010
,
0001
1000
0001
0100
0010
0000
0100
0010
,
0100
0000
1000
0001
0010
0100
1000
0100
,
0001
1000
0001
0100
0010
0000
0010
0100
,
0010
0000
0001
0010
0100
1000
0100
0010
,
0001
1000
0001
0100
0010
0100
0010
0000
,
0001
1000
0001
0000
1100
0000
0011
0000
,
0001
0010
0200
0000
0310
0000
1000
0000
,
0010
1000
0020
0000
,
0100
0000
0031
0000
,
0001
0100
0010
1000
,
0010
0000
0000
0000
0010
0100
0010
0000
,
1000
0100
1000
0000
0010
0001
0010
0000
,
0001
0100
0001
0000
0001
0000
0001
0000
,
0001
0000
0001
0010
0100
1000
0100
0010
,
0001
1000
0001
0100
0010
0000
0100
0010
,
0100
0000
1000
0000
0001
0100
0001
0000
,
0010
0000
0100
0010
0100
0000
1000
0000
,
1000
0100
1000
0000
1000
0010
0100
0010
,
0001
0010
1000
0100
1000
0000
0001
1000
,
0001
0000
0100
0000
0010
0001
0010
0000
,
1000
0000
0001
1000
0001
0000
0100
0000
,
0100
0010
0100
0000
0100
1000
0001
1000
,
0010
1000
0100
0001
1000
0000
1000
0001
,
1000
0000
0010
0000
0100
1000
0100
0000
,
0001
0000
1000
0001
1000
0000
0010
0000
,
0010
0100
0010
0000
0010
0001
1000
0001
,
0100
0001
0010
1000
0100
1000
0100
0000
,
0001
0010
0001
0000
0100
0001
0100
0000
,
0010
0100
0010
0000
1000
0000
1000
0000
,
0001
0000
0001
0000
1000
0001
0010
0100
,
1000
0100
0010
0001
2002
3003
0000
0000
;

//---------------dance-single - ----------------
#NOTES:
     dance-single:
     :
     Medium:
     8:
     0.568,1.000,0.678,0.066,0.099:
0000
0000
0000
0000
,
0000
0000
0000
0000
,
0000
0000
0000
0000
,
0000
0000
0000
0000
,
0001
0000
0100
0000
0001
1000
0010
0000
,
0100
0000
1000
0000
0001
0100
1000
0000
,
0001
0000
1000
0000
0010
1000
0001
0000
,
1000
0100
0010
0001
0010
0000
0011
0000
,
0001
0000
0110
0000
0010
1000
0001
0000
,
0100
0000
1100
0000
0010
1000
0001
0000
,
0100
0000
1100
0000
0010
1000
0010
0000
,
0001
0001
1000
1000
,
0001
1000
0001
0100
,
0010
1000
0010
1000
,
0010
0100
0010
0000
,
0001
1000
0100
0010
,
0001
0010
0100
0000
,
0001
1000
0010
0100
,
0001
1000
0010
0100
,
0101
0000
1100
0000
,
0011
0010
0011
0000
,
0001
0100
0001
0010
,
1000
0001
0100
0000
,
1000
0100
0010
0001
,
0010
0100
0010
0000
,
1001
0000
1100
0000
,
0011
0000
0110
0000
,
1000
0100
0010
0001
,
0011
1100
0110
1001
,
1100
0000
0010
0000
0100
0010
1000
0000
,
0001
0000
0000
0000
1000
0000
0000
0000
0001
0010
0100
1000
0100
0000
0000
0000
,
0010
0000
0100
0000
0001
1000
0100
0000
,
0010
0000
0000
0000
1000
0000
0000
0000
0001
0100
0010
1000
0010
0000
0000
0000
,
1000
0000
0100
1000
0100
0000
2000
0000
3100
0000
0010
0000
0100
0010
0100
0000
,
0001
0000
1000
0000
0100
0000
0001
0100
1000
0000
1000
0100
0001
0000
0010
0000
,
0001
0000
0001
0010
1000
0000
0010
0000
0110
0000
0010
1000
0010
0000
0100
0000
,
0101
1100
0011
0110
,
0001
1000
0010
0100
1000
0100
0010
0001
,
1001
0000
0010
0110
,
0000
1000
1100
0000
,
0010
0011
0000
0001
,
0101
0000
1100
0000
,
0101
0000
0010
0110
,
0000
1000
1100
0000
,
0010
0110
0000
0010
,
0011
0000
0101
0000
,
1001
0000
0001
0101
,
0000
0010
0110
0000
,
1000
1100
0000
0010
,
0110
0000
1100
0000
,
0011
0000
1100
0000
,
0110
0000
1001
0000
,
1000
1000
0001
0001
,
1000
0100
0010
0001
,
2002
0000
0000
0000
,
0000
0000
0000
0000
,
0000
0000
0000
0000
,
0000
0000
0000
0000
,
0000
0000
0000
0000
,
0000
0000
0000
0000
,
0000
0000
0000
0000
,
0000
0000
0000
0000
,
0000
0000
0000
0000
,
0000
0000
0000
0000
,
0000
0000
0000
0000
,
0000
0000
0000
0000
,
0000
0000
0000
0000
,
0000
0000
0000
0000
,
0000
0000
0000
0000
,
0000
0000
0000
0000
,
0000
0000
0000
0000
,
0000
0000
0000
0000
,
0000
0000
0000
0000
,
0000
0000
0000
0000
,
0000
0000
0000
0000
,
0000
0000
0000
0000
,
0000
0000
0000
0000
,
0000
0000
0000
0000
,
0000
0000
0000
0000
,
0000
0000
0000
0000
,
0000
0000
0000
0000
,
0000
0000
0000
0000
,
0000
0000
0000
0000
,
0000
0000
0000
0000
,
0000
0000
0000
0000
,
3003
0000
0000
0000
,
0110
0000
0000
0000
0010
0000
0000
0000
0100
0000
1000
0000
0100
0000
0010
0000
0001
0000
0000
0000
1000
0000
0000
0000
0001
0000
0010
0100
1000
0100
0010
0001
,
0010
0000
0000
0000
0100
0000
0000
0000
0010
0000
1000
0001
1000
0001
1000
0000
0001
0000
0000
0000
0000
0000
0000
0000
0001
0000
0000
0000
0000
0000
0000
0000
,
1000
0000
0010
0000
1000
0100
0001
1000
,
0010
0100
0010
1000
1100
0000
1000
0000
,
0100
0010
0002
0000
,
0010
0000
0103
0000
,
0001
1000
0010
0100
,
0001
0000
0001
0010
,
0100
1000
0100
0010
,
0001
0010
2000
0000
,
3100
1000
0100
0010
,
0001
0010
0100
0010
,
1000
0001
0200
0000
,
1000
0000
1300
0000
,
0010
1000
0001
0100
,
0010
0000
1100
0000
,
0011
0000
0110
0000
,
1100
0000
1000
0100
,
0010
0000
0001
0000
1000
0100
0010
0001
,
0010
0100
1000
0001
1000
0000
0000
0000
,
0100
1100
0000
0010
,
0110
0000
0001
0011
,
0000
0001
0101
0000
,
1100
0000
0110
0000
,
0001
1001
0000
0010
,
0110
0000
0001
0011
,
0000
1000
1100
0000
,
1100
0000
0110
0000
,
0001
0011
0000
0100
,
1100
0000
0010
0110
,
0000
0001
0011
0000
,
0011
0000
0011
0000
,
1100
0000
0110
0000
,
1001
0000
1000
1000
,
0001
0000
0001
0000
1000
0001
0010
0100
,
1000
0001
0100
0010
0200
0300
0000
0000
;

//---------------dance-single - ----------------
#NOTES:
     dance-single:
     :
     Easy:
     6:
     0.424,1.000,0.546,0.141,0.000:
0000
0000
0000
0000
,
0000
0000
0000
0000
,
0000
0000
0000
0000
,
0000
0000
0000
0000
,
0010
0010
0100
0100
,
0001
1000
0001
0100
,
1000
0100
0010
0001
,
0100
1000
0002
0100
,
0013
0010
0100
0100
,
1000
1000
0001
1000
,
0100
0010
0001
0010
,
1000
0000
0001
0000
,
0100
0001
0100
0000
,
0010
0000
0100
1000
,
0100
0000
0110
0000
,
0001
0000
1000
0100
,
0001
0000
0110
0000
,
0001
0000
0001
1000
,
0010
0000
0110
0000
,
1100
0000
0011
0000
,
0001
1000
0001
0100
,
0010
0000
0100
0010
,
0100
0000
0110
0000
,
1000
0000
0100
1000
,
0100
0000
1000
0000
,
1100
0000
1100
0000
,
0011
0000
0011
0000
,
0001
1000
0010
0100
,
1000
0100
0010
0001
,
0020
0030
0002
0003
,
2000
3000
0200
0300
,
0020
0030
0200
0300
,
2000
3000
0002
0003
,
1000
0001
0010
0100
1000
0200
1000
1300
,
1000
0100
0010
0001
0200
0010
0010
0301
,
0001
1000
0200
1000
1300
0100
0010
0001
,
0011
1100
0110
1001
,
1000
0010
0100
0001
0010
0001
0010
0100
,
1100
0000
0000
1100
,
0000
0000
0110
0000
,
0000
0011
0000
0000
,
0101
0000
0110
0000
,
1100
0000
0000
0110
,
0000
0000
1001
0000
,
0000
1100
0000
0000
,
0011
0000
0011
0000
,
1100
0000
0000
1001
,
0000
0000
1100
0000
,
0000
0011
0000
0000
,
0101
0000
1010
0000
,
0001
0000
0001
0000
,
1000
0000
1000
0000
,
0001
1000
0010
0100
,
1000
0100
0010
0001
,
1000
0000
0000
0000
,
0000
0000
0000
0000
,
0000
0000
0000
0000
,
0000
0000
0000
0000
,
0000
0000
0000
0000
,
0000
0000
0000
0000
,
0000
0000
0000
0000
,
0000
0000
0000
0000
,
0000
0000
0000
0000
,
0000
0000
0000
0000
,
0000
0000
0000
0000
,
0000
0000
0000
0000
,
0000
0000
0000
0000
,
0000
0000
0000
0000
,
0000
0000
0000
0000
,
0000
0000
0000
0000
,
0000
0000
0000
0000
,
0000
0000
0000
0000
,
0000
0000
0000
0000
,
0000
0000
0000
0000
,
0000
0000
0000
0000
,
0000
0000
0000
0000
,
0000
0000
0000
0000
,
0000
0000
0000
0000
,
0000
0000
0000
0000
,
0000
0000
0000
0000
,
0000
0000
0000
0000
,
0000
0000
0000
0000
,
0000
0000
0000
0000
,
0000
0000
0000
0000
,
0000
0000
0000
0000
,
0000
0000
0000
0000
,
0000
1000
0001
0100
,
0010
0100
1000
1000
,
1000
0000
1000
0000
1000
0001
0010
0100
,
1000
0100
0010
0001
1000
0000
0000
0000
,
0100
1000
0100
0000
,
0020
0000
0130
0000
,
0001
0000
1000
0001
,
0100
0000
0020
0000
,
0100
0000
1000
0000
,
0100
0000
1030
0000
,
1000
0100
0010
0001
,
0010
0100
1000
0000
,
0002
0000
0100
0000
,
0010
0000
1003
0000
,
0001
1000
0001
0100
,
0010
0000
0110
0000
,
0110
0000
0110
0000
,
0110
0000
1000
0100
,
0001
1000
0010
1000
,
0001
0100
1001
0000
,
0000
1100
0000
0000
,
0011
0000
0000
1001
,
0000
0000
1100
0000
,
0101
0000
1010
0000
,
0000
0011
0000
0000
,
1010
0000
0000
0011
,
0000
0000
1001
0000
,
0110
0000
0110
0000
,
0000
1100
0000
0000
,
0101
0000
0000
0011
,
0000
0000
1010
0000
,
0101
0000
0110
0000
,
0110
0000
1001
0000
,
1001
0000
1000
0100
,
0001
0010
0100
0010
,
1000
0010
1000
0000
;

//---------------dance-single - ----------------
#NOTES:
     dance-single:
     :
     Beginner:
     4:
     0.225,0.515,0.226,0.000,0.000: // measure 1
0000
0000
0000
0000
,  // measure 2
0000
0000
0000
0000
,  // measure 3
0000
0000
0000
0000
,  // measure 4
0000
0000
0000
0000
,  // measure 5
0001
0000
0000
0000
,  // measure 6
1000
0000
0000
0000
,  // measure 7
0001
0000
0000
0000
,  // measure 8
0010
0000
0100
0100
,  // measure 9
0100
0000
0000
0000
,  // measure 10
0010
0000
0000
0000
,  // measure 11
1000
0000
0000
0000
,  // measure 12
1001
0000
0000
0000
,  // measure 13
0001
0000
0000
0000
,  // measure 14
1000
0000
0000
0000
,  // measure 15
1000
0000
0000
0000
,  // measure 16
0001
0000
0000
0000
,  // measure 17
0001
0000
0000
0000
,  // measure 18
0100
0000
0000
0000
,  // measure 19
0010
0000
0000
0000
,  // measure 20
0100
0000
0100
0000
,  // measure 21
0100
0000
0110
0000
,  // measure 22
0010
0000
0000
0000
,  // measure 23
0010
0000
0000
0000
,  // measure 24
1000
0000
0000
0000
,  // measure 25
0001
0000
0000
0000
,  // measure 26
1001
0000
0000
0000
,  // measure 27
1001
0000
0000
0000
,  // measure 28
0010
0000
0010
0000
,  // measure 29
0100
0000
0100
0000
,  // measure 30
1001
0000
1000
0000
,  // measure 31
0001
0000
1000
0000
,  // measure 32
0010
0000
0100
0000
,  // measure 33
0010
0000
0100
0000
,  // measure 34
1000
0000
1000
0000
,  // measure 35
0001
0000
0001
0000
,  // measure 36
0100
0000
0100
0000
,  // measure 37
0010
0010
0010
0010
,  // measure 38
0010
0100
0010
1000
,  // measure 39
0001
0000
0000
1000
,  // measure 40
0000
0000
0001
0000
,  // measure 41
0000
1000
0000
0000
,  // measure 42
0001
0000
1000
0000
,  // measure 43
0001
0000
0000
1000
,  // measure 44
0000
0000
0001
0000
,  // measure 45
0000
1000
0000
0000
,  // measure 46
0001
0000
1000
0000
,  // measure 47
0001
0000
0000
1000
,  // measure 48
0000
0000
0001
0000
,  // measure 49
0000
1000
0000
0000
,  // measure 50
0001
0000
1000
0000
,  // measure 51
0001
0000
0001
0000
,  // measure 52
1000
0000
1000
0000
,  // measure 53
0001
0000
0010
0000
,  // measure 54
0100
0000
1000
0000
,  // measure 55
1001
0000
0000
0000
,  // measure 56
0000
0000
0000
0000
,  // measure 57
0000
0000
0000
0000
,  // measure 58
0000
0000
0000
0000
,  // measure 59
0000
0000
0000
0000
,  // measure 60
0000
0000
0000
0000
,  // measure 61
0000
0000
0000
0000
,  // measure 62
0000
0000
0000
0000
,  // measure 63
0000
0000
0000
0000
,  // measure 64
0000
0000
0000
0000
,  // measure 65
0000
0000
0000
0000
,  // measure 66
0000
0000
0000
0000
,  // measure 67
0000
0000
0000
0000
,  // measure 68
0000
0000
0000
0000
,  // measure 69
0000
0000
0000
0000
,  // measure 70
0000
0000
0000
0000
,  // measure 71
0000
0000
0000
0000
,  // measure 72
0000
0000
0000
0000
,  // measure 73
0000
0000
0000
0000
,  // measure 74
0000
0000
0000
0000
,  // measure 75
0000
0000
0000
0000
,  // measure 76
0000
0000
0000
0000
,  // measure 77
0000
0000
0000
0000
,  // measure 78
0000
0000
0000
0000
,  // measure 79
0000
0000
0000
0000
,  // measure 80
0000
0000
0000
0000
,  // measure 81
0000
0000
0000
0000
,  // measure 82
0000
0000
0000
0000
,  // measure 83
0000
0000
0000
0000
,  // measure 84
0000
0000
0000
0000
,  // measure 85
0000
0000
0000
0000
,  // measure 86
0000
0000
0000
0000
,  // measure 87
0000
0100
0100
0100
,  // measure 88
0100
0100
0010
0000
,  // measure 89
0010
0000
0010
0010
,  // measure 90
0100
0100
1000
0000
,  // measure 91
0000
0000
0001
0000
,  // measure 92
0000
0000
1000
0000
,  // measure 93
0001
0000
0100
0000
,  // measure 94
0001
0000
0100
0000
,  // measure 95
0000
0000
0010
0000
,  // measure 96
0000
0000
0100
0000
,  // measure 97
0000
0000
1000
0000
,  // measure 98
0000
0000
0001
0000
,  // measure 99
1000
0000
0001
0000
,  // measure 100
0000
0000
1000
0000
,  // measure 101
0000
0000
0001
0000
,  // measure 102
0000
0000
1000
0000
,  // measure 103
1000
0000
0001
0000
,  // measure 104
0001
0000
1000
0000
,  // measure 105
0100
0000
0010
0000
,  // measure 106
0001
0000
1001
0000
,  // measure 107
0000
1001
0000
0000
,  // measure 108
1001
0000
0000
1001
,  // measure 109
0000
0000
1001
0000
,  // measure 110
1001
0000
0110
0000
,  // measure 111
0000
0110
0000
0000
,  // measure 112
0110
0000
0000
0110
,  // measure 113
0000
0000
0110
0000
,  // measure 114
0110
0000
0110
0000
,  // measure 115
0000
1001
0000
0000
,  // measure 116
0110
0000
0000
1001
,  // measure 117
0000
0000
0110
0000
,  // measure 118
1001
0000
1000
0000
,  // measure 119
1000
0000
0001
0000
,  // measure 120
0001
0000
1000
0000
,  // measure 121
0001
0000
1000
0001
,  // measure 122
1000
0001
1000
0000
;
