#TITLE:Concertino in Blue;
#SUBTITLE:;
#ARTIST:Hirofumi Sasaki;
#TITLETRANSLIT:;
#SUBTITLETRANSLIT:;
#ARTISTTRANSLIT:;
#CREDIT:;
#BANNER:bn.PNG;
#BACKGROUND:bg.PNG;
#LYRICSPATH:;
#CDTITLE:13 dd.png;
#MUSIC:2-07 Concertino in Blue.mp3;
#OFFSET:-0.460;
#SAMPLESTART:11.300;
#SAMPLELENGTH:15.000;
#SELECTABLE:YES;
#BPMS:0.000=140.000,20.000=310.000,338.000=620.015,340.000=310.000,342.000=155.000,344.000=77.500,345.500=310.000,392.000=258.000,396.000=250.000,401.500=247.000,403.000=240.000,408.000=225.000,410.000=220.000,414.000=218.000,420.000=198.000,422.000=188.000,424.000=178.000,425.000=173.000,426.000=168.000,427.000=163.000,428.000=151.000,429.000=150.000,429.500=140.000,430.000=130.000,430.500=120.000,431.000=110.000,438.000=126.379,438.000=126.399;
#STOPS:345.500=0.720
;
#BGCHANGES:;

//---------------dance-single - ----------------
#NOTES:
     dance-single:
     :
     Hard:
     10:
     0.625,0.975,0.536,0.159,0.253:
0000
0000
0000
0000
,
0000
0000
0000
0000
,
0000
0000
0000
0000
,
0000
0000
0000
0000
,
1000
1000
0100
0100
0010
0010
0001
0001
1000
0001
1000
0100
,
0010
0001
0000
0001
0000
0100
0001
0000
,
0100
0010
1000
0000
,
0101
0000
0000
0000
1000
0100
1000
0100
,
1000
0000
1100
0000
,
0010
0100
0000
0010
0000
0000
0000
0000
,
0000
1000
0100
0010
,
0100
0000
0010
0100
0000
0010
0100
0000
,
0010
0000
1000
0000
0010
0100
0000
0001
,
0000
0010
0100
0000
0001
0000
0000
0000
,
0001
1000
0001
1000
0001
0000
0000
0000
,
1100
0000
0000
0000
0010
1000
0000
0010
,
0000
0000
0000
1000
,
0001
0000
0100
0000
0010
0100
0010
0100
,
0000
0010
1000
0010
0000
0001
0100
0002
,
0000
0000
0000
0000
,
0000
0000
0000
0000
0000
0010
0003
0000
,
0000
1100
0000
0000
0001
0010
0100
1000
,
0100
0010
0001
0000
0000
0010
0000
0000
,
0000
0010
0100
0000
0010
0000
0000
0000
,
0000
0000
0000
1000
0000
0100
0000
0010
,
0000
0001
0000
0001
0010
0000
0010
0100
,
0010
0100
0000
0001
0000
0010
1000
0000
,
0001
0000
0100
1000
0000
0001
0000
0000
,
0000
1000
0100
0010
0001
0010
0000
0000
,
0000
0010
0000
0000
0000
0010
0100
0010
,
0000
0000
0000
0000
0000
0000
0000
1000
,
0000
0100
0000
0010
0000
0001
0100
0001
,
0100
0000
0010
1000
0010
0000
0000
0100
,
0010
0200
0000
0000
0000
0000
0000
0000
,
0000
0000
0000
0010
,
0000
0300
0010
0000
0000
0000
1000
0000
,
0200
0020
0000
0000
,
0000
0000
0000
0000
,
0000
0000
0000
0330
,
0001
0000
0000
0001
,
1000
0001
0000
0010
,
0100
0010
0000
1000
,
0000
0100
0000
0000
,
1000
0000
0000
0100
,
0000
0000
0010
0000
,
0000
0001
0100
0001
,
0100
0001
0100
0010
,
1000
0010
1000
0010
,
0100
0010
0100
1000
,
0100
0010
0001
0010
,
0100
0010
1000
0010
,
0100
0101
0000
1000
,
1100
0000
0010
0110
,
0000
0001
0011
0000
,
0100
0101
0000
0010
,
1010
0000
0010
0110
,
0000
0000
1000
0000
1100
0000
0000
0110
,
0000
0000
0011
0000
0000
0101
0000
0000
,
1010
0000
0000
0110
0000
0000
1001
0000
,
0000
1100
0000
0000
0011
0000
0000
0110
,
0000
0000
1001
0000
0000
0110
0000
0000
,
1010
0000
0000
0110
0000
0000
0101
0000
,
0000
0110
0000
0000
0100
0000
0000
0011
,
0000
0000
1001
0000
1000
0100
0010
0001
,
1000
0100
1000
0000
0100
0000
0010
0001
,
0100
0001
0010
1000
0010
0100
0001
0000
,
0100
0001
0100
1000
,
0100
1000
0100
0010
,
0001
0010
0100
0010
,
1000
0001
0000
0001
,
0000
0000
0100
0000
1000
0000
0010
0100
,
0000
0000
0000
0000
0000
0000
0000
0000
0000
1100
0000
0000
0000
0000
0000
0000
0000
0000
0000
0000
0000
0000
0000
0000
0000
0000
0000
0000
0110
0000
0000
0000
0000
0000
0000
0000
0000
0000
0000
0000
0000
0000
0000
0000
0000
0011
0000
0000
,
0000
1001
1000
1000
,
0001
0000
1000
0000
0100
0000
0010
0000
1000
0000
0000
0000
,
0000
0000
0000
0001
0000
0000
0000
0000
0000
0000
0000
0000
0000
0000
0000
0000
0000
0000
1001
0000
0000
0000
0000
0000
0000
0000
0000
0000
0000
0000
0001
0000
0000
0000
0000
0000
0000
0000
0000
0000
0100
0000
0000
0000
0000
0000
0000
0000
,
0000
1000
0000
0000
1010
0000
0000
0000
0000
0000
0000
0000
0101
0000
0000
0000
,
1000
0000
0100
0000
0010
0000
0001
0000
1001
0000
0000
0000
,
0000
0000
0000
1100
0000
0000
0000
0000
0000
0000
0000
0000
0000
0000
0000
0000
1000
0000
0000
0000
0000
0000
0000
0000
0000
0000
0000
0011
0000
0000
0000
0000
0000
0000
0000
0000
0000
0000
0000
0000
0001
0000
0000
0000
0000
0000
0000
0000
,
0000
0000
0000
1001
0000
0000
0000
0000
0000
0000
0000
0000
1000
0000
0000
0000
0000
0000
0000
0000
0100
0000
0000
0000
0000
0000
0000
0000
1000
0000
0000
0000
0000
0000
0000
0000
0100
0000
0000
0000
0000
0000
0000
0000
0010
0000
0000
0000
,
0000
0001
0000
0010
0000
0001
0000
1000
0000
0010
0000
1000
,
0000
0010
0000
0100
0000
0001
0000
0100
0000
0001
0000
0010
,
0000
1000
0000
0010
0000
1000
0000
0001
0000
0100
0000
0001
,
0000
0100
0000
0001
0000
0010
0000
0001
0000
0010
0000
0100
,
0000
1000
0000
0100
0000
1000
0000
0100
0000
0010
0000
1000
,
0000
0000
0000
0000
0001
0000
0000
0000
0000
0000
0000
0000
0000
0000
0000
2002
0000
0000
0000
0000
0000
0000
0000
0000
0000
0000
0000
0000
0000
0000
0000
0000
0000
0000
0000
0000
0000
0000
0000
0000
0000
0000
0000
0000
0000
0000
0000
0000
,
0000
0000
0000
0000
,
0000
0000
0000
0000
0000
0000
0000
0000
0000
0000
3003
0000
0010
0000
0000
0100
0000
0000
0000
0000
0000
1000
0000
0000
,
0000
0001
0100
0000
1100
0000
0011
0000
,
1001
0000
1001
0000
,
1000
0001
0100
0010
1000
0000
0000
0000
,
0110
0000
0000
0010
0100
0000
0000
0220
,
0000
0000
0000
0330
0000
0000
1000
0000
,
0100
0000
0010
0000
0010
0000
0010
1000
,
0000
0100
0001
0100
0001
0000
0100
0000
,
1000
0100
0000
0010
0000
0010
1000
0000
,
0001
0000
0000
0000
0010
0100
0010
0100
,
0010
0000
1001
0000
,
0010
1000
0000
0220
0000
0000
0000
0330
,
0000
1000
0100
1000
,
0010
0001
0100
1000
0000
0100
0010
1000
,
0000
0001
1000
0200
0020
0000
0000
0000
,
0000
0000
0000
0330
,
1100
0000
0011
0000
,
0110
1010
2002
0000
,
0000
0000
0000
3003
,
1000
0100
0010
0001
,
0100
0001
0010
1000
,
0010
0000
0000
0000
0000
0100
0002
0000
0000
0000
0000
0000
0000
0000
0000
0000
,
1000
2000
0000
0000
0000
0000
0000
0000
,
0000
3003
0000
0000
0000
0000
0000
0000
;

//---------------dance-single - ----------------
#NOTES:
     dance-single:
     :
     Medium:
     9:
     0.522,0.975,0.476,0.089,0.248:
0000
0000
0000
0000
,
0000
0000
0000
0000
,
0000
0000
0000
0000
,
0000
0000
0000
0000
,
1000
0001
1000
0001
1000
0001
1000
0001
1000
0001
1000
0001
,
1000
0001
0000
1000
0000
0001
1000
0000
,
0010
0100
0010
0000
,
1001
0000
0010
0100
,
0010
0000
1010
0000
,
0001
0100
1000
0000
,
0000
1000
0100
0010
,
1000
0001
0100
0010
,
1000
0010
1000
0001
,
0100
0010
1000
0000
,
0011
0000
0110
0000
,
1010
0000
0010
0100
,
0010
0000
0000
0001
,
1000
0001
1000
0010
,
1000
0010
0100
0001
,
0200
0000
0000
0000
,
0000
0000
0000
0010
,
0300
0110
0000
0000
,
0000
0010
0000
0000
0000
0100
0000
0000
,
0000
1000
0100
0000
0010
0000
0000
0000
,
0000
0000
0000
0010
0000
0100
0000
1000
,
0000
0100
0000
0010
0000
0001
0000
0010
,
0000
0100
0000
0010
0000
1000
0000
0010
,
0000
0100
0000
0001
0000
1000
0000
0000
,
0000
0010
0000
0000
0000
0100
0000
0000
,
0000
1000
0000
0000
0000
0010
0100
0000
,
0010
0000
0000
0000
0000
0000
0000
1000
,
0000
0100
0000
0010
0000
0100
0000
0001
,
0000
0100
0000
0010
0000
1000
0000
0001
,
0200
0000
0000
0000
,
0000
0300
0000
0000
0000
0000
1001
0000
,
0000
1001
0000
0100
,
0100
0110
0000
0000
,
0000
0000
0000
0000
,
0000
0000
0000
0000
,
0000
1000
0100
0010
,
0000
0010
0000
0100
,
0000
1000
0000
0100
,
1000
0100
0000
0010
,
0000
0100
0010
0100
,
0000
0010
0100
0010
,
0000
1000
0000
0100
,
0000
0010
0001
0010
,
0000
0100
1000
0000
,
1000
0100
0000
0010
,
0100
0000
0001
1000
,
0000
0001
1000
0000
,
0100
0011
0000
0000
,
1010
0000
0000
0101
,
0000
0000
1100
0000
,
0000
0110
0000
0000
,
0011
0000
0000
1100
,
0000
0000
0000
0000
1001
0000
0000
1010
,
0000
0000
0101
0000
0000
1100
0000
0000
,
0011
0000
0000
0110
0000
0000
1010
0000
,
0000
0101
0000
0000
1100
0000
0000
0011
,
0000
0000
0110
0000
0000
1010
0000
0000
,
0101
0000
0000
1100
0000
0000
0011
0000
,
0000
0110
0000
0000
1001
0000
0000
1010
,
0000
0001
0000
0000
,
0000
0001
0001
0101
,
0000
0000
0000
0010
,
0010
0100
0100
1000
,
1000
0001
0001
0100
,
0100
0010
0110
0000
,
0000
1001
0000
1000
,
0000
0000
0100
0000
0001
0000
0010
1000
,
0000
0000
0000
0000
0000
0000
0000
0000
0000
0001
0000
0000
0000
0000
0000
0000
0000
0000
0000
0000
0000
0000
0000
0000
0000
0000
0000
0000
0010
0000
0000
0000
0000
0000
0000
0000
0000
0000
0000
0000
0000
0000
0000
0000
0000
0001
0000
0000
,
0000
0010
0001
0010
,
0100
0000
0001
0000
0010
0000
0001
0000
0010
0000
0000
0000
,
0000
0000
0000
0010
0000
0000
0000
0000
0000
0000
0000
0000
0000
0000
0000
0000
0000
0000
0100
0000
0000
0000
0000
0000
0000
0000
0000
0000
0000
0000
1000
0000
0000
0000
0000
0000
0000
0000
0000
0000
0001
0000
0000
0000
0000
0000
0000
0000
,
0000
0100
0000
0000
0010
0000
0000
0000
0000
0000
0000
0000
0001
0000
0000
0000
,
1000
0000
0001
0000
1000
0000
0010
0000
1000
0000
0000
0000
,
0000
0000
0000
1000
0000
0000
0000
0000
0000
0000
0000
0000
0000
0000
0000
0000
0001
0000
0000
0000
0000
0000
0000
0000
0000
0000
0000
0010
0000
0000
0000
0000
0000
0000
0000
0000
0000
0000
0000
0000
0001
0000
0000
0000
0000
0000
0000
0000
,
0000
0000
0000
0001
0000
0000
0000
0000
0000
0000
0000
0000
1000
0000
0000
0000
0000
0000
0000
0000
0001
0000
0000
0000
0000
0000
0000
0000
1000
0000
0000
0000
0000
0000
0000
0000
0001
0000
0000
0000
0000
0000
0000
0000
1000
0000
0000
0000
,
0000
0001
0000
1000
0000
0001
0000
1000
0000
0001
0000
1000
,
0000
0001
0000
1000
0000
0001
0000
1000
0000
0001
0000
1000
,
0000
0001
0000
1000
0000
0001
0000
1000
0000
0001
0000
1000
,
0000
0001
0000
1000
0000
0001
0000
1000
0000
0001
0000
1000
,
0000
0001
0000
1000
0000
0001
0000
1000
0000
0001
0000
1000
,
0000
0000
0000
0000
0001
0000
0000
0000
0000
0000
0000
0000
0000
0000
0000
2002
0000
0000
0000
0000
0000
0000
0000
0000
0000
0000
0000
0000
0000
0000
0000
0000
0000
0000
0000
0000
0000
0000
0000
0000
0000
0000
0000
0000
0000
0000
0000
0000
,
0000
0000
0000
0000
,
0000
0000
0000
3003
0010
0100
0000
1000
,
0000
0100
1000
0000
0011
0000
0001
0000
,
0011
0000
1001
0000
,
1000
0100
1000
0100
1000
0000
0000
0000
,
0110
0000
0010
1000
,
0001
0000
0000
0100
,
1000
0100
0010
0100
,
0001
1000
0010
0100
,
0001
0100
0010
0100
,
0001
0000
0001
0100
,
0101
0000
1010
0000
,
0110
0110
0110
0000
,
1000
0100
0010
0001
,
0100
1000
0100
0010
,
0100
0001
2002
0000
,
0000
0000
0000
3000
,
1000
0000
1000
0000
,
1000
1000
2000
0000
,
0000
3003
0000
0000
,
1000
0100
0001
0001
,
0010
1000
0100
0010
,
0001
0000
0000
0002
0000
0000
0000
0000
,
1000
2000
0000
0000
0000
0000
0000
0000
,
0000
3003
0000
0000
0000
0000
0000
0000
;

//---------------dance-single - ----------------
#NOTES:
     dance-single:
     :
     Easy:
     5:
     0.335,0.487,0.179,0.129,0.000:
0000
0000
0000
0000
,
0000
0000
0000
0000
,
0000
0000
0000
0000
,
0000
0000
0000
0000
,
2002
0000
0000
3003
,
0010
0000
0100
0000
,
1000
0100
1000
0000
,
0010
0000
0100
0000
,
1000
0000
0100
0000
,
0010
0100
0010
0000
,
0000
0000
1000
0000
,
0100
1000
0100
0000
,
0010
0001
0010
0000
,
0100
0000
1000
0000
,
0001
0100
0001
0000
,
0101
0000
0010
0100
,
2000
0000
0000
3000
,
0010
0100
1000
0000
,
0100
0000
0010
0000
,
0002
0000
0000
0000
,
0000
0000
0000
1003
,
0000
1000
0000
0000
,
0000
0100
0000
0000
0000
1000
0000
0000
,
0000
0000
0010
0100
0000
0010
0000
0000
,
0000
0000
0000
0000
0000
0001
0000
1000
,
0000
0100
0000
0000
0000
0010
0000
0000
,
1000
0000
0000
0000
0000
0100
0000
1000
,
0000
0100
0000
1000
0000
0100
0000
0000
,
0000
0010
0000
0000
0000
0011
0000
0000
,
0000
0011
0000
0000
0000
0001
0000
0000
,
0000
0010
0000
0000
0000
0000
0000
0000
,
0000
0100
0000
0000
0000
1000
0000
0000
,
0000
0100
0000
0000
0000
0010
0000
0000
,
0000
0100
0000
0000
0000
0000
0000
0000
,
0000
0000
0000
1000
,
0000
0100
0000
0010
,
0100
0010
0000
1000
,
0000
0100
0000
0010
,
0000
0001
0000
0000
,
0100
2000
0000
3010
,
0000
0100
0000
1000
,
0000
0100
0000
0010
,
0001
0010
0000
0100
,
0000
1000
0100
1000
,
0000
0010
0000
0100
,
0001
1000
0000
0100
,
0000
1000
0000
0100
,
0000
0010
0000
0100
,
0000
0001
0000
0100
,
0000
1000
0000
0100
,
0000
0000
0010
0000
,
0000
0100
0000
0000
,
1001
0000
0000
1010
,
0000
0000
0101
0000
,
0000
1100
0000
0000
,
0011
0000
0000
0110
,
0000
0000
0000
0000
1000
0000
0000
0100
,
0000
0000
0010
0000
0000
0100
0000
0000
,
0001
0000
0000
1000
0000
0000
0100
0000
,
0000
0010
0000
0000
0001
0000
0000
1000
,
0000
0000
0100
0000
0000
0010
0000
0000
,
1000
0000
0000
0001
0000
0000
0100
0000
,
0000
1000
0000
0000
0100
0000
0000
0010
,
0000
1001
0000
0000
,
0000
0010
0100
0110
,
0000
0000
0000
1000
,
1000
0001
0001
0100
,
0100
0010
0010
1000
,
0100
0010
0022
0000
,
0033
0100
0000
0010
,
0000
0000
0000
0000
,
0000
1000
0100
0000
,
0000
0000
0010
0100
,
0010
0000
0001
0000
,
0000
1000
0000
0000
,
1000
0000
1000
0000
,
0100
0000
0010
0100
,
0010
0000
0001
0000
,
0100
0000
2000
0000
,
0000
0000
0000
0000
,
0000
0000
0000
0000
,
0000
0000
0000
0000
,
0000
0000
0000
0000
,
0000
0000
0000
0000
,
0000
0000
0002
0000
,
0000
0000
0000
0000
,
0000
3003
0001
0100
,
0010
1000
0001
0100
,
0010
0000
1001
0000
,
0010
1000
0010
0000
,
0100
0000
1000
0100
,
0020
0000
0030
0001
,
0100
0001
1000
0000
,
0100
0000
0010
1000
,
0010
0000
0100
0000
,
0010
0000
0001
0100
,
0101
0000
1010
0000
,
1000
0100
0010
0000
,
0000
1000
0100
0000
,
0010
0000
0100
0000
,
1000
0000
0002
0000
,
0000
0000
0000
0000
,
1003
0000
0100
0000
,
0010
0100
1001
0000
,
0000
0000
0000
0000
,
1000
0000
0000
0100
,
0000
0000
0010
0000
,
0000
0000
0000
2002
0000
0000
0000
0000
,
0000
0000
0000
0000
,
0000
3003
0000
0000
0000
0000
0000
0000
;

//---------------dance-single - ----------------
#NOTES:
     dance-single:
     :
     Beginner:
     3:
     0.130,0.322,0.109,0.000,0.000: // measure 1
0000
0000
0000
0000
,  // measure 2
0000
0000
0000
0000
,  // measure 3
0000
0000
0000
0000
,  // measure 4
0000
0000
0000
0000
,  // measure 5
0100
0000
0000
0000
,  // measure 6
0100
0000
0000
0000
,  // measure 7
0000
0000
0000
0000
,  // measure 8
0000
0000
0010
0000
,  // measure 9
0010
0000
0000
0000
,  // measure 10
0000
0000
0000
0000
,  // measure 11
0000
0000
0000
0000
,  // measure 12
0001
0000
0000
0000
,  // measure 13
0000
0000
1000
0000
,  // measure 14
1000
0000
1000
0000
,  // measure 15
0000
0000
0100
0000
,  // measure 16
0000
0000
0000
0000
,  // measure 17
0000
0000
0000
0000
,  // measure 18
0000
0000
0010
0000
,  // measure 19
0000
0000
0000
0000
,  // measure 20
0000
0000
0000
0000
,  // measure 21
0000
0000
0100
0000
,  // measure 22
0100
0000
0000
0000
,  // measure 23
0000
1000
0000
0000
0000
0000
0000
0000
,  // measure 24
0000
0000
0000
0000
,  // measure 25
0000
0000
0000
0000
,  // measure 26
0000
0000
0000
0000
,  // measure 27
0000
0000
0000
0000
,  // measure 28
0000
0000
0000
0000
,  // measure 29
0000
0001
0000
0000
0000
0001
0000
0000
,  // measure 30
0000
0001
0000
0000
0000
1000
0000
0000
,  // measure 31
0000
0000
0000
0000
,  // measure 32
0000
0000
0000
0000
0000
0100
0000
0000
,  // measure 33
0000
0000
0000
0000
,  // measure 34
0100
0000
0000
0000
,  // measure 35
0000
0000
0000
0010
,  // measure 36
0000
0010
0000
0010
,  // measure 37
0000
0010
0000
0000
,  // measure 38
0000
0000
0000
0000
,  // measure 39
0000
0000
0000
0000
,  // measure 40
0000
1000
0000
0000
,  // measure 41
0000
0000
0000
0001
,  // measure 42
0000
0000
0000
0000
,  // measure 43
0000
0010
0000
0000
,  // measure 44
0000
0000
0000
1000
,  // measure 45
0000
0000
0000
0000
,  // measure 46
0000
0100
0000
0000
,  // measure 47
0000
0000
0000
0001
,  // measure 48
0000
0000
0000
0000
,  // measure 49
0000
0010
0000
0000
,  // measure 50
0000
0000
0000
1000
,  // measure 51
0000
0000
0000
0000
,  // measure 52
0000
0100
0000
0000
,  // measure 53
0100
0000
0000
0100
,  // measure 54
0000
0000
0100
0000
,  // measure 55
0000
0100
0000
0000
,  // measure 56
0100
0000
0000
0100
,  // measure 57
0000
0000
1001
0000
,  // measure 58
0000
1001
0000
0000
,  // measure 59
1001
0000
0000
1001
,  // measure 60
0000
0000
0110
0000
,  // measure 61
0000
0110
0000
0000
,  // measure 62
0110
0000
0000
0110
,  // measure 63
0000
0000
1001
0000
,  // measure 64
0000
1001
0000
0000
,  // measure 65
0000
1000
0000
0001
,  // measure 66
0000
0000
0001
0000
,  // measure 67
0000
0010
0000
0000
,  // measure 68
0010
0000
0000
0100
,  // measure 69
0000
0000
1000
0000
,  // measure 70
0000
1001
0000
0000
,  // measure 71
0000
0000
0000
0000
,  // measure 72
0001
0000
0000
0000
,  // measure 73
0000
0000
0000
1000
,  // measure 74
0000
0000
0000
0000
,  // measure 75
0000
0000
0000
0000
,  // measure 76
0000
0100
0000
0000
,  // measure 77
0000
0000
0000
0000
,  // measure 78
0000
0000
0000
0000
,  // measure 79
0000
0001
0000
0000
,  // measure 80
0000
0000
0000
0000
,  // measure 81
0000
0000
0000
0000
,  // measure 82
0000
0000
0000
0000
,  // measure 83
0000
0000
0000
0000
,  // measure 84
0000
0000
0000
0000
,  // measure 85
0000
0000
1000
0000
,  // measure 86
0000
0000
0000
0000
,  // measure 87
0000
0000
0001
0000
,  // measure 88
0000
0000
0000
0000
,  // measure 89
0000
0000
0000
0000
,  // measure 90
1000
0000
1000
0000
,  // measure 91
0100
0000
0001
0000
,  // measure 92
0000
0000
0000
0000
,  // measure 93
0010
0000
0010
0000
,  // measure 94
0000
0000
0000
0000
,  // measure 95
0100
0000
0000
0000
,  // measure 96
0000
0000
1000
0000
,  // measure 97
1000
0000
0001
0000
,  // measure 98
1000
0000
0000
0000
,  // measure 99
0000
0000
0000
0000
,  // measure 100
0100
0000
0100
0000
,  // measure 101
0000
0000
0100
0000
,  // measure 102
0000
0000
0000
0000
,  // measure 103
1000
0000
0001
0000
,  // measure 104
1000
0000
0001
0000
,  // measure 105
0000
0000
0000
0000
,  // measure 106
0000
0000
0000
0000
,  // measure 107
0000
0000
0000
0000
,  // measure 108
0000
0000
0000
0000
,  // measure 109
0010
0000
0000
0000
;
