#TITLE:Claiomh Solais;
#SUBTITLE:;
#ARTIST:DJ Yoshitaka VS S.S.D.;
#TITLETRANSLIT:;
#SUBTITLETRANSLIT:;
#ARTISTTRANSLIT:;
#CREDIT:;
#BANNER:bn.PNG;
#BACKGROUND:bg.PNG;
#LYRICSPATH:;
#CDTITLE:./CDTITLES/BEATMANIA IIDX.PNG;
#MUSIC:Claiomh Solais.mp3;
#OFFSET:-0.382;
#SAMPLESTART:50.884;
#SAMPLELENGTH:15.000;
#SELECTABLE:YES;
#BPMS:0.000=165.000,104.000=82.500,120.000=165.000,151.000=82.500,166.000=165.000;
#STOPS:40.000=0.364
,40.500=0.364
,102.000=0.364
,102.500=0.364
,150.000=0.364
,165.000=0.364
,165.500=0.364
,194.000=0.362
,194.500=0.360
,256.000=0.364
,256.500=0.364
;
#BGCHANGES:;

//---------------dance-single - ----------------
#NOTES:
     dance-single:
     :
     Hard:
     8:
     0.512,0.714,0.364,0.271,0.123:
0000
0000
0000
0000
,
0000
0000
0000
0000
,
0000
0000
0000
0000
,
0000
0000
0000
0000
,
0000
0000
0000
0000
0000
0000
1000
0001
,
0101
0000
0001
0001
0100
0000
1000
1000
,
0010
0000
0100
0100
0001
0000
1000
0001
,
0200
0010
0010
0010
,
0320
0100
0100
0100
,
0130
0002
2003
3010
,
1001
0011
1100
0000
0001
0001
0100
0010
,
0000
0010
0100
0001
0000
1000
0100
0010
,
0000
0010
0100
1000
0000
0010
0100
0001
,
0000
0010
1000
0100
0000
0010
1000
0001
,
1000
0000
0001
0000
1000
1000
0010
0100
,
0000
0100
0010
1000
0000
0001
0010
0100
,
0000
0100
0010
0001
0000
0100
0010
1000
,
0000
0100
0001
0010
0000
0100
0001
1000
,
0002
2003
3002
0100
,
0103
0000
0010
1000
0020
0000
0100
0000
,
0130
0000
0010
1000
0002
0000
0100
0000
,
0203
0320
0230
0000
,
0302
2003
3100
0010
,
0010
0100
0010
0000
0001
0000
1000
0000
,
0001
1000
0001
0000
0120
1000
0000
0000
,
0000
0000
0000
0000
0130
0011
0010
0100
,
0001
0000
1000
0100
1000
0000
0001
0100
0001
0000
0010
0100
0001
0000
0010
0100
,
0010
0000
0001
1000
0001
0000
1000
0100
1000
0000
0010
0100
0001
0000
0001
1000
,
0001
0000
0010
1000
0010
0000
0010
0100
0010
0000
0001
1000
0001
0000
0001
1000
,
0001
0000
0100
0000
0010
0000
1000
0000
0001
0100
0000
0100
0000
0100
0000
0100
,
0110
0110
0110
0001
,
1100
0011
0101
0010
,
1010
0101
1100
0110
,
0011
0101
1010
0010
,
0110
0110
0110
0001
,
1100
0010
0011
0001
,
0101
1100
1010
0011
,
1001
0000
0000
0000
1001
0000
0000
0000
1001
0000
0000
0000
1000
0000
0001
1000
,
0100
0000
0010
0001
0000
1000
0001
0000
0100
0000
0010
0000
0110
0000
1000
0001
,
0100
0000
0010
0100
0000
1000
0001
1000
0100
0000
0010
0001
0010
0000
1000
0000
,
0001
0000
0000
0000
0000
0000
1000
0100
1000
0000
0000
0000
0001
0000
0000
0000
0101
0000
0000
0000
0001
0000
0000
0000
1100
0000
0000
0000
1000
0000
0000
0000
,
0001
0100
0010
0000
1000
0000
0001
0000
0110
0000
0100
0000
0010
0000
1000
0000
,
0010
0100
0001
0100
0002
0000
0203
0000
,
0320
2030
3001
1100
,
0001
0110
1000
0011
,
0100
0000
0000
0000
1001
0000
1000
0001
2000
0000
0000
0000
0100
0000
0000
0000
,
3001
0000
0000
0000
0000
0000
0001
0100
0002
0000
0000
0000
0010
0000
0013
0000
,
0000
1000
0002
1000
,
1000
0000
0100
0000
0000
0003
2000
0000
,
3100
1000
1000
0010
0000
0001
0001
0100
,
0000
0001
0001
0010
0000
0010
0010
0100
,
0000
0010
0010
1000
0000
0001
0001
0100
,
0000
0001
0001
0100
0000
0010
1000
0001
,
0100
1000
1000
0100
0000
1000
1000
0100
,
0000
0010
0010
0100
0000
0010
0010
0100
,
0000
0001
0001
1000
0000
0001
0001
0100
,
0001
0010
1000
0001
,
2000
0000
0100
0000
0100
0000
3100
1000
,
0200
0000
0010
0000
0010
0000
0310
0100
,
0020
0100
0230
0320
,
2030
0000
0001
0000
0001
0000
3001
0100
,
0020
0100
0100
0100
0000
0100
0100
0100
,
0000
0100
0100
0100
0000
0100
0130
0010
,
0100
0010
0000
1000
0000
0001
0000
1000
,
0101
0110
1010
0000
2002
0000
0000
0000
,
0000
0000
0000
0000
,
0000
0000
0000
0000
,
0000
0000
0000
0000
0000
0000
0000
0000
3000
0003
0000
0000
0000
0000
0000
0000
;

//---------------dance-single - ----------------
#NOTES:
     dance-single:
     :
     Medium:
     5:
     0.384,0.485,0.330,0.338,0.000:
0000
0000
0000
0000
,
0000
0000
0000
0000
,
0000
0000
0000
0000
,
0000
0000
0000
0000
,
0000
0000
0000
0000
0000
0000
0001
1000
,
0002
0000
2003
0000
,
3020
0000
0230
0000
,
0320
0000
0000
0000
,
0000
0000
0000
0000
,
0200
0000
0000
0330
,
0001
1000
0001
0000
1000
0000
0100
0000
,
0010
0001
0200
0001
,
0001
0000
0301
0100
0002
0000
0100
0000
,
0203
0320
2030
3010
,
0010
0000
0100
0010
0100
0000
0020
0000
,
0130
2000
3100
0020
,
0031
0200
0310
2000
,
3001
0100
1010
0010
,
0100
0000
0001
1000
0001
0000
1000
0100
,
0000
0010
0001
0010
0000
0001
0100
0001
,
0000
0010
0100
0000
0000
0010
0100
0010
,
0000
0001
1000
0001
0000
1000
0100
1000
,
0000
0010
1000
0000
0001
0000
1000
0000
,
0001
0100
0001
0000
0010
0000
1000
0000
,
0010
0100
0010
0000
0001
1000
0000
0001
,
0000
0010
0000
0100
1000
0100
0010
0001
,
0020
0000
0031
0000
0100
0010
0100
0000
,
0010
0000
1000
0000
0001
0100
0010
0000
,
0110
0000
0010
0000
1000
0001
0100
0000
,
0020
2030
0200
3300
,
0101
1010
1001
0000
,
0011
0101
1010
0000
,
0110
0110
1001
1001
,
0110
1001
0110
1000
,
1100
1100
1100
0000
,
0101
0101
0101
0000
,
0110
1010
0011
1100
,
0001
0001
0001
1000
,
0001
0000
0100
0010
0100
0000
0010
0000
,
1000
0000
0001
1000
0100
0000
0010
0000
,
0001
0000
0100
0010
1000
0000
0001
0000
,
1000
0000
0001
1000
0002
0000
1000
0000
,
1000
1003
2000
3200
,
2300
3200
1300
1000
,
1000
1000
0110
0010
,
0110
0010
0020
0000
,
0000
0000
0230
0000
,
0001
0000
0302
0000
,
2003
0000
3001
0000
,
1001
1000
0001
0100
,
0101
0010
0100
0010
,
1010
0010
0100
0010
,
2000
0010
0010
3010
,
0001
0000
0100
0000
0010
0000
1000
0001
,
1000
0000
0010
0100
0010
0000
0100
0000
,
0120
0230
0320
2030
,
0002
0000
0000
0000
3003
0000
0001
1000
,
0001
0000
0100
0000
0010
0000
1000
0010
,
1000
0000
0010
0000
0100
0000
0001
1000
,
0001
0000
0100
0000
0001
0100
0001
0000
,
0220
0300
0200
0330
,
1010
0010
0110
0010
,
0011
0001
0101
0010
,
1001
0010
1000
0100
,
0001
1010
0100
0000
0202
0000
0000
0000
,
0000
0000
0000
0000
,
0000
0000
0000
0000
,
0000
0000
0303
0000
;

//---------------dance-single - ----------------
#NOTES:
     dance-single:
     :
     Easy:
     4:
     0.275,0.400,0.093,0.296,0.000:
0000
0000
0000
0000
,
0000
0000
0000
0000
,
0000
0000
0000
0000
,
0000
0000
0000
0000
,
0000
0000
0000
0000
,
0001
0000
1000
0000
,
0010
0000
0100
0010
,
2000
0000
0000
0000
,
0000
0000
0000
0000
,
0002
0000
0000
0000
,
3003
0000
0010
0100
,
0000
0010
0000
1000
,
0000
0001
1000
0000
,
0001
0100
0010
0000
,
1000
0010
0200
0000
,
0310
0000
0020
0000
,
0130
0000
0001
1000
,
0001
0100
0020
0000
,
0000
0030
1000
0001
,
0000
1000
0000
0010
,
0000
0100
0000
0010
,
0000
1000
0000
0001
,
1000
0001
0100
0001
,
0000
0100
0000
0010
,
0000
1000
2000
0000
,
0000
0000
3000
0000
0001
1000
0001
0000
,
2000
3001
0100
0010
,
0020
0000
0130
0000
0010
0100
0010
0000
,
1000
0001
1000
0001
,
0100
0010
1000
0002
0200
0000
0303
0000
,
1000
1000
1001
0000
,
0001
0001
0101
0000
,
0010
0010
0100
0100
,
0010
0100
0110
0000
,
1000
0001
0101
0000
,
0001
1000
1100
0000
,
0110
0010
0110
0010
,
1001
0110
1001
1000
,
0001
0000
0100
0010
1000
0001
0100
0000
,
0100
0010
0100
0001
,
0000
1000
0001
0100
,
0010
1000
0001
1000
0001
0000
1000
0000
,
0001
0100
0002
1000
,
1003
0000
1000
0001
,
1000
0010
1000
0010
,
0010
0010
0200
0010
,
0310
0000
0020
0100
,
0130
0000
0001
0000
,
1000
0000
0001
0000
,
2000
0100
3100
0010
,
0002
0010
0013
0001
,
0200
0310
1000
0001
,
0200
0000
0300
0001
,
2000
3001
0200
0310
,
2000
3010
0200
0310
,
0002
0000
1000
1000
,
2000
0000
3003
0000
,
0020
1000
1030
0000
,
2000
0100
3100
0000
,
0002
0103
2000
3100
,
0020
0000
0030
0000
,
0020
0130
2000
3001
,
2000
3100
0020
0031
,
0200
0000
0000
0000
,
0310
1000
0001
0000
2002
0000
0000
0000
,
0000
0000
0000
0000
,
0000
0000
0000
0000
,
0000
0000
3003
0000
;

//---------------dance-single - ----------------
#NOTES:
     dance-single:
     :
     Beginner:
     2:
     0.109,0.191,0.008,0.000,0.000: // measure 1
0000
0000
0000
0000
,  // measure 2
0000
0000
0000
0000
,  // measure 3
0000
0000
0000
0000
,  // measure 4
0000
0000
0000
0000
,  // measure 5
0000
0000
0000
0000
,  // measure 6
0001
0000
0000
0000
,  // measure 7
1000
0000
0000
0000
,  // measure 8
0010
0000
0000
0000
,  // measure 9
0000
0000
0000
0000
,  // measure 10
0100
0000
0000
0000
,  // measure 11
0000
0000
0001
0000
,  // measure 12
0000
0000
1000
0000
,  // measure 13
0000
0000
0010
0000
,  // measure 14
0100
0000
0100
0000
,  // measure 15
0000
0000
0010
0000
,  // measure 16
1000
0000
0001
0000
,  // measure 17
0100
0000
0010
0000
,  // measure 18
0000
0000
1000
0000
,  // measure 19
0000
0000
0001
0000
,  // measure 20
0000
0000
1000
0000
,  // measure 21
0000
0000
0010
0000
,  // measure 22
0100
0000
0100
0000
,  // measure 23
0000
0000
1000
0000
,  // measure 24
0001
0000
0100
0000
,  // measure 25
0010
0000
1000
0000
,  // measure 26
0000
0000
1001
0000
,  // measure 27
0100
0000
0000
0000
,  // measure 28
0100
0000
0000
0000
,  // measure 29
0001
0000
0000
0000
,  // measure 30
1000
0000
0000
0000
,  // measure 31
0010
0010
0010
0000
,  // measure 32
0100
0100
0100
0000
,  // measure 33
1000
1000
1000
0000
,  // measure 34
0001
0001
0001
0000
,  // measure 35
1000
0100
1000
0000
,  // measure 36
0001
0100
0001
0000
,  // measure 37
0010
0000
0100
0000
,  // measure 38
0010
0010
0010
1000
,  // measure 39
0000
0000
0000
0001
,  // measure 40
0000
0000
0000
0100
,  // measure 41
0000
0100
0000
0010
,  // measure 42
0000
0000
0001
0000
,  // measure 43
0000
0000
1000
0000
,  // measure 44
0001
0000
0100
0000
,  // measure 45
0000
0000
0000
0000
,  // measure 46
0000
0000
0010
0000
,  // measure 47
0000
0000
1000
0000
,  // measure 48
0000
0000
0001
0000
,  // measure 49
0000
0000
0000
0000
,  // measure 50
1000
0000
0000
0000
,  // measure 51
0001
0000
0000
0000
,  // measure 52
0100
0000
0000
0000
,  // measure 53
0010
0000
0000
0000
,  // measure 54
1000
0000
0001
0000
,  // measure 55
0100
0000
0010
0000
,  // measure 56
1000
0000
0001
0001
,  // measure 57
0001
0000
0000
0000
,  // measure 58
1000
0000
0000
0000
,  // measure 59
0010
0000
0000
0000
,  // measure 60
0100
0000
0010
0000
,  // measure 61
1000
0000
0000
0000
,  // measure 62
0001
0000
0001
0000
,  // measure 63
1000
0000
1000
0000
,  // measure 64
0001
0000
0000
0000
,  // measure 65
0010
0000
0100
0000
;
