#TITLE:Candy Galy;
#SUBTITLE:;
#ARTIST:Risk Junk-G;
#TITLETRANSLIT:;
#SUBTITLETRANSLIT:;
#ARTISTTRANSLIT:;
#CREDIT:;
#BANNER:bn.PNG;
#BACKGROUND:bg.PNG;
#LYRICSPATH:;
#CDTITLE:NEMESetupLOGO.PNG;
#MUSIC:1-02 Candy Galy.mp3;
#OFFSET:-4.310;
#SAMPLESTART:76.019;
#SAMPLELENGTH:12.000;
#SELECTABLE:YES;
#BPMS:0.000=184.000,123.000=46.000,131.000=92.000,155.000=184.000;
#STOPS:117.000=0.163
,118.500=0.163
,300.000=0.163
,301.500=0.163
;
#BGCHANGES:;

//---------------dance-single - ----------------
#NOTES:
     dance-single:
     :
     Hard:
     8:
     0.564,0.703,0.056,0.161,0.076:
0000
0000
0000
0000
0000
0000
0000
0001
,
1000
0001
0010
0000
1000
0100
1000
0100
,
0000
0001
0010
0000
0100
0001
0100
0001
,
0000
0000
0100
0000
0001
1000
0001
1000
,
0000
1000
0100
0000
0010
0100
0001
1000
,
0000
1000
0100
0000
0010
0001
0010
1000
,
0001
0100
0001
0000
0010
1000
0010
1000
,
0001
1000
0001
0000
1000
0100
0010
0001
,
0100
0001
1000
0000
0001
1000
0010
1000
,
0001
0100
0010
0000
1000
0100
0010
0001
,
0010
0100
0001
0000
0001
1000
0001
1000
,
0000
0010
1000
0000
1000
0100
0010
0000
,
0001
0000
1000
0000
0010
0100
0010
0000
,
0000
1000
0001
1000
0010
1000
0001
1000
,
0000
1000
0100
0001
1000
0001
0100
1000
,
0000
1000
0100
0010
0001
0010
1000
0001
,
0000
0001
1000
0001
1000
0001
0100
1000
,
0000
0001
1000
0001
1000
0010
1000
0001
,
0000
1000
0001
1000
0001
0100
0001
1000
,
0000
0001
1000
0001
1000
0010
1000
0001
,
0000
1000
0100
0010
0001
0001
0100
0001
,
1000
0010
1000
0010
1000
0001
0100
0001
,
0000
1000
0001
1000
0010
1000
0001
1000
,
0000
1000
0100
0001
0100
0001
1000
0100
,
0000
0001
1000
0001
1000
0010
1000
0001
,
0000
1000
0100
0010
0001
0010
0100
1000
,
0000
0001
1000
0001
1000
0010
1000
0010
,
1000
0100
1000
0000
0010
0001
0010
0000
,
0100
0001
0100
0001
1000
0010
0100
0000
,
1000
1000
1000
0001
0001
0001
0001
0010
,
0100
0000
1000
0000
0100
0000
0000
0000
0000
0000
0000
0000
0011
0001
0010
0100
,
1000
0100
1000
0100
0001
1000
0001
1000
0100
0001
0100
0001
0010
0000
1000
0000
,
0100
0000
0001
0000
1000
0000
0000
0100
0010
0001
0010
0100
1000
0000
0001
1000
,
0001
0000
0100
0000
0001
0000
0001
0100
0001
0000
0100
0000
0010
0000
1000
0100
,
1000
0000
0100
0000
1000
0000
0100
1000
0100
0000
1000
0000
0100
0000
0000
0000
,
0010
0000
0001
0000
1000
0000
0000
0001
,
0010
0100
1000
0100
0010
0001
1001
0000
,
0010
0000
0100
0010
0100
0010
1000
0100
,
0010
0001
1000
0100
0010
0001
1000
0100
,
0010
0001
1000
0100
0010
0001
0010
0100
,
1000
0100
0010
0001
0010
0100
0001
0000
,
0000
1000
0001
0001
0100
0010
0100
0001
,
0100
0000
0010
0000
1000
0100
1000
0100
1000
0100
0010
0001
0010
0000
0000
0000
,
0001
0100
0001
0100
,
1000
0000
1000
0100
0010
0001
1000
0000
,
0001
0100
0010
1000
,
0001
0000
1000
0100
0010
0001
1000
0000
,
0001
0000
1000
0001
1000
0000
0001
0000
,
0100
0000
0001
0100
0001
0000
1000
0000
,
0100
0010
0001
2000
,
3100
0020
0031
1002
,
1003
0000
1000
0100
1000
0000
0010
0000
,
0100
0000
0010
0100
0001
1000
0010
0000
,
1000
0000
0010
1000
0010
0000
0100
0000
,
0001
0000
1000
0100
0010
0001
0010
0100
,
0001
0000
0001
0100
0001
0000
1000
0100
,
1000
0010
0100
1000
,
0010
1000
0002
2003
,
3020
0230
0320
0130
,
0000
1000
0100
0020
0000
0000
0030
0000
,
0000
0001
0100
0002
0000
0000
0003
0000
,
0000
0001
0010
0200
0000
0000
0300
0000
,
0000
0001
1000
0020
0000
0000
1030
0100
,
1000
0000
0010
0001
0010
0000
0100
0001
,
0100
0000
0010
1000
0010
0000
2000
0000
,
3100
0020
0031
0200
,
0301
0020
1030
2002
,
0000
3003
0000
0001
,
0000
0000
1000
0100
0010
0001
0010
0000
,
0100
0000
0001
0100
0001
0000
0100
0000
,
1000
0000
0010
1000
0010
1000
0100
1000
,
0100
0000
0010
0001
0010
0000
0100
0001
,
0100
0000
1000
0100
1000
0000
1010
0000
,
0010
0110
0001
0002
,
1003
0000
0200
0000
0310
0000
1000
1000
,
1000
0001
0001
0001
0010
0100
1000
0001
,
1001
0000
0000
0000
;

//---------------dance-single - ----------------
#NOTES:
     dance-single:
     :
     Medium:
     6:
     0.454,0.459,0.105,0.129,0.000: // measure 1
0000
0000
0000
0000
,  // measure 2
1000
0001
1000
0001
,  // measure 3
0100
0001
0100
0001
,  // measure 4
0010
1000
0010
1000
,  // measure 5
0001
1000
0001
1000
,  // measure 6
0001
0000
0100
0000
0001
0100
0001
0000
,  // measure 7
0001
0000
1000
0000
0001
1000
0001
0000
,  // measure 8
0100
0000
0010
0000
0100
0010
0100
0000
,  // measure 9
1000
0000
0100
0000
0010
0001
0010
0000
,  // measure 10
0100
0000
0001
0000
0010
1000
0010
0000
,  // measure 11
1000
0000
0100
0000
0010
0001
0010
0000
,  // measure 12
0100
1000
0001
1000
,  // measure 13
0010
1000
0010
1000
,  // measure 14
0000
0001
1000
0001
1000
0001
1000
0001
,  // measure 15
0000
0001
1000
0001
1000
0001
1000
0001
,  // measure 16
0000
0001
1000
0001
1000
0001
1000
0001
,  // measure 17
0000
0010
0100
0010
0100
0010
0100
0010
,  // measure 18
0000
0010
0100
0010
0100
0010
0100
0010
,  // measure 19
0000
0010
0100
0010
0100
0010
0100
0010
,  // measure 20
0000
0001
1000
0001
1000
0001
1000
0001
,  // measure 21
0000
2000
3100
0020
,  // measure 22
0031
0010
0001
0010
0001
0010
0001
0010
,  // measure 23
0000
0100
1000
0100
1000
0100
1000
0100
,  // measure 24
0000
0001
0100
0001
0100
0001
0100
0001
,  // measure 25
0000
0010
1000
0010
1000
0010
1000
0010
,  // measure 26
1000
0000
0001
0000
0100
0010
0100
0000
,  // measure 27
1000
0000
0100
0000
0010
0001
0010
0000
,  // measure 28
0100
0001
0100
0000
0010
1000
0010
0000
,  // measure 29
1000
0100
1000
0000
0010
0001
0010
0000
,  // measure 30
1000
0001
1000
0001
1000
0001
1000
0100
,  // measure 31
0010
0001
0010
0000
0000
0000
1100
0000
,  // measure 32
0001
0000
0010
0000
0100
0000
1000
0001
,  // measure 33
0010
0100
1000
0000
0000
0000
1000
1000
,  // measure 34
1000
0000
0001
0001
0001
0000
0010
0010
,  // measure 35
0010
0000
0100
0100
0100
0000
0010
0000
,  // measure 36
1000
0100
0010
0001
,  // measure 37
1000
0000
1000
0100
0010
0000
0101
0000
,  // measure 38
0001
0000
0001
1000
0001
0000
0110
0010
,  // measure 39
0100
0000
0110
0010
0100
0000
1100
0000
,  // measure 40
0100
1100
0010
0011
,  // measure 41
0101
1010
0110
0001
,  // measure 42
0000
1000
1000
0001
,  // measure 43
0100
0020
0000
0130
,  // measure 44
0010
1000
0010
0100
,  // measure 45
0001
0000
1000
0100
1000
0100
1000
0000
,  // measure 46
0100
0010
0001
0100
,  // measure 47
0001
0000
0001
0100
0001
0100
0001
0000
,  // measure 48
0001
1000
1000
0010
,  // measure 49
0010
0100
0100
0010
,  // measure 50
1000
0001
0100
2000
,  // measure 51
3100
0020
0031
2002
,  // measure 52
0000
0000
3003
1000
,  // measure 53
0000
0000
1000
0001
1000
0001
1000
0000
,  // measure 54
0001
1000
0010
1000
,  // measure 55
0010
0000
0001
0100
0001
0100
0001
0000
,  // measure 56
0100
1000
0100
0001
,  // measure 57
0100
1000
0010
1010
,  // measure 58
1000
0100
0010
0002
,  // measure 59
0013
0200
1300
0000
,  // measure 60
0000
0010
1000
0020
0000
0000
0030
0000
,  // measure 61
0000
0001
0100
0002
0000
0000
0003
0000
,  // measure 62
0000
0001
1000
0002
0000
0000
0000
0003
,  // measure 63
0000
1000
0100
1000
0000
0000
1000
0000
,  // measure 64
1000
0001
0001
0100
,  // measure 65
0100
0010
0010
1000
,  // measure 66
0100
0001
0010
0002
,  // measure 67
0013
0200
1300
1010
,  // measure 68
0010
1000
0100
0010
,  // measure 69
0001
0000
0001
1000
0001
1000
0001
0000
,  // measure 70
0100
0001
0100
1000
,  // measure 71
0100
0000
0010
1000
0010
1000
0100
0000
,  // measure 72
1000
0100
0010
0001
,  // measure 73
0100
0001
0100
0010
,  // measure 74
1000
0010
1000
0002
,  // measure 75
1003
0000
2000
0000
3100
0000
1000
0100
,  // measure 76
1000
0010
0001
0010
0001
0010
0100
1000
,  // measure 77
0100
0000
0000
0000
;

//---------------dance-single - ----------------
#NOTES:
     dance-single:
     :
     Easy:
     4:
     0.295,0.336,0.097,0.177,0.000:
0000
0000
0000
0000
,
1000
1000
0001
0001
,
1000
1000
0001
0001
,
0100
0001
0010
1000
,
0010
1000
0100
0010
,
0001
0010
0002
0103
,
0001
0100
0002
0103
,
0010
1000
0020
1030
,
0010
1000
2000
3010
,
1000
0001
0200
0301
,
0100
0001
0010
1000
,
0001
1000
0000
0000
,
0000
0000
0000
0000
,
0000
0001
1000
0001
,
0000
1000
0100
1000
,
0000
0010
0001
0010
,
0000
0100
0001
0100
,
0000
0010
1000
0010
,
0000
1000
0001
0100
,
0000
0010
1000
0001
,
0000
1000
1000
0001
,
1001
0001
1000
0001
,
0100
0001
0100
0000
,
0010
1000
0010
0000
,
1000
0100
0010
0001
,
1000
0001
0001
0001
,
1000
1000
0100
0100
,
0010
0001
0010
0001
,
0100
1000
0001
1000
,
0001
0000
0000
1000
0000
0000
0001
0000
,
1000
1001
0000
1000
,
0100
0010
0001
1000
,
0001
0100
0000
1000
,
0000
0001
0000
0100
,
0000
0010
0000
1000
,
0000
0001
0000
0100
,
0000
0000
0000
1001
,
0000
0000
0000
1000
,
0000
1000
0000
1000
,
0000
1000
0000
1000
,
1000
1000
1000
1001
,
0000
0001
0001
0100
,
0001
0100
0010
2020
,
0000
0000
3030
0010
,
1000
0001
0001
1000
,
0001
1000
0001
1000
,
0001
0100
0100
0010
,
0000
0010
0000
1000
,
0000
0001
0000
0100
,
0000
0010
0000
2000
,
3100
0020
0031
2002
,
0000
0000
3003
0001
,
0000
1000
1000
0001
,
1000
0001
1000
0001
,
0100
0002
0000
0103
,
0000
0100
0000
0010
,
0000
1000
0000
0001
,
0000
1000
0000
0100
,
1000
0100
1000
0100
,
0000
0002
0000
0003
,
0000
2000
0000
3000
,
0000
0020
0000
0030
,
0000
0200
0000
2300
,
3100
0020
0031
0200
,
0301
0020
1030
0001
,
1000
0001
1000
0001
,
0100
0010
1000
2002
,
0000
0000
0000
3000
0000
0000
1003
0000
,
0000
1000
1000
0001
,
0100
0001
0100
0001
,
0100
0010
1000
0001
,
0000
1000
0000
0100
,
0000
0010
0000
0011
,
0000
1100
0000
1010
,
0001
0101
1000
0001
,
0000
1000
0000
0000
0001
0000
1000
0000
,
1001
0000
0000
0000
;

//---------------dance-single - ----------------
#NOTES:
     dance-single:
     :
     Beginner:
     2:
     0.092,0.214,0.040,0.000,0.000:
0000
0000
0000
0000
,
1000
0000
0000
0000
,
0000
0000
0000
0000
,
0001
0000
0000
0000
,
0000
0000
0000
0000
,
0010
0000
0000
0000
,
0000
0000
0000
0000
,
0100
0000
0000
0000
,
0000
0000
0000
0000
,
1000
0000
0000
0000
,
0000
0000
0000
0000
,
0001
0000
0000
0000
,
0000
0000
0000
0000
,
0100
0000
0000
0000
,
0100
0000
0000
0000
,
0100
0000
0000
0000
,
0100
0000
0000
0000
,
0001
0000
0000
0000
,
0001
0000
0000
0000
,
0001
0000
0000
0000
,
0001
0000
0000
0000
,
1000
0000
0000
0000
,
1000
0000
0000
0000
,
1000
0000
0000
0000
,
1000
0000
0000
0000
,
0010
0000
0000
0000
,
0010
0000
0000
0000
,
0010
0000
0010
0000
,
0010
0000
0010
0000
,
1000
0000
0000
1000
0000
0000
1000
0000
,
0000
0000
0000
1001
,
0000
0000
0000
0000
,
0000
0000
0000
0100
,
0000
0000
0000
0010
,
0000
0000
0000
1000
,
0000
0000
0000
0001
,
0000
0000
0000
1000
,
0000
0000
0000
1000
,
0000
0000
0000
1000
,
0000
0000
0000
1000
,
0000
0001
0000
1000
,
0000
0000
0000
0000
,
0000
0000
0000
0110
,
0000
0000
0000
0000
,
0000
0100
0100
0000
,
0000
0000
0000
0000
,
0000
1000
1000
0000
,
0000
0000
0000
0000
,
0000
0000
0001
0001
,
0000
0000
0000
0100
,
0000
0000
0000
1001
,
0000
0000
0000
0000
,
0000
0010
0010
0000
,
0000
0000
0000
0000
,
0000
0100
0100
0000
,
0000
0000
0000
0000
,
0000
0000
1000
1000
,
0000
0000
0000
0000
,
0000
0000
0000
0000
,
0000
0001
0000
0000
,
0000
0001
0000
0000
,
0000
1000
0000
0000
,
0000
0100
0000
0010
,
0000
0000
0000
0010
,
0000
0000
0000
0100
,
0000
0000
0000
1000
,
0000
0000
0000
1001
,
0000
0000
0000
0000
,
0000
0001
0001
0000
,
0000
0000
0000
0000
,
0000
1000
1000
0000
,
0000
0000
0000
0000
,
0000
0000
0010
0010
,
0000
0000
0000
0100
,
0000
0010
0000
1000
,
0000
0001
0000
0000
1000
0000
0001
0000
,
1001
0000
0000
0000
;
