#TITLE:CLUB 115;
#SUBTITLE:;
#ARTIST:COZY KUBO;
#TITLETRANSLIT:;
#SUBTITLETRANSLIT:;
#ARTISTTRANSLIT:;
#CREDIT:;
#BANNER:bn.PNG;
#BACKGROUND:bg.PNG;
#LYRICSPATH:;
#CDTITLE:GOTTAMIX.png;
#MUSIC:CLUB 115.mp3;
#OFFSET:0.090;
#SAMPLESTART:62.300;
#SAMPLELENGTH:12.500;
#SELECTABLE:YES;
#DISPLAYBPM:150.000;
#BPMS:0.000=149.980,140.000=150.080,176.000=150.000,228.000=154.000;
#STOPS:;
#BGCHANGES:;

//---------------dance-single - ----------------
#NOTES:
     dance-single:
     :
     Hard:
     7:
     0.410,0.520,0.361,0.000,0.000:
0000
0000
0000
0000
,
0000
0000
0000
0000
,
0000
0000
0000
0000
,
0000
0000
0000
0000
,
0000
0000
0000
0000
,
1000
0000
0100
0000
,
0010
0000
0000
0000
0001
0100
0010
0000
,
1000
0100
0010
0001
0010
1000
0001
1000
,
0010
1000
0001
1000
0100
1000
0100
1000
,
0010
1000
0010
1000
0010
1000
0010
0100
,
0101
0000
1010
0000
,
0000
0001
1000
0010
0100
1000
0000
1000
,
0100
0010
0001
0010
0000
0100
0000
1000
,
0000
0000
0001
0101
0000
0000
0010
0000
,
0110
1000
1010
0001
,
0000
0001
1000
0010
0100
1000
0000
0001
,
1000
0100
0010
0001
0000
0110
0000
0010
,
0100
0000
0000
1001
0000
1010
0000
0000
,
0010
0100
0000
1000
0100
0000
0010
0000
,
0001
0100
0000
0110
0000
0010
0100
0000
,
1000
0000
0000
1100
0000
0010
1000
0000
,
0101
0000
0000
0110
0000
1000
0100
0000
,
0011
0000
0000
1100
0000
0010
1000
0010
,
0011
0000
0000
0011
0000
0010
0100
0000
,
1100
0000
0000
0110
0000
0001
1000
0000
,
1010
0000
0000
0101
0000
1000
0100
0000
,
1100
0110
0011
1001
,
0100
0001
0010
1000
0100
1000
0000
0010
,
1000
0001
0100
1000
0000
0100
0000
0100
,
0000
0000
0000
0000
,
0000
0000
0000
0000
,
0000
1000
0010
0100
1000
0100
0000
0010
,
1000
0001
0100
1000
0000
0100
0000
0001
,
0000
0000
0000
0000
,
0000
0000
0000
0000
,
1100
0000
0011
0000
0001
0100
0010
0000
,
1000
0000
1010
0000
0100
1000
0010
0000
,
0110
0000
1001
0000
1000
0100
0010
0000
,
0001
0000
0011
0000
0100
1000
0010
0000
,
0001
0100
0010
0100
0001
0100
0010
0100
,
0001
0100
0010
0100
0001
0100
0010
0100
,
1000
0100
0010
1000
0100
0010
1000
0100
,
0010
0100
1000
0100
0010
1000
0001
0100
,
0001
0000
0000
0000
,
0000
1000
0100
0010
1000
0001
0000
0100
,
1000
0010
0100
1000
0000
1100
0000
1100
,
0000
0001
1000
0010
0100
1000
0000
0000
,
0000
1100
0000
0000
0011
0000
0000
0000
,
1000
0000
0100
0000
0010
1000
0001
0000
,
0100
0000
1000
0000
0100
1000
0010
0000
,
0001
0000
0010
0000
0100
1000
0010
0000
,
0001
0000
1000
0000
0001
0100
0010
0000
,
0100
0000
1000
0000
0010
0100
1000
0000
,
0001
0000
0010
0000
0001
0100
0010
0000
,
1000
0000
0100
0000
0010
0001
0010
0000
,
0100
0000
1000
0000
0010
0100
1000
0000
,
1001
0000
0000
0000
;

//---------------dance-single - ----------------
#NOTES:
     dance-single:
     :
     Medium:
     5:
     0.323,0.376,0.144,0.000,0.000:
0000
0000
0000
0000
,
0000
0000
0000
0000
,
0000
0000
0000
0000
,
0000
0000
0000
0000
,
0000
0000
0000
0000
,
1000
0000
0001
0000
,
0010
0000
0000
0000
0100
1000
0100
0000
,
1000
0100
0010
0001
,
1000
0100
0010
1000
,
0001
0010
0100
1000
,
1100
0010
0011
0100
,
1000
0000
0100
0000
0010
0100
0000
0010
,
0100
0000
1000
0100
0000
0010
0000
0010
,
0001
0000
0001
0000
,
1000
0100
0110
0001
,
1000
0000
0010
0000
0100
1000
0000
0100
,
1000
0000
0100
1000
0000
0010
0000
0010
,
0010
0100
1000
0010
,
0001
0010
0100
1000
,
0001
0000
1000
0000
0100
1000
0010
0000
,
0100
1000
0000
0010
,
0110
0000
0000
1000
0000
0100
1000
0000
,
0010
0001
0010
0100
0000
1000
0000
0000
,
0100
0000
1000
0100
0000
0010
0001
0000
,
0010
0000
0100
1000
0000
0000
0010
0000
,
0001
0100
0000
0010
0000
1000
0100
0000
,
0001
1000
0100
1000
0100
0010
0001
0000
,
0000
1000
0100
1000
0100
1000
0000
0000
,
0010
0100
0010
0100
0000
0000
0000
0000
,
0000
0000
0000
0000
,
0000
0000
0000
0000
,
0000
0001
0100
0001
0100
0001
0000
0010
,
1000
0010
1000
0010
0000
1000
0000
0001
,
0000
0000
0000
0000
,
0000
0000
0000
0000
,
1001
0000
0000
0010
0000
0000
0000
0000
,
0100
0000
1000
0000
0010
1000
0010
0000
,
0011
0000
0000
0011
0000
0000
0000
0000
,
0100
0000
1000
0000
0001
0100
0010
0000
,
1100
0000
0010
0100
0000
1000
0100
0000
,
0010
0000
0001
0100
0000
0010
1000
0000
,
1100
0000
0010
0100
0000
0001
1000
0000
,
1010
0000
0010
0100
0000
0001
1000
0000
,
1010
0000
0000
0000
,
0000
0001
1000
0000
0001
1000
0000
0010
,
0100
0000
1000
0100
0000
0010
0000
0010
,
0001
0000
0100
0000
1000
0100
0000
0000
,
0000
1100
0000
0000
0011
0000
0000
0000
,
0010
0000
0100
0000
1000
0100
1000
0000
,
0010
0000
1000
0000
0001
0100
0010
0000
,
1000
0100
0010
0001
,
0100
0000
1000
0000
0010
0100
0001
0000
,
1000
0000
0100
0000
0010
1000
0010
0000
,
0100
0000
0010
0000
0001
0100
0010
0000
,
0001
0000
1000
0000
0100
1000
0010
0000
,
0100
0010
0001
0100
,
1001
0000
0000
0000
;

//---------------dance-single - ----------------
#NOTES:
     dance-single:
     :
     Easy:
     4:
     0.273,0.376,0.155,0.000,0.000:
0000
0000
0000
0000
,
0000
0000
0000
0000
,
0000
0000
0000
0000
,
0000
0000
0000
0000
,
0000
0000
0000
0000
,
0010
0000
0001
0000
,
0100
0000
0000
0000
0001
1000
0001
0000
,
0100
1000
0010
0001
,
0100
0010
1000
0100
,
0010
0001
1000
0010
,
0110
0010
0110
0100
,
1000
0100
0010
0000
,
0001
0000
0100
0000
0000
1000
0000
1000
,
0010
0000
0000
0010
0000
0000
0000
0000
,
0100
0000
0100
0000
,
1000
0001
0100
1000
,
0100
0000
0010
0000
0000
0001
0000
1000
,
0100
1000
0010
0001
,
0100
1000
0010
0100
,
0001
1000
0100
0010
,
0001
1000
0100
0010
,
1010
0010
0001
0100
,
1001
0010
0100
1000
,
0011
0001
0100
1000
,
0010
0100
1000
0100
,
1000
0100
0001
0010
,
1001
1010
0011
1100
,
0010
0100
1000
0100
,
0010
0000
0001
0000
0010
0100
0000
0100
,
0000
0000
0000
0000
,
0000
0000
0000
0000
,
0001
1000
0100
0010
,
0001
0000
0100
0000
1000
0100
0000
0001
,
0000
0000
0000
0000
,
0000
0000
0000
0000
,
0010
0000
0100
0000
1000
0100
1000
0000
,
0010
1000
0010
0001
,
1000
0100
0010
1000
,
0001
0000
0100
0000
0001
0100
0001
0000
,
1001
0000
0000
1001
0000
0000
0000
0000
,
0110
0000
0000
0110
0000
0000
0000
0000
,
0010
0000
0000
1000
0000
0000
0000
0000
,
0100
0000
0000
0001
0000
0000
0000
0000
,
0010
0000
0000
0000
,
1000
0100
0010
0000
,
0001
0000
0100
0000
0000
1000
0000
0001
,
0000
0010
0100
0000
,
0000
1000
0000
0000
1100
0000
0000
0000
,
0010
1000
0001
0100
,
1000
0010
0001
0100
,
0010
1000
0100
0010
,
0001
1000
0001
0100
,
0010
0100
1000
0100
,
0010
0001
0100
1000
,
0100
0010
0001
0100
,
1000
0010
0001
0100
,
1001
0000
0000
0000
;
