#TITLE:CLIO;
#SUBTITLE:;
#ARTIST:co-ping;
#TITLETRANSLIT:;
#SUBTITLETRANSLIT:;
#ARTISTTRANSLIT:;
#CREDIT:;
#BANNER:bn.PNG;
#BACKGROUND:bg.PNG;
#LYRICSPATH:;
#CDTITLE:pop'n music.PNG;
#MUSIC:CLIO.mp3;
#OFFSET:-1.245;
#SAMPLESTART:16.840;
#SAMPLELENGTH:14.280;
#SELECTABLE:YES;
#DISPLAYBPM:138.000;
#BPMS:0.000=138.000;
#STOPS:32.000=1.304
;
#BGCHANGES:;

//---------------dance-single - ----------------
#NOTES:
     dance-single:
     :
     Hard:
     6:
     0.359,0.375,0.172,0.381,0.036: // measure 1
0000
0000
0000
0000
,  // measure 2
0000
0000
0000
0000
,  // measure 3
0000
0000
0000
0000
,  // measure 4
0000
0000
0000
0000
,  // measure 5
0002
0000
0000
1003
0000
0000
0001
0000
,  // measure 6
0200
0000
0000
0300
,  // measure 7
0020
0000
0000
0130
0000
0000
1000
0000
,  // measure 8
0200
0000
0020
0000
,  // measure 9
0330
0000
0000
0000
0011
0000
0000
0000
0000
0000
0000
0000
1000
0000
0000
0001
,  // measure 10
0000
0100
0010
0000
0000
0000
0000
0000
,  // measure 11
0000
0000
0110
0000
0000
0010
0100
0010
,  // measure 12
0000
0000
0001
0000
0000
0000
0000
0000
0000
0000
1000
0100
1000
0000
0000
0000
,  // measure 13
0000
0000
0000
0000
0101
0000
0000
0000
0000
0000
0000
0100
0010
0000
0000
0001
,  // measure 14
0000
1000
0001
0000
0000
0000
0000
0001
,  // measure 15
0010
0100
1000
0000
0000
0000
0000
0010
,  // measure 16
0100
2000
0200
0000
0000
0000
0000
0000
,  // measure 17
3300
0000
0010
1000
0010
2000
0000
0010
,  // measure 18
0000
0020
0000
0000
0000
0000
3030
0000
,  // measure 19
0000
0000
0001
1000
0010
0100
0000
0010
,  // measure 20
0000
0200
0000
0000
0000
0000
0300
0010
,  // measure 21
0100
1000
0001
0000
0000
0001
0000
0000
,  // measure 22
0001
0100
0000
0000
0000
0000
0000
0000
,  // measure 23
0000
0000
0002
0000
0103
0000
0010
0200
,  // measure 24
0010
0300
0020
0000
1030
0000
0001
0200
,  // measure 25
0010
0300
0002
0000
1003
0000
0100
2000
,  // measure 26
0100
3000
1100
0000
0000
0101
0000
0000
,  // measure 27
0000
0000
0001
1000
0001
0000
0000
0000
1000
0000
0000
0000
0001
0000
0000
0000
,  // measure 28
0010
0011
0100
1000
,  // measure 29
0001
0100
0001
0000
0010
0000
1000
0000
,  // measure 30
0001
1000
0001
0000
0001
1000
0000
1000
,  // measure 31
0100
0010
0001
0000
0100
0000
0001
1000
,  // measure 32
0010
1000
0001
0000
1000
0000
0001
0010
,  // measure 33
0100
0010
1000
0000
0001
0000
1000
0000
,  // measure 34
0000
0001
1000
0000
0100
0001
0000
0110
,  // measure 35
0000
0220
0000
0330
,  // measure 36
1000
1100
1000
0001
,  // measure 37
0100
0001
0100
0000
0010
0000
0100
0000
,  // measure 38
1001
0110
1001
0000
0000
1000
0000
1000
,  // measure 39
0100
0010
0001
0000
0001
0000
1000
0001
,  // measure 40
0100
0001
0100
0000
0010
0000
1000
0000
,  // measure 41
0001
0000
0100
0000
0010
0000
0000
0010
0000
0000
0000
0000
0100
0000
0000
0100
,  // measure 42
0000
0000
0000
0000
1000
0000
0000
1000
0000
0000
0001
0000
0000
0000
0000
0000
,  // measure 43
1000
1001
0002
2003
,  // measure 44
3002
0103
0020
1030
,  // measure 45
0001
0000
0101
0000
0000
1100
0000
0000
,  // measure 46
0020
0130
0010
1000
,  // measure 47
0001
1000
0002
0000
0000
0103
0000
0000
,  // measure 48
2000
0000
3100
0100
0010
0000
0001
0000
,  // measure 49
0100
0000
0110
0000
0000
1100
0000
0000
,  // measure 50
0020
0002
0000
0033
,  // measure 51
0000
0002
1003
0200
,  // measure 52
0310
0100
0020
0000
1030
0000
0200
0000
,  // measure 53
0310
1000
0002
0000
1003
0002
0000
1003
,  // measure 54
0002
0200
0303
0020
,  // measure 55
0100
0000
0130
0000
0010
2000
0000
3010
,  // measure 56
2000
0002
3000
0103
,  // measure 57
0002
0000
0103
0000
0000
0011
0000
0000
,  // measure 58
1100
0000
0010
1000
0001
1000
0010
1000
,  // measure 59
0100
0020
0002
0000
0000
0000
0000
0000
,  // measure 60
0033
0000
0000
0000
;

//---------------dance-single - ----------------
#NOTES:
     dance-single:
     :
     Medium:
     4:
     0.259,0.348,0.091,0.245,0.000:
0000
0000
0000
0000
,
0000
0000
0000
0000
,
0000
0000
0000
0000
,
0000
0000
0000
0000
,
0002
0000
0000
1003
0000
0000
1000
0000
,
2000
0000
0000
3100
,
0010
0000
0000
0100
0000
0000
1000
0000
,
0002
0000
0203
0000
,
0300
0110
0000
0010
,
0100
1000
0000
0000
,
0000
0000
0001
0000
0000
1000
0100
1000
,
0000
0100
0000
0000
0000
0000
0010
0000
,
0000
1001
0000
0002
,
0000
0103
0000
0000
,
0010
0100
0000
0000
,
1000
0000
0001
0000
0000
1000
0000
0001
,
1000
0000
0100
0000
0000
1000
0000
0100
,
0000
0010
0000
0000
0000
0000
0000
0000
,
0000
0000
0101
0000
0000
0001
0000
0100
,
0000
0010
0000
0000
0000
0000
0000
0000
,
0010
0000
0100
0000
0000
0100
0000
0000
,
0010
0100
0000
0000
0000
0000
0000
0000
,
0000
0000
1000
0000
0000
0002
0000
0000
,
0000
0003
0000
0000
,
0000
0020
0000
0200
,
0330
0000
1001
0000
0000
0110
0000
0000
,
0000
0010
0100
0010
,
1000
0001
1000
0001
,
0100
0001
0100
0000
0010
0000
1000
0000
,
0100
1000
0100
0000
1000
0000
0100
0000
,
0010
0001
0010
0000
0100
0000
0001
0000
,
0100
0010
0100
0000
0010
0000
1000
0000
,
0001
1000
0001
0000
1000
0000
0100
0000
,
0010
0001
0010
0000
0001
0010
0000
0001
,
0000
0001
0010
0000
0100
0000
1000
0000
,
0001
1000
0001
0100
,
0010
0100
0010
0000
1000
0000
0001
0000
,
1000
1000
1000
0000
0000
1000
0000
1000
,
0100
0010
0001
0000
0001
0000
0001
0000
,
0001
0100
0001
0000
0010
0000
0100
0000
,
1000
0002
0003
2000
,
3000
0020
0030
0200
,
0300
0000
0020
0000
0000
0130
0000
0000
,
0100
0020
0030
1000
,
0001
0000
1000
0000
0000
0001
0000
0000
,
0000
0010
0000
0100
,
0000
0000
1100
0000
0000
0020
0000
0000
,
0000
0031
0000
0001
,
0100
0000
0110
0000
0000
1001
0000
0000
,
1100
0022
0030
0020
,
0033
0000
0001
0000
0000
0100
0000
0000
,
0010
2000
0000
0100
,
0100
0000
3200
0000
0000
1300
0000
0000
,
0020
0130
0000
0002
,
0000
0000
1003
0000
0000
0001
0000
0000
,
0200
0020
0030
0010
,
0010
0000
0310
0000
0000
1000
0000
0000
,
0001
2000
0000
3200
,
0000
2000
0000
0000
,
3300
0000
0000
0000
;

//---------------dance-single - ----------------
#NOTES:
     dance-single:
     :
     Easy:
     2:
     0.115,0.187,0.036,0.154,0.000:
0000
0000
0000
0000
,
0000
0000
0000
0000
,
0000
0000
0000
0000
,
0000
0000
0000
0000
,
0002
0000
0000
0000
,
0000
0000
0003
0000
,
2000
0000
0000
0000
,
0000
0000
0000
0000
,
3000
0010
0000
0100
,
0000
0100
0000
0000
,
0000
0000
0000
1000
,
0000
0002
0000
0100
,
0000
0103
0000
0010
,
0000
0000
0000
0000
,
0100
0100
0000
0000
,
1000
1000
0000
0000
,
0000
0000
0002
0000
0000
0003
0000
0000
,
0000
0000
0000
0000
,
0000
2000
0000
0000
,
0000
3000
0000
0000
0000
0000
0000
0000
,
0010
0000
0020
0000
0000
0030
0000
0000
,
0100
0000
0000
0000
,
0000
0000
0000
2000
,
0000
3000
0000
0000
,
0000
0002
0000
0000
,
0003
0000
1001
0000
0000
1001
0000
0000
,
0000
0010
0000
0000
,
0100
0100
0000
0000
,
1000
0001
0000
0000
,
0010
0100
0000
0000
,
0010
0010
0000
0000
,
1000
0001
0000
0000
,
0001
0100
0000
0000
,
0000
0010
0000
0000
,
0000
1000
0000
0000
,
0001
1000
0000
0000
,
0100
0010
0000
0000
,
1001
1001
0000
0000
,
0001
1000
0000
0000
,
1000
0100
0000
0010
,
0001
0100
0000
0100
,
0000
0100
0000
0000
,
0000
0020
0000
0000
,
0000
0000
0000
0000
,
0000
0230
0000
0000
,
0000
0000
0000
0000
,
0000
0302
0000
0000
,
0000
0000
0000
0000
,
0000
2003
0000
0000
,
0000
0000
0000
0000
,
3000
0002
0000
0000
,
0000
0000
0000
0100
,
0100
0200
0000
0000
,
0000
0003
0000
0000
,
0000
0020
0000
0000
,
0000
0300
0000
1000
,
1000
2030
0000
0000
,
0000
3001
0000
0010
,
0000
0002
0000
0000
,
0003
0000
0000
0000
;

//---------------dance-single - ----------------
#NOTES:
     dance-single:
     :
     Beginner:
     1:
     0.060,0.106,0.018,0.000,0.000:
0000
0000
0000
0000
,
0000
0000
0000
0000
,
0000
0000
0000
0000
,
0000
0000
0000
0000
,
0000
0000
0000
0000
,
0000
0000
0000
0000
,
0000
0000
0000
0000
,
0000
0000
0000
0000
,
0000
0010
0000
0000
,
0000
0000
0000
0000
,
0000
1000
0000
0000
,
0000
0000
0000
0000
,
0000
0001
0000
0000
,
0000
0000
0000
0000
,
0010
0010
0000
0000
,
0100
0100
0000
0000
,
0000
1000
0000
0000
,
0000
0000
0000
0000
,
0000
0001
0000
0000
,
0000
0000
0000
0000
,
0000
0010
0000
0000
,
0000
0000
0000
0000
,
0000
0000
0000
0100
,
0000
0000
0000
0000
,
0000
0010
0000
0000
,
0000
1001
0000
0000
,
0000
0100
0000
0000
,
0000
0000
0000
0000
,
0000
0010
0000
0000
,
0000
1000
0000
0000
,
0001
0001
0000
0000
,
0000
0100
0000
0000
,
0000
0010
0000
0000
,
0000
1000
0000
0000
,
0000
1001
0000
0000
,
0100
0100
0000
0000
,
0000
0010
0000
0000
,
1000
1000
0000
0000
,
0000
0100
0000
0000
,
0000
0001
0000
0000
,
0000
0010
0000
0000
,
0000
0000
0000
0000
,
0000
1000
0000
0000
,
0000
0000
0000
0000
,
0000
0001
0000
0000
,
0000
0100
0000
0000
,
0000
0010
0000
0000
,
0000
0000
0000
0000
,
0000
1000
0000
0000
,
0000
0001
0000
0000
,
0000
0010
0000
0000
,
0000
0000
0000
0000
,
0000
0100
0000
0000
,
0000
0000
0000
0000
,
0000
1000
0000
0000
,
0000
0000
0000
0000
,
0000
0001
0000
1000
,
0000
0001
0000
0100
,
0000
1000
0000
0000
;

//---------------dance-single - ----------------
#NOTES:
     dance-single:
     :
     Challenge:
     7:
     0.450,0.482,0.172,0.218,0.127: // measure 1
0000
0000
0000
0000
,  // measure 2
0000
0000
0000
0000
,  // measure 3
0000
0000
0000
0000
,  // measure 4
0000
0000
0000
0000
,  // measure 5
0101
0000
0000
0001
0000
0000
0100
0000
0000
1000
0000
0000
0100
0000
1000
0000
,  // measure 6
0200
0000
0000
0010
,  // measure 7
0310
0000
0000
0100
0000
0000
0010
0000
0100
0000
0000
0001
0000
0000
1000
0000
,  // measure 8
0002
0000
0203
0000
,  // measure 9
0310
0000
0000
0000
0110
0000
0000
0000
0000
0000
0000
0010
1000
0000
0000
0100
,  // measure 10
0000
0010
0001
0000
0000
0000
1000
0000
,  // measure 11
0001
0000
0101
0000
0000
0001
1000
0001
,  // measure 12
0000
0000
0100
0000
0000
0000
0000
0000
0000
0000
0010
1000
0010
0000
0000
0000
,  // measure 13
0100
0000
0000
0000
1100
0000
0000
0000
0000
0000
0000
1000
0100
0000
0000
0010
,  // measure 14
0000
0001
0010
0000
0001
0000
0100
0010
,  // measure 15
1000
0001
1000
0000
0010
0000
0100
1000
,  // measure 16
0100
0100
1000
0000
0000
0010
0000
0100
,  // measure 17
0001
0000
1000
1000
0001
0100
0000
0010
,  // measure 18
1000
0000
0001
0000
0000
0000
0000
0000
0000
0000
0010
0100
0000
0100
0000
0000
,  // measure 19
1000
0000
0100
1000
0100
1000
0000
0200
,  // measure 20
0000
0310
0000
0000
0000
0001
0000
0001
,  // measure 21
0100
0010
1000
0000
1000
0200
0000
1300
,  // measure 22
0100
0000
0010
0000
0001
0000
0100
0000
0010
0000
0001
1000
0000
0001
1000
0000
,  // measure 23
0100
0010
0001
0000
0200
0000
0310
1000
,  // measure 24
0001
0100
0020
0000
1030
0000
1000
0100
,  // measure 25
0010
0001
0020
0000
0130
0000
0020
0000
,  // measure 26
1030
0000
0021
0000
0000
2000
0000
3030
,  // measure 27
0000
0000
0100
1000
0100
0000
0000
0000
1000
0000
0000
0000
0100
0000
0000
0000
,  // measure 28
1000
1100
0100
0010
,  // measure 29
0001
0100
0001
0100
0001
0000
0000
0000
1000
0000
0000
0000
0100
0000
0000
0000
,  // measure 30
0001
1000
0010
0000
0010
0100
0000
1000
,  // measure 31
0100
0010
0011
0000
0001
0000
0100
0001
,  // measure 32
1000
0010
1000
0000
0100
0000
0100
1000
,  // measure 33
0100
0010
0001
0000
0010
0000
0100
0000
,  // measure 34
0001
1000
0010
0000
0100
1000
0000
0110
,  // measure 35
0000
0001
1000
0001
2002
0000
0000
0000
0000
0000
0000
0000
3003
0000
0000
0000
,  // measure 36
0110
1001
0100
1000
,  // measure 37
1000
0100
0010
0001
0010
0000
0000
0000
0100
0000
0000
0000
0001
0000
0000
0000
,  // measure 38
0101
1100
1010
0000
0010
0011
0000
0100
,  // measure 39
1000
0100
0101
0000
0001
0000
1000
0001
,  // measure 40
0100
0010
1000
0000
0100
0000
1000
0000
,  // measure 41
0100
0000
0010
0000
0002
0000
0000
0103
0000
0000
0000
0000
2000
0000
0000
3100
,  // measure 42
0000
0000
0000
0000
0020
0000
0000
0100
0000
0000
0200
0000
0000
0030
0000
0000
,  // measure 43
0010
0000
0310
1000
0010
1000
0010
1000
,  // measure 44
0010
1000
0001
0100
0001
0100
0001
0100
,  // measure 45
0001
0100
0010
0001
0010
0001
0010
0001
,  // measure 46
0010
0001
0010
0100
1000
0100
1000
0100
,  // measure 47
1000
0000
0100
0000
1000
0000
0000
0100
0000
0000
0010
0000
0000
0000
0001
0000
,  // measure 48
0000
0000
0010
0100
0010
0000
0100
0000
0001
0000
1000
0000
0100
0000
0010
0000
,  // measure 49
0001
0010
0002
0000
0000
0010
0000
0000
,  // measure 50
0100
0000
0000
0003
0000
0000
0000
0000
0001
0000
1000
0000
0002
0000
0000
0000
0000
0000
0000
0000
0000
0000
0000
0000
0000
0000
0000
0000
0000
0000
0000
0000
0000
0000
0000
0000
2003
0000
0000
0000
0000
0000
0000
0000
0000
0000
0000
0000
,  // measure 51
3010
0000
0100
0000
1000
0100
0000
0010
,  // measure 52
0001
0010
0200
0000
1000
0000
0010
0000
,  // measure 53
0301
0000
0001
1000
0010
1000
0001
1000
,  // measure 54
0010
1000
0002
0000
0100
0000
0010
0000
,  // measure 55
0103
0000
0001
0010
0100
1000
0100
0010
,  // measure 56
0001
0010
1000
0001
1000
0010
1000
0100
,  // measure 57
0010
0001
0011
0000
0100
1100
0000
0010
,  // measure 58
1000
0000
1000
0100
1000
0000
0100
0000
0010
0000
0001
0000
1000
0000
0001
0000
,  // measure 59
0100
1000
0202
0000
0000
0000
0000
0000
,  // measure 60
0303
0000
0000
0000
;
