#TITLE:Breath;
#SUBTITLE:;
#ARTIST:Sparker;
#TITLETRANSLIT:;
#SUBTITLETRANSLIT:;
#ARTISTTRANSLIT:;
#CREDIT:;
#BANNER:bn.PNG;
#BACKGROUND:bg.PNG;
#LYRICSPATH:;
#CDTITLE:Beatmania IIDX.png;
#MUSIC:BREATH.mp3;
#OFFSET:-6.380;
#SAMPLESTART:18.300;
#SAMPLELENGTH:12.000;
#SELECTABLE:YES;
#BPMS:0.000=160.000,222.000=150.020,226.000=144.820,228.250=139.640,228.500=140.180,230.750=135.000,233.000=130.160,235.500=125.000;
#STOPS:148.000=0.750
;
#BGCHANGES:;

//---------------dance-single - ----------------
#NOTES:
     dance-single:
     :
     Hard:
     9:
     0.601,0.766,0.262,0.084,0.187: // measure 1
0001
0100
0101
0000
0010
1000
1010
0000
,  // measure 2
0010
0100
0110
0000
0001
1000
1001
0000
,  // measure 3
0000
0000
1000
0100
0010
0001
0010
0001
,  // measure 4
0100
0001
0100
0001
0010
1000
0001
1000
,  // measure 5
0000
0000
1000
0100
0010
0001
0010
0100
,  // measure 6
0001
0100
0010
1000
0001
1000
0010
1000
,  // measure 7
0000
0000
1000
0100
0010
0001
0010
0100
,  // measure 8
0010
0100
0001
1000
0010
1000
0001
1000
,  // measure 9
0100
1000
1100
0000
0010
0100
0110
0000
,  // measure 10
0001
0010
0011
0000
0001
0100
0101
0000
,  // measure 11
0000
0000
0010
0100
0010
0100
0001
1000
,  // measure 12
0010
1000
0001
1000
0010
1000
0001
1000
,  // measure 13
0000
0000
1000
0100
0010
0001
0010
0100
,  // measure 14
1000
0100
1000
0100
1000
0100
0010
0001
,  // measure 15
0000
0000
0001
0100
0001
0100
0010
1000
,  // measure 16
0001
0100
0010
1000
0001
0100
0010
1000
,  // measure 17
1001
0110
1001
0110
,  // measure 18
0010
1000
0010
0000
0001
0010
0001
0000
0100
1000
0100
0000
0001
0100
0001
0000
,  // measure 19
0012
0000
1003
0000
0001
0000
0000
0001
,  // measure 20
0010
0001
0010
0001
0010
0100
1000
0100
,  // measure 21
0010
1000
0001
0100
0001
1000
0001
1000
,  // measure 22
0010
1000
0010
1000
0001
0100
0001
0100
,  // measure 23
0010
0001
0011
0000
0100
1000
1100
0000
,  // measure 24
0010
0110
1001
1010
,  // measure 25
0100
1000
1100
0000
0010
0000
0011
0000
,  // measure 26
0001
0101
0100
0101
,  // measure 27
0010
1000
0010
1000
0010
0100
0010
0100
,  // measure 28
0002
0000
0000
0000
0013
0001
0010
0001
,  // measure 29
0010
0100
1000
0100
0010
0000
0001
0000
,  // measure 30
0010
2000
0000
0000
0100
0100
0100
3100
,  // measure 31
1000
0100
0010
0001
0010
0000
0001
0000
,  // measure 32
0001
0200
0000
0000
1300
0100
0010
0001
,  // measure 33
0010
0001
0010
0100
1000
0100
0010
0001
,  // measure 34
1000
0001
1000
0001
1000
0001
1000
0001
1000
0001
1000
0001
1000
0000
0000
0000
,  // measure 35
0010
0100
0010
0100
0010
0100
0010
0100
0010
0100
0010
0100
0010
0000
0000
0000
,  // measure 36
0100
0001
0100
0001
0100
0001
0100
0001
0100
0001
0100
0001
0100
0000
0000
0000
,  // measure 37
1000
0010
1000
0010
1000
0010
1000
0010
1000
0010
1000
0010
1000
0000
0000
0001
,  // measure 38
0100
0000
0010
0000
0110
0000
1000
0100
,  // measure 39
1000
0000
0001
0100
0001
0000
0010
0001
,  // measure 40
0010
0000
0010
1000
0010
0000
0001
1000
,  // measure 41
0001
0000
0100
0001
0100
0000
0010
0001
,  // measure 42
0010
0000
1000
0100
0010
0000
1000
0100
,  // measure 43
0010
0000
1000
0100
0010
0000
0100
0010
,  // measure 44
0001
0000
0001
0010
0100
0000
0001
0010
,  // measure 45
0100
0000
0001
0010
0100
0000
0010
0100
,  // measure 46
1000
0000
0100
0000
1000
0100
0010
0001
,  // measure 47
0010
0001
0020
0000
0130
0010
0100
0010
,  // measure 48
1000
0001
1000
0001
0010
1000
0010
1000
,  // measure 49
0001
0100
0002
0000
0103
0001
0100
0001
,  // measure 50
0010
1000
0010
1000
0010
0100
0010
0100
,  // measure 51
0010
0100
0020
0000
0130
1000
0100
0010
,  // measure 52
0001
0010
0001
0010
0100
0001
0100
0001
,  // measure 53
0010
1000
0010
1000
0001
1000
0010
0001
,  // measure 54
0010
0000
0100
0000
1000
0000
0100
0000
0010
0100
0010
0000
0010
1000
0010
0000
,  // measure 55
0001
0100
0001
0000
0010
0001
0010
0000
0100
1000
0100
0000
0010
1000
0010
0000
,  // measure 56
0001
0100
0001
0000
0001
1000
0001
0000
0010
0000
0000
0000
1000
0000
0000
0000
,  // measure 57
0001
1000
1100
0000
,  // measure 58
0000
0000
0000
0011
0000
0000
0000
0000
0000
0000
0000
0000
0000
0000
0000
0000
0000
0000
0000
0000
0000
0000
0000
0000
0000
0000
0000
0000
0000
0000
0000
0000
1100
0000
0000
0000
0000
0000
0000
0000
0000
0000
0000
0000
0000
0000
0000
0000
,  // measure 59
0000
0000
0000
0011
0000
0000
0000
0000
0000
0000
2002
0000
,  // measure 60
0000
0000
0000
0000
,  // measure 61
0000
0000
0000
0000
0000
0000
0000
3003
0000
0000
0000
0000
;

//---------------dance-single - ----------------
#NOTES:
     dance-single:
     :
     Medium:
     6:
     0.403,0.483,0.318,0.103,0.000: // measure 1
1000
0100
1000
0000
0001
0100
0001
0000
,  // measure 2
0010
0001
0010
0000
0010
1000
0010
0000
,  // measure 3
0000
1000
0001
0100
,  // measure 4
0010
0000
1000
0000
0001
0000
0100
0001
,  // measure 5
0000
1000
0100
0010
,  // measure 6
0001
0000
0100
0000
1000
0000
0010
1000
,  // measure 7
0000
1000
0001
0100
,  // measure 8
0010
1000
0001
0100
,  // measure 9
0001
0100
0001
0000
1000
0100
1000
0000
,  // measure 10
0010
1000
0010
0000
0010
0001
0010
0000
,  // measure 11
0000
0001
1000
0100
,  // measure 12
0010
0000
0001
0000
0100
0000
0001
0100
,  // measure 13
0000
1000
0100
0010
,  // measure 14
0001
0000
1000
0000
0001
0000
0100
0001
,  // measure 15
0000
0010
1000
0100
,  // measure 16
0010
0001
0100
0010
,  // measure 17
1010
0101
1100
0011
,  // measure 18
1000
0100
1000
0100
1000
0010
0001
0010
,  // measure 19
0002
1000
0103
0000
,  // measure 20
0002
0103
0020
1030
,  // measure 21
1000
0100
1000
0000
0100
0000
0001
0000
,  // measure 22
0010
0011
0100
0001
,  // measure 23
1000
1001
1000
1001
,  // measure 24
1000
0100
0100
1100
,  // measure 25
0100
0011
0100
0101
,  // measure 26
0010
1000
0100
0010
,  // measure 27
0001
1000
0100
0010
,  // measure 28
0001
0000
0100
0000
0001
0100
0001
0100
,  // measure 29
0001
1000
1000
0100
,  // measure 30
0010
0000
0001
0000
1000
0001
1000
0001
,  // measure 31
1000
0100
0010
0001
,  // measure 32
0100
0000
1000
0000
0010
1000
0010
1000
,  // measure 33
0010
1000
0100
0010
,  // measure 34
0012
0010
0010
0013
,  // measure 35
0012
0010
0010
0013
,  // measure 36
0012
0010
0010
0013
,  // measure 37
0012
0010
0010
0013
,  // measure 38
1100
1000
1100
0010
,  // measure 39
0110
0010
0011
0100
,  // measure 40
0101
0010
1010
0100
,  // measure 41
1100
0010
0110
0010
,  // measure 42
0011
0100
0101
0010
,  // measure 43
1001
0100
1100
0010
,  // measure 44
1001
0010
0101
0010
,  // measure 45
0110
0100
1001
0100
,  // measure 46
1100
0000
0010
0000
0001
0010
0001
0000
,  // measure 47
0100
0000
0101
0000
0010
1000
0010
0000
,  // measure 48
2000
0000
3100
0000
1000
0100
1000
0000
,  // measure 49
0100
0000
0110
0000
0001
0010
0001
0000
,  // measure 50
0100
0000
0101
0000
0010
0100
0010
0000
,  // measure 51
1000
0100
1000
0000
0001
0010
0001
0000
,  // measure 52
0100
0001
0100
0000
0010
1000
0010
0000
,  // measure 53
0010
0100
0010
0000
0001
1000
0001
0000
,  // measure 54
1000
0100
1000
0000
1000
0000
0100
0000
,  // measure 55
0010
0001
1000
0100
,  // measure 56
0010
0001
2000
0000
,  // measure 57
0000
0000
0000
0000
0002
3000
0000
0000
,  // measure 58
0000
1000
0000
0000
0000
1000
0000
0000
,  // measure 59
0000
0000
1000
0000
0000
0000
0000
2000
,  // measure 60
0000
0000
0000
0000
,  // measure 61
0000
0000
0000
0000
0000
3003
0000
0000
;

//---------------dance-single - ----------------
#NOTES:
     dance-single:
     :
     Easy:
     4:
     0.318,0.398,0.300,0.262,0.000: // measure 1
0000
1000
0000
1000
,  // measure 2
0000
0010
0000
0100
,  // measure 3
0000
0001
1000
0100
,  // measure 4
0010
0001
0100
0001
,  // measure 5
0000
0001
1000
0001
,  // measure 6
1000
0010
1000
0001
,  // measure 7
0000
0100
0001
0100
,  // measure 8
0010
1000
0010
1000
,  // measure 9
0000
0001
0000
1000
,  // measure 10
0000
0100
0000
0010
,  // measure 11
0000
1000
0100
0010
,  // measure 12
0001
0100
0001
0100
,  // measure 13
0000
1000
0010
1000
,  // measure 14
0100
1000
0100
0010
,  // measure 15
0000
0001
1000
0001
,  // measure 16
0100
0010
0100
0010
,  // measure 17
1000
1000
1000
1000
,  // measure 18
1001
0110
1001
0110
,  // measure 19
1002
1000
0103
0000
,  // measure 20
0010
0001
0020
0000
,  // measure 21
1030
0100
0001
0100
,  // measure 22
1000
0001
1000
0010
,  // measure 23
0000
1010
0000
0101
,  // measure 24
0000
1000
1000
1100
,  // measure 25
0000
0011
0000
0101
,  // measure 26
0000
0001
0000
1000
,  // measure 27
0001
1000
0100
0002
,  // measure 28
0200
0000
0000
0303
,  // measure 29
1000
0100
0010
0002
,  // measure 30
2000
0000
0000
3003
,  // measure 31
0001
0010
0100
2000
,  // measure 32
0020
0000
0000
3030
,  // measure 33
1000
0001
0100
0010
,  // measure 34
0022
0000
0000
0033
,  // measure 35
2200
0000
0000
3300
,  // measure 36
2020
0000
0000
3030
,  // measure 37
0202
0000
0000
0303
,  // measure 38
1001
0000
1100
0100
,  // measure 39
1100
1000
1100
0100
,  // measure 40
1100
0010
0011
0001
,  // measure 41
0011
0010
0011
0001
,  // measure 42
0011
0100
0101
0001
,  // measure 43
0101
0100
0101
0001
,  // measure 44
0101
1000
1100
0100
,  // measure 45
1100
1000
1010
0010
,  // measure 46
1010
1000
0001
1000
,  // measure 47
0002
0103
1000
0001
,  // measure 48
2000
3100
1000
0100
,  // measure 49
0020
0031
0100
0001
,  // measure 50
0002
0103
0001
0010
,  // measure 51
0200
1300
0010
1000
,  // measure 52
0200
0301
0002
1003
,  // measure 53
2000
3100
0020
0031
,  // measure 54
0200
1300
1000
1000
,  // measure 55
0001
0001
0100
0100
,  // measure 56
0010
0010
2002
0000
,  // measure 57
0000
0000
0000
0000
,  // measure 58
0000
0000
0000
0000
,  // measure 59
0000
3000
0000
0000
,  // measure 60
0000
0000
0000
0000
,  // measure 61
0000
0000
0000
0000
0000
0000
0000
0000
0000
0000
0000
0000
0000
0000
0000
0000
0000
0000
0000
0000
0000
0000
0000
0000
0000
0000
0000
0000
0000
0000
0000
0000
0000
0000
0000
0000
0000
0000
0000
0000
0000
0000
0000
0000
0000
0000
0000
0000
0000
0000
0000
0000
0000
0000
0000
0000
0000
0000
0000
0000
0000
0000
0000
0000
0000
0000
0000
0000
0000
0000
0000
0000
0000
0000
0000
0000
0000
0000
0000
0000
0000
0000
0000
0000
0000
0000
0000
0000
0000
0000
0000
0000
0000
0000
0000
0000
0000
0000
0000
0000
0000
0000
0000
0000
0000
0000
0000
0000
0000
0000
0000
0000
0000
0000
0000
0000
0000
0000
0000
0000
0000
0000
0003
0000
0000
0000
0000
0000
0000
0000
0000
0000
0000
0000
0000
0000
0000
0000
0000
0000
0000
0000
0000
0000
0000
0000
0000
0000
0000
0000
0000
0000
0000
0000
0000
0000
0000
0000
0000
0000
0000
0000
0000
0000
0000
0000
0000
0000
0000
0000
0000
0000
0000
0000
0000
0000
0000
0000
0000
0000
0000
0000
0000
0000
0000
0000
0000
0000
0000
0000
0000
0000
;

//---------------dance-single - ----------------
#NOTES:
     dance-single:
     :
     Beginner:
     2:
     0.078,0.193,0.009,0.000,0.000: // measure 1
0000
0001
0000
0000
,  // measure 2
0000
0000
0000
0000
,  // measure 3
0000
1000
0000
0000
,  // measure 4
0000
0000
0000
0000
,  // measure 5
0010
0000
0000
0000
,  // measure 6
0000
0000
0000
0000
,  // measure 7
0100
0000
0000
0000
,  // measure 8
0000
0000
0000
0000
,  // measure 9
0000
1000
0000
0000
,  // measure 10
0000
0000
0000
0000
,  // measure 11
0000
0001
0000
0000
,  // measure 12
0000
0000
0000
0000
,  // measure 13
0100
0000
0000
0000
,  // measure 14
0000
0000
0000
0000
,  // measure 15
0010
0000
0000
0000
,  // measure 16
0000
0000
0000
0000
,  // measure 17
1000
0000
0000
0000
,  // measure 18
0001
0001
1000
1000
,  // measure 19
1001
0000
0000
0000
,  // measure 20
0010
0000
0000
0000
,  // measure 21
0100
0000
0000
0000
,  // measure 22
0001
0000
0000
0000
,  // measure 23
0000
1000
0000
1000
,  // measure 24
0000
0000
0000
0001
,  // measure 25
0000
0100
0000
0100
,  // measure 26
0000
0000
0000
0000
,  // measure 27
0010
0000
0000
0000
,  // measure 28
0000
0000
0100
0100
,  // measure 29
0100
0000
0000
0000
,  // measure 30
0000
0000
1000
1000
,  // measure 31
1000
0000
0000
0000
,  // measure 32
0000
0000
0001
0001
,  // measure 33
0001
0000
0000
0000
,  // measure 34
0100
0000
0000
0000
,  // measure 35
0100
0000
0000
0000
,  // measure 36
0100
0000
0000
0000
,  // measure 37
0100
0000
0000
0000
,  // measure 38
0000
0000
0001
0000
,  // measure 39
0000
0000
1000
0000
,  // measure 40
0000
0000
0001
0000
,  // measure 41
0000
0000
1000
0000
,  // measure 42
0000
0000
0100
0000
,  // measure 43
0000
0000
0010
0000
,  // measure 44
0000
0000
0100
0000
,  // measure 45
0000
0000
0010
0000
,  // measure 46
0000
0000
1000
0000
,  // measure 47
0000
0000
1000
0000
,  // measure 48
0000
0000
0100
0000
,  // measure 49
0000
0000
0100
0000
,  // measure 50
0000
0000
0010
0000
,  // measure 51
0000
0000
0010
0000
,  // measure 52
0000
0000
0001
0000
,  // measure 53
0000
0000
0001
0000
,  // measure 54
0000
0000
1000
0000
,  // measure 55
0000
0000
0001
0000
,  // measure 56
0000
0000
1000
0000
,  // measure 57
0000
0000
0001
0000
,  // measure 58
0000
0000
0000
0000
,  // measure 59
0000
0000
0000
0000
0000
0000
0000
1000
;
