#TITLE:Boom Boom Fire;
#SUBTITLE:;
#ARTIST:D.Essex;
#TITLETRANSLIT:;
#SUBTITLETRANSLIT:;
#ARTISTTRANSLIT:;
#CREDIT:;
#BANNER:bn.PNG;
#BACKGROUND:bg.PNG;
#LYRICSPATH:;
#CDTITLE:SUPER EUROBEAT.png;
#MUSIC:Boom Boom Fire.mp3;
#OFFSET:-3.693;
#SAMPLESTART:43.800;
#SAMPLELENGTH:12.500;
#SELECTABLE:YES;
#BPMS:0.000=154.000;
#STOPS:39.000=1.169
,52.000=1.169
,157.000=1.129
;
#BGCHANGES:;

//---------------dance-single - ----------------
#NOTES:
     dance-single:
     :
     Hard:
     9:
     0.578,0.792,0.245,0.082,0.327: // measure 1
0000
0000
0000
0000
,  // measure 2
0000
0000
0000
0000
0001
1000
0000
1000
0000
0001
1000
0001
1000
0000
0100
0000
,  // measure 3
0010
0000
0001
0000
0010
0000
0000
0010
0000
0000
0010
0000
0100
0000
0010
0000
,  // measure 4
1000
0000
0001
0000
1000
0000
0000
0001
0000
0000
0100
0000
0010
0100
0010
0000
,  // measure 5
0100
0000
0000
0000
0010
1000
0010
0000
0100
0000
0000
0000
0001
0000
0010
0000
,  // measure 6
0100
1000
0100
0010
0001
0010
1000
0001
,  // measure 7
1000
0000
0010
0000
0100
0000
0000
0100
0000
0000
0100
0000
0010
0000
1000
0000
,  // measure 8
0010
0000
0100
0000
0001
0000
0000
0001
0000
0000
0001
0000
0001
1000
0001
0000
,  // measure 9
0100
0000
0000
0000
0010
0100
0010
0000
0100
0000
0000
0000
1000
0000
0100
0000
,  // measure 10
0010
0001
0010
0100
1000
0010
0000
0000
,  // measure 11
1001
1100
0010
0100
,  // measure 12
0001
1000
0010
1000
0001
0000
0100
0000
,  // measure 13
1000
0100
0001
1000
0010
1000
0001
0100
,  // measure 14
1000
1001
1001
0110
,  // measure 15
0110
0000
0010
1000
0001
0100
0010
0000
,  // measure 16
1000
0000
1000
0100
0001
0010
0100
0001
,  // measure 17
1000
0010
0010
1000
0001
0100
0010
1000
,  // measure 18
0001
0100
0010
0001
0010
2000
0000
0000
,  // measure 19
3000
0000
0001
0100
0010
1000
0100
1000
,  // measure 20
0100
0010
0001
0010
0100
2000
0000
0000
,  // measure 21
3000
0000
0010
1000
0001
0100
1000
0100
,  // measure 22
0010
0001
0010
0100
0010
2000
0000
0000
,  // measure 23
3000
0000
1001
1001
1001
1001
1001
1001
,  // measure 24
1001
1001
1001
1001
1001
1001
2002
0000
,  // measure 25
3003
0000
0000
0000
0010
0000
1000
0000
0010
0000
0010
0100
0000
0010
0000
1000
,  // measure 26
0000
0001
0000
0000
1000
0000
0100
0000
0010
0000
0001
0010
0000
0100
0000
1000
,  // measure 27
0000
0100
0000
0000
0000
0000
0010
0000
0000
0000
0010
0000
0100
0000
0000
1000
,  // measure 28
0000
0001
0100
0000
1000
0100
0010
0100
,  // measure 29
0001
0000
0100
0000
0010
0000
0100
0000
0001
0000
0010
1000
0000
0001
0000
0100
,  // measure 30
0000
0010
0000
0000
0001
0000
1000
0000
0010
0000
0010
0100
0000
0001
0000
1000
,  // measure 31
0000
0010
0000
0000
0000
0000
0001
0000
0000
0000
1000
0000
0100
0000
0000
1000
,  // measure 32
0000
0100
0010
0000
0001
1000
0001
1000
,  // measure 33
0001
0000
1000
0000
0010
0000
1000
0000
0010
0000
0010
0100
0000
0001
0000
1000
,  // measure 34
0000
0010
0000
0000
0001
0000
0100
0000
0010
0000
0001
1000
0000
0010
0000
1000
,  // measure 35
0000
0001
0000
0000
0000
0000
1000
0000
0000
0000
0100
0000
1000
0000
0000
0100
,  // measure 36
0000
0010
0001
0000
0001
1000
0001
0100
,  // measure 37
0010
0000
1000
0000
0010
0000
0100
0000
0010
0000
0010
0100
0000
0010
0000
1000
,  // measure 38
0000
0001
0000
0000
0010
0000
0100
0000
0001
0000
0010
1000
0000
0001
0000
0100
,  // measure 39
0000
1000
0000
0000
0000
0000
0100
0000
0000
0000
1000
0000
0100
0000
0000
0010
,  // measure 40
0000
0001
1001
0000
0100
0001
1000
0010
,  // measure 41
1000
0000
0000
1000
0000
0000
1000
0000
0001
0000
1000
0000
0100
0000
0010
0000
,  // measure 42
0100
0000
0000
0010
0000
0000
0001
0000
1000
0001
1000
0000
0001
0000
0000
0000
,  // measure 43
1000
0100
1000
0000
0001
0000
0000
0000
0010
0000
1000
0000
0001
0000
0100
0000
,  // measure 44
0001
1000
0010
1000
0100
0010
0100
1000
,  // measure 45
0001
0000
0000
0001
0000
0000
0001
0000
1000
0000
0100
0000
1000
0000
0001
0000
,  // measure 46
0010
0000
0000
0010
0000
0000
0010
0000
0010
0100
0010
0000
0001
0000
0000
0000
,  // measure 47
1000
0001
1000
0000
0001
0000
0000
0000
0100
0000
0001
0000
1000
0000
0010
0000
,  // measure 48
1000
0001
0100
1000
2200
0000
0000
0000
,  // measure 49
0000
0000
3300
0000
;

//---------------dance-single - ----------------
#NOTES:
     dance-single:
     :
     Medium:
     6:
     0.402,0.424,0.023,0.222,0.006: // measure 1
0000
0000
0000
0000
,  // measure 2
0000
0000
0000
0000
0000
0000
1000
0100
,  // measure 3
1000
0000
0020
0000
0130
0000
0001
0100
,  // measure 4
0001
0000
0020
0000
0130
0000
0001
1000
,  // measure 5
0001
0000
0010
0100
0010
0000
1000
0000
,  // measure 6
0100
0010
0001
0001
,  // measure 7
1000
0000
0001
0100
0010
0000
0001
0000
,  // measure 8
1000
0000
0010
0100
1000
0000
0001
1000
,  // measure 9
0001
0000
0010
0100
0010
0000
1000
0100
,  // measure 10
0010
0001
1000
0100
0010
0001
1001
0000
,  // measure 11
0002
1003
0002
0103
,  // measure 12
0001
1000
0010
0000
,  // measure 13
1000
0100
0010
0001
,  // measure 14
0101
0002
1003
0002
,  // measure 15
0103
0000
0010
0100
0010
0000
1000
0000
,  // measure 16
0001
1000
1000
0001
,  // measure 17
0001
0100
0010
1000
,  // measure 18
0100
0000
0001
0010
0200
2000
0000
0000
,  // measure 19
3300
0010
1000
0100
,  // measure 20
0001
0000
0010
0100
2000
0002
0000
0000
,  // measure 21
3003
0010
0100
1000
,  // measure 22
0001
0000
0001
1000
0200
0020
0000
0000
,  // measure 23
0330
0000
0001
0001
1000
1000
0001
0001
,  // measure 24
1000
1000
0001
0010
0100
1000
0100
0000
,  // measure 25
1000
0000
0010
0000
1000
0000
0010
0100
,  // measure 26
0010
0000
1000
0000
0100
0000
0010
0001
,  // measure 27
0010
0000
0001
1000
,  // measure 28
0100
0010
0002
0100
,  // measure 29
0013
0000
0010
0100
0010
0000
1000
0000
,  // measure 30
0001
0000
0100
1000
0001
0000
0010
0000
,  // measure 31
0100
0000
1000
0001
,  // measure 32
0100
0010
2000
0100
,  // measure 33
0010
0000
3001
0100
0001
0000
0010
0000
,  // measure 34
1000
0000
0010
0100
0010
0000
1000
0000
,  // measure 35
0001
0000
0001
1000
,  // measure 36
0100
0010
0002
0100
,  // measure 37
1003
0000
0010
0100
0010
0000
1000
0000
,  // measure 38
0001
0000
0100
0010
0100
0000
0010
0000
,  // measure 39
1000
0000
0000
0000
0000
0000
1000
0000
0000
0000
0100
0000
0010
0000
0000
0010
,  // measure 40
0000
0010
0010
0000
0001
1000
0001
0000
,  // measure 41
0200
0000
0310
0000
0001
1000
0020
0000
,  // measure 42
0100
0000
0130
0000
1000
0100
1000
0000
,  // measure 43
0010
0001
0010
0000
0001
0000
1000
0000
,  // measure 44
0100
0010
0001
1000
,  // measure 45
0001
0100
0010
0000
1000
0000
0100
0000
,  // measure 46
0001
1000
0010
0000
1000
0100
1000
0000
,  // measure 47
0010
0001
0010
0000
0001
1000
0010
0100
,  // measure 48
1000
0100
0010
0002
2000
0000
0000
0000
,  // measure 49
0000
0000
3003
0000
;

//---------------dance-single - ----------------
#NOTES:
     dance-single:
     :
     Easy:
     4:
     0.342,0.443,0.222,0.175,0.000: // measure 1
0000
0000
0000
0000
,  // measure 2
0000
0000
0000
1000
,  // measure 3
0001
1000
0001
0100
,  // measure 4
0010
0100
0010
2000
,  // measure 5
3100
0002
0103
1000
,  // measure 6
1000
0100
0100
0001
,  // measure 7
0010
0100
1000
0001
,  // measure 8
0001
1000
0100
0020
,  // measure 9
0031
0200
1300
1001
,  // measure 10
1001
1100
0101
1001
,  // measure 11
2000
3100
0200
1300
,  // measure 12
1000
0001
0100
0000
,  // measure 13
0010
0010
0100
0100
,  // measure 14
1001
0001
0001
1000
,  // measure 15
1000
0001
0100
0010
,  // measure 16
0000
1000
1000
1000
,  // measure 17
1000
0001
0100
1000
,  // measure 18
0100
0001
0100
0000
,  // measure 19
0000
0001
0010
1000
,  // measure 20
0010
0001
1000
0000
,  // measure 21
0000
0001
1000
0100
,  // measure 22
0010
0001
0010
0000
,  // measure 23
0000
1001
1100
0011
,  // measure 24
1010
1100
0011
0202
,  // measure 25
0303
0001
1000
0001
,  // measure 26
0100
1000
0100
0001
,  // measure 27
0010
0000
1000
0001
,  // measure 28
0100
1000
0002
1000
,  // measure 29
0100
0013
0001
0010
,  // measure 30
0001
0100
1000
0100
,  // measure 31
1000
0000
0010
1000
,  // measure 32
0001
0100
0002
0100
,  // measure 33
0010
1003
0001
1000
,  // measure 34
0100
0010
0001
0010
,  // measure 35
0100
0000
1000
0010
,  // measure 36
1000
0002
1000
1000
,  // measure 37
1000
1003
0001
0100
,  // measure 38
0010
1000
0100
0010
,  // measure 39
0001
0000
0001
0100
,  // measure 40
1000
1001
0001
1000
,  // measure 41
0100
0010
0001
0010
,  // measure 42
0100
1000
0200
1300
,  // measure 43
0200
1300
1000
1000
,  // measure 44
0001
0001
0010
0100
,  // measure 45
1000
0100
0010
0001
,  // measure 46
1000
0001
0200
0301
,  // measure 47
0020
1030
1100
0011
,  // measure 48
1010
0101
1001
0000
;

//---------------dance-single - ----------------
#NOTES:
     dance-single:
     :
     Beginner:
     1:
     0.080,0.111,0.047,0.000,0.000: // measure 1
0000
0000
0000
0000
,  // measure 2
0000
0000
0000
1000
,  // measure 3
0000
0000
0000
1000
,  // measure 4
0000
0000
0000
0001
,  // measure 5
0000
0000
0000
0100
,  // measure 6
0000
0000
0000
0010
,  // measure 7
0000
0000
0000
1000
,  // measure 8
0000
0000
0000
0001
,  // measure 9
0000
0000
0000
1001
,  // measure 10
0000
0000
0000
0000
,  // measure 11
0100
0000
0000
0000
,  // measure 12
0100
0000
0000
0000
,  // measure 13
1000
0000
0000
0000
,  // measure 14
0000
0001
0000
0000
,  // measure 15
0000
1000
0000
0000
,  // measure 16
0000
0100
0000
0000
,  // measure 17
0000
0100
0000
0000
,  // measure 18
0000
0000
0000
0000
,  // measure 19
0000
1000
0000
0000
,  // measure 20
0000
0000
0000
0000
,  // measure 21
0000
0001
0000
0000
,  // measure 22
0000
0000
0000
0000
,  // measure 23
0000
1001
0000
1000
,  // measure 24
0000
0001
0000
0000
,  // measure 25
0000
0001
0000
0000
,  // measure 26
0000
0001
0000
0000
,  // measure 27
0000
0000
0000
0000
,  // measure 28
0000
0000
0010
0000
,  // measure 29
0000
1000
0000
0000
,  // measure 30
0000
1000
0000
0000
,  // measure 31
0000
0000
0000
0000
,  // measure 32
0000
0000
0100
0000
,  // measure 33
0000
0001
0000
0000
,  // measure 34
0000
1000
0000
0000
,  // measure 35
0000
0000
0000
0000
,  // measure 36
0000
0000
0010
0000
,  // measure 37
0000
0100
0000
0000
,  // measure 38
0000
1000
0000
0000
,  // measure 39
0000
0000
0000
0001
,  // measure 40
0000
1001
1000
0000
,  // measure 41
0000
0000
1000
0000
,  // measure 42
0000
0000
0001
0000
,  // measure 43
0001
0000
0100
0000
,  // measure 44
0000
0000
0010
0000
,  // measure 45
0000
0000
0010
0000
,  // measure 46
0000
0000
0100
0000
,  // measure 47
0100
0000
1000
0000
,  // measure 48
0000
0000
1001
0000
;
