#TITLE:Bloody Tears;
#SUBTITLE:(IIDX Version);
#ARTIST:DJ YOSHITAKA;
#TITLETRANSLIT:;
#SUBTITLETRANSLIT:;
#ARTISTTRANSLIT:;
#CREDIT:;
#BANNER:bn.PNG;
#BACKGROUND:bg.bmp;
#LYRICSPATH:;
#CDTITLE:13 dd.png;
#MUSIC:Bloody Tears (IIDX EDITION).mp3;
#OFFSET:-6.220;
#SAMPLESTART:85.134;
#SAMPLELENGTH:12.000;
#SELECTABLE:YES;
#BPMS:0.000=170.000,48.000=85.000,50.000=170.000;
#STOPS:217.500=1.420
;
#BGCHANGES:;

//---------------dance-single - ----------------
#NOTES:
     dance-single:
     :
     Hard:
     8:
     0.620,0.581,0.382,0.264,0.141:
1000
0100
0010
0001
,
1000
0100
0010
0001
1000
0100
0010
0001
,
0100
1100
0101
0011
,
0100
1000
0010
0001
0100
1000
0010
0001
,
1000
0000
0100
1000
0100
0000
0010
0100
,
0010
0000
0001
0100
0001
0000
0010
0001
,
0010
0000
0010
1000
0010
0000
0010
0100
,
0010
0000
0001
1000
0001
1000
0001
1000
,
0001
0000
0001
0010
0100
0000
1000
0001
,
0100
0000
0010
1000
0001
0000
0001
1000
,
0010
1000
0010
1000
0010
0100
0001
0100
,
0001
0010
0100
1000
0010
0100
0001
1000
,
2002
0000
0000
3003
1000
0100
0010
0001
,
0010
0100
1000
0100
0010
0001
0010
0100
,
0010
1000
0010
0100
0110
0000
0000
0000
,
0000
0000
0110
0000
,
1010
0000
0101
0000
0001
0100
0001
0100
,
0001
0100
0001
0100
0001
0100
0001
0100
,
0001
0100
0001
0100
0010
0000
0000
0010
,
2000
0000
3000
0100
1000
0000
0100
0000
,
1000
0000
0100
0000
0010
0100
0010
0100
,
0010
1000
0001
0100
0010
1000
0001
0100
,
0001
1000
0001
1000
0000
0000
1000
0000
0200
0000
0000
0000
0310
0000
0000
0000
,
0100
0000
1000
0100
2000
0000
3100
0000
,
0010
0100
0010
0100
0001
0000
0011
0000
,
0001
0100
0010
1000
0010
0000
1010
0000
,
1000
0100
0010
0000
0011
0000
0011
0000
,
0001
0100
0001
1000
0010
0000
1000
0000
,
1000
1000
0100
0010
0001
0000
1001
0000
,
0010
0100
0010
1000
0010
0000
0010
0000
,
1000
0000
0100
0000
0010
0000
0001
0000
1000
0000
0000
0001
0000
0000
0000
0000
,
0010
0000
0000
0110
0000
0000
0000
0000
0010
0000
0000
0010
0000
0000
0000
0000
,
1000
0000
0100
0000
0010
0000
0100
0000
0001
0000
0001
0010
0000
0000
0000
0000
,
0010
0000
0010
0100
0000
0000
0000
0000
1000
0000
0001
1000
0000
0000
0000
0000
,
0010
0000
0100
0000
1000
0100
0000
0000
1001
0000
0000
1001
0000
0000
0000
0000
,
0011
0000
0000
1100
0000
0000
0000
0000
0110
0000
0000
0110
0000
0000
0000
0000
,
0001
0000
1000
0000
0010
0000
0100
0000
0010
0000
0010
0100
0000
0000
0000
0000
,
1000
0000
1000
0100
0000
0000
0000
0000
0010
0000
0010
0100
0000
0000
0000
0000
,
0001
0000
1000
0000
0010
1000
0000
0000
1020
0000
0000
0000
0100
0000
0000
0000
,
0001
0000
0130
0000
1000
0100
0010
0001
,
0010
0100
0010
1000
0102
0000
0010
0000
,
0100
0000
0013
0000
0010
0100
0010
0001
,
0010
1000
0010
0100
1020
0000
0100
0000
,
0001
0000
0130
0000
1000
0100
0010
0001
,
0010
0100
1000
0100
0010
0100
0010
0100
,
0001
1000
0010
0100
0001
0010
0100
0010
,
1000
0010
0100
0010
0200
0000
2300
0000
,
3010
0002
0013
0200
,
0320
0000
1030
0001
0200
0000
0000
0000
,
0000
0000
0000
0300
2000
0000
0000
0000
,
3002
0000
0203
0320
,
2030
3020
0230
0302
,
0203
0000
0301
1000
0020
0000
0000
0000
,
0000
0000
0000
0000
0030
0000
0000
0001
0010
0000
0100
0000
0010
0000
1000
0000
,
0010
0100
0001
1000
0110
0000
0010
0000
,
0010
0000
0010
0100
0010
0000
0110
0000
,
1000
0100
0010
0100
0001
0000
0011
0000
,
0001
0100
0010
1000
0010
0000
0100
0000
,
1000
0100
1000
0000
1100
0000
1100
0000
,
0010
0100
0010
0100
0020
0000
0130
0000
,
0010
1000
0010
0100
0012
0000
0103
0000
,
0010
0100
0010
1000
1002
0000
0103
0000
,
1000
0000
0100
0000
0010
0000
0001
0000
0110
0000
0000
0110
0000
0000
0000
0000
,
1100
0000
0000
1100
0000
0000
0000
0000
0011
0000
0000
0011
0000
0000
0000
0000
,
0001
0000
0100
0000
0010
0000
0100
0000
0010
0000
0010
0100
0000
0000
0000
0000
,
1000
0001
0100
0000
0000
0000
0000
0000
0010
0000
0010
0100
0000
0000
0000
0000
,
0010
0000
1000
0000
0010
1000
0000
0000
1010
0000
0000
0101
0000
0000
0000
0000
,
1100
0000
0000
0011
0000
0000
0000
0000
0101
0000
0000
1010
0000
0000
0000
0000
,
0010
0000
0100
0000
0010
0000
1000
0000
0010
0000
0010
0100
0000
0000
0000
0000
,
1000
0000
1000
0001
0000
0000
0000
0000
0010
0000
0010
0100
0000
0000
0000
0000
,
0010
0000
1000
0000
0002
2000
0000
0000
0000
0000
0000
0000
0000
0000
3003
0000
;

//---------------dance-single - ----------------
#NOTES:
     dance-single:
     :
     Medium:
     6:
     0.473,0.484,0.310,0.264,0.000:
0010
0001
0010
0100
,
1000
0100
0020
0000
1030
0001
0200
0000
,
0301
1000
0100
0010
,
0001
1000
0002
0000
1003
0001
2000
0000
,
3010
0000
0010
0100
0010
0000
1000
0100
,
1000
0000
0010
0001
0010
0000
0001
0100
,
0001
0000
0010
1000
0010
0000
0010
0100
,
0010
0000
0001
1000
0001
1000
0001
1000
,
0001
0000
0010
0100
0010
0000
0010
1000
,
0010
0000
0001
0100
0001
0000
0100
0010
,
0100
0000
0010
1000
0010
0000
0001
0100
,
0001
0000
1000
0100
0010
0001
0010
0100
,
1000
0000
2000
0000
,
0000
0000
0000
0000
,
0000
0000
3000
0100
0200
0000
0000
0000
,
0000
0000
0310
0000
,
1001
0110
2002
0000
,
0000
0000
0000
0000
,
0000
3003
0000
0010
0200
0000
0000
1300
,
0200
0000
0000
0320
0001
0000
0100
0000
,
1000
0000
0031
0000
0100
1000
0100
0010
,
0001
0010
0100
0000
0010
0000
1000
0000
,
0001
0000
1000
0100
,
0010
0000
0001
0010
0002
0000
0103
0000
,
1000
0100
0010
0000
0001
0000
1001
0000
,
0010
0100
1000
0100
0010
0000
0001
0000
,
0011
0000
0011
0000
0001
0100
0020
0000
,
1030
1010
2000
3100
,
1000
0100
0020
0000
0031
0000
0011
0000
,
0001
0100
1001
0010
,
0100
1000
0100
0010
0011
0000
0000
0000
,
0101
0000
1010
0000
,
1000
0100
0010
0001
0020
0000
0030
0000
,
0200
0300
2000
3000
,
0001
1000
0010
0000
1100
0000
0000
0000
,
0110
0000
1001
0000
,
1000
0100
0010
0001
0010
0000
0000
0000
,
0110
0000
1010
0000
,
0001
0100
0020
0000
1030
0000
1000
0000
,
1000
0000
1000
0000
1000
0100
1000
0100
,
1000
0100
1000
0100
1000
0000
0100
0000
,
0100
0000
0100
0000
0010
0100
0010
0100
,
0010
0100
0010
0100
0010
0000
0010
0000
,
0010
0000
0010
0000
0001
0100
0001
0100
,
0001
0100
0001
0100
0001
0000
0001
0000
,
0001
0000
0001
0000
0001
1000
0001
1000
,
0001
1000
0001
1000
0002
0000
0103
0000
,
0020
1030
2000
3100
,
0010
0000
0001
1000
0002
0000
0000
0000
,
0000
0000
2000
0000
,
3003
0000
0110
0001
,
1000
0100
0010
0001
,
0010
0000
1000
0001
0020
0000
0000
0000
,
0000
0000
1030
0001
,
0100
0000
1000
0100
0010
0000
0100
0000
,
1000
0000
0001
1000
0001
0000
0010
0000
,
0010
0001
0010
0000
0001
0000
0100
0000
,
0010
1000
0010
0000
1020
0000
0130
0000
,
1002
0103
0010
1000
,
0001
0100
0001
0000
0010
0000
0001
0000
,
0010
1000
0010
0000
1000
0000
0100
0000
,
0001
0100
0001
0000
0010
0000
1000
0000
,
0010
1000
0001
0100
0110
0000
0000
0000
,
0110
0000
0110
0000
,
0001
1000
0001
1000
0001
0000
0000
0000
,
0101
0000
1010
0000
,
1100
0011
1001
0000
,
0110
0000
1010
0000
,
0001
0100
0001
0100
0001
0000
0000
0000
,
1010
0000
1100
0000
,
0011
0000
2002
0000
0000
0000
0000
3003
;

//---------------dance-single - ----------------
#NOTES:
     dance-single:
     :
     Easy:
     4:
     0.350,0.452,0.228,0.428,0.000:
0010
0001
0010
0001
,
0200
1300
0200
1300
,
0010
1000
0100
0010
,
2002
0000
0000
3003
,
0100
1000
1000
1000
,
1000
0100
0100
0010
,
0010
0001
0001
0010
,
0100
2000
3200
0320
,
0031
0010
0100
0001
,
1000
0100
0010
1000
,
0001
0100
0010
1000
,
2002
0000
0000
0000
,
3003
0000
2000
0000
,
0000
0000
0000
0000
,
0000
0000
3200
0000
,
0000
0000
0310
0000
,
0001
0100
2002
0000
,
0000
0000
0000
3000
,
0000
0000
0023
0000
,
0230
0000
2300
3100
,
0010
0001
1000
0100
,
0010
1000
0001
0100
,
0001
0000
1000
0000
,
1000
0000
0001
0000
,
0100
0010
0100
0000
,
1000
0000
0001
0000
,
1000
0000
0100
0000
,
0010
0000
0010
0000
,
0100
0010
1001
0000
,
0010
0000
1000
0000
,
0001
0100
1001
0000
,
0110
0000
1001
0000
,
0010
1000
1010
0000
,
0101
0000
1010
0000
,
0101
0000
1100
0000
,
0011
0000
1100
0000
,
0011
0100
0020
0030
,
0200
0300
1000
0000
,
1001
1002
0103
0100
,
0100
0100
2000
3200
,
0320
0032
0010
0010
,
0010
0013
0020
0230
,
0320
2030
0001
0001
,
0001
3001
0002
0203
,
0320
2030
0001
0001
,
0001
3001
2002
0000
,
0000
3003
0010
0100
,
0010
0100
0010
0100
,
0010
2000
0002
0000
,
0000
3000
0200
0300
,
0020
0033
0010
1000
,
0001
0100
1000
0010
,
0100
0001
2000
0000
,
0000
3000
0100
0010
,
1000
0001
1000
0100
,
0010
0001
0110
0010
,
1000
0100
0101
0010
,
0100
1000
1010
0000
,
1001
0000
0010
0000
,
0001
0100
1010
0000
,
1000
0100
0010
0000
,
0001
0000
1000
0000
,
0010
0100
1000
0000
,
0011
0000
0101
0000
,
0010
0100
2000
3000
,
0200
0300
0020
0030
,
0002
1003
0010
0000
,
0100
0000
1000
0000
,
0001
1000
0020
0030
,
2000
3000
0020
0030
,
0200
0000
0000
0000
0000
0000
0000
0000
0000
0000
0000
0000
0000
0000
0000
0000
0000
0000
0000
0000
0000
0000
0000
0000
0000
0000
0000
0000
0000
0000
0000
0000
0000
0000
0000
0000
0000
0000
0000
0000
0000
0000
0000
0000
0000
0000
0000
0000
0002
0000
0000
0000
0000
0000
0000
0000
0000
0000
0000
0000
0000
0000
0000
0000
0000
0000
0000
0000
0000
0000
0000
0000
0000
0000
0000
0000
0000
0000
0000
0000
0000
0000
0000
0000
0000
0000
0000
0000
0000
0000
0000
0000
0000
0000
0000
0000
0000
0000
0000
0000
0000
0000
0000
0000
0000
0000
0000
0000
0000
0000
0000
0000
0000
0000
0000
0000
0000
0000
0000
0000
0000
0000
0000
0000
0000
0000
0000
0000
0000
0000
0000
0000
0000
0000
0000
0000
0000
0000
0000
0000
0000
0000
0000
0000
0000
0000
0000
0000
0000
0000
0000
0000
0000
0000
0000
0000
0000
0000
0000
0000
0000
0000
0000
0000
0000
0000
0000
0000
0000
0303
0000
0000
0000
0000
0000
0000
0000
0000
0000
0000
0000
0000
0000
0000
0000
0000
0000
0000
0000
0000
0000
0000
;

//---------------dance-single - ----------------
#NOTES:
     dance-single:
     :
     Beginner:
     1:
     0.083,0.128,0.009,0.000,0.000: // measure 1
0001
0000
0000
0000
,  // measure 2
0000
0000
0000
0000
,  // measure 3
1000
0000
0000
0000
,  // measure 4
0100
0000
0000
0000
,  // measure 5
0010
0000
0000
0000
,  // measure 6
0000
0000
0000
0000
,  // measure 7
0010
0000
0000
0000
,  // measure 8
0000
0000
0000
0000
,  // measure 9
0100
0000
0000
0000
,  // measure 10
0000
0000
0000
0000
,  // measure 11
1000
0000
0000
0000
,  // measure 12
0000
0000
0000
0000
,  // measure 13
1001
0000
0010
0000
,  // measure 14
0000
0000
0000
0000
,  // measure 15
0000
0000
0100
0000
,  // measure 16
0000
0000
1000
0000
,  // measure 17
1000
0000
1000
0000
,  // measure 18
0000
0000
0000
0000
,  // measure 19
0000
0000
0001
0000
,  // measure 20
0001
0000
0001
0000
,  // measure 21
0000
0000
0010
0000
,  // measure 22
0000
0000
0000
0000
,  // measure 23
0000
0000
0100
0000
,  // measure 24
0000
0000
0000
0000
,  // measure 25
0000
0000
1000
0000
,  // measure 26
0000
0000
0000
0000
,  // measure 27
0000
0000
0001
0000
,  // measure 28
0000
0000
0000
0000
,  // measure 29
0000
0000
0010
0000
,  // measure 30
0000
0000
0000
0000
,  // measure 31
0000
0000
1000
0000
,  // measure 32
1000
0000
1000
0000
,  // measure 33
0000
0000
0001
0000
,  // measure 34
0001
0000
0001
0000
,  // measure 35
0000
0000
0010
0000
,  // measure 36
0010
0000
0010
0000
,  // measure 37
0000
0000
0100
0000
,  // measure 38
0100
0000
0100
0000
,  // measure 39
0000
0000
0001
0000
,  // measure 40
0000
0000
0000
0000
,  // measure 41
0000
0000
1000
0000
,  // measure 42
0000
0000
0000
0000
,  // measure 43
0000
0000
0010
0000
,  // measure 44
0000
0000
0000
0000
,  // measure 45
0000
0000
0100
0000
,  // measure 46
0000
0000
0000
0000
,  // measure 47
0000
0000
1000
0000
,  // measure 48
0000
0000
0000
0000
,  // measure 49
0000
0000
0000
0000
,  // measure 50
0000
0000
0000
0000
,  // measure 51
0000
0000
0001
0000
,  // measure 52
0000
0000
0000
0000
,  // measure 53
0000
0000
0000
0000
,  // measure 54
0000
0000
0000
0000
,  // measure 55
0000
0000
0010
0000
,  // measure 56
0000
0000
0000
0000
,  // measure 57
0100
0100
0100
0000
,  // measure 58
0000
0000
1000
0000
,  // measure 59
0000
0000
0001
0000
,  // measure 60
0000
0000
0100
0000
,  // measure 61
1000
1000
1000
0000
,  // measure 62
0000
0000
0010
0000
,  // measure 63
0000
0000
0100
0000
,  // measure 64
0100
0000
0100
0000
,  // measure 65
0000
0000
0010
0000
,  // measure 66
0010
0000
0010
0000
,  // measure 67
0000
0000
1000
0000
,  // measure 68
1000
0000
1000
0000
,  // measure 69
0000
0000
0001
0000
,  // measure 70
0001
0000
0001
0000
,  // measure 71
0000
0100
0000
0000
;
