#TITLE:Blocks;
#SUBTITLE:;
#ARTIST:Sparker;
#TITLETRANSLIT:;
#SUBTITLETRANSLIT:;
#ARTISTTRANSLIT:;
#CREDIT:;
#BANNER:bn.png;
#BACKGROUND:bg.bmp;
#LYRICSPATH:;
#CDTITLE:Beatmania IIDX.png;
#MUSIC:Blocks.mp3;
#OFFSET:-6.900;
#SAMPLESTART:56.234;
#SAMPLELENGTH:13.840;
#SELECTABLE:YES;
#BPMS:0.000=141.000;
#STOPS:112.000=1.280
;
#BGCHANGES:0.000=-random-=1.000=0=0=1,
205.000=bg.bmp=1.000=0=0=1,
99999=-nosongbg-=1.000=0=0=0 // don't automatically add -songbackground-
;

//---------------dance-single - ----------------
#NOTES:
     dance-single:
     :
     Hard:
     7:
     0.401,0.418,0.131,0.312,0.116:
0000
0000
0000
0000
,
0000
0000
0000
0000
,
0000
0000
0000
0000
,
0000
1000
0200
0000
0020
0000
0330
0000
,
0001
1000
0002
0000
0100
0000
1003
0000
,
1000
0100
2000
0000
0010
0000
3001
0000
,
0010
0100
0020
0000
0100
0000
1030
0000
,
1000
0100
2000
0000
0010
0000
3001
0000
,
0001
0100
0002
0000
0010
0000
0103
0000
,
0010
0100
2000
0000
0100
0000
3010
0000
,
0001
1000
0020
0000
0100
0000
0130
0000
,
0000
0001
2000
0000
0200
0000
3300
0000
,
0010
1000
0020
0000
0100
0000
0130
0000
,
1000
0100
0020
0000
0001
0000
0031
0000
,
0001
0100
0002
0000
0100
0000
0103
0000
,
0010
1000
0020
0000
1000
0000
1030
0000
,
1000
0001
0200
0000
0010
0000
0310
0000
,
1000
0100
0020
0000
0001
0000
0031
0000
,
0001
0100
0002
0000
0100
0000
1003
0000
,
0000
0010
0200
0000
0320
0000
2030
0000
,
3001
0000
0100
1000
0000
0100
0000
0010
,
0001
0000
0001
0100
0000
0100
0000
1000
,
0100
0000
0010
0001
0000
0010
0000
0100
,
1000
0000
1000
0100
0000
0010
0000
0001
,
1000
0000
1000
0100
0000
0010
0000
0001
,
0000
0010
0000
0100
0000
1000
0100
0000
,
0110
0001
1001
0010
,
1010
0000
0101
1100
0000
0110
0000
1001
,
0000
0000
0000
0000
0011
0000
0000
0000
0000
0000
0100
0000
1000
0000
0000
0100
,
0000
1000
0100
0000
0000
0010
0000
0100
,
1000
0000
0100
0000
0010
0000
0000
0000
0000
0000
0001
0000
0100
0000
0000
1000
,
0000
0100
0010
0000
0000
0001
0000
0100
,
0010
0000
0100
0000
0010
0000
0000
0000
0000
0000
1000
0000
0001
0000
0000
1000
,
0000
0100
1000
0000
0000
0010
0000
0001
,
0100
0000
0001
0000
0010
0000
0000
0000
0000
0000
0100
0000
1000
0000
0000
0100
,
0000
0010
2000
0000
0000
0000
0000
0000
,
0000
0000
0000
0000
3001
0000
0000
0000
0000
0000
0010
0100
0010
0000
0000
0100
,
0000
1000
0100
0000
0000
0010
0000
0001
,
0100
0001
0100
0000
2000
0000
3002
0000
,
0203
0320
2030
3200
,
0320
0000
0000
0000
0031
0000
0000
0000
0000
0000
0001
0100
0001
0000
0000
0100
,
0000
1000
0100
0000
0000
0010
0000
1000
,
0100
0000
0010
0000
0001
0000
0000
0000
0000
0000
0001
1000
0001
0000
0000
0100
,
0000
1000
0100
0000
0000
0010
1000
0010
,
0100
0000
0001
0000
1000
0000
0000
0100
0000
0000
0000
0000
0000
0000
0000
0000
,
0000
0000
0000
0000
0011
0000
0000
0010
0000
0000
0100
0000
1100
0000
0000
1000
,
0000
0000
0100
0000
0010
0000
0000
0001
0000
0000
0010
0000
0100
0000
0000
1000
,
0000
0000
0100
0000
1001
0000
0000
0010
0000
0000
0100
0000
0110
0000
0000
0001
,
0000
0000
1000
0000
0100
0000
0000
0010
0000
0000
0001
0000
0100
0000
0000
1000
,
0000
0000
0100
0000
0010
0000
0000
1000
0000
0000
0010
0000
0100
0000
0000
0001
,
0000
0000
0010
0000
0100
0000
0000
1000
0000
0000
0100
0000
0010
0000
0000
0001
,
0000
0100
2002
0000
0000
0000
0000
0000
,
3003
0000
0000
0000
;

//---------------dance-single - ----------------
#NOTES:
     dance-single:
     :
     Medium:
     5:
     0.391,0.420,0.221,0.312,0.000:
0000
0000
0000
0000
,
0000
0000
0000
0000
,
0000
0000
0000
0000
,
0000
0000
0000
0000
,
0010
0000
0001
0000
0100
1000
0010
0000
,
0100
0000
1000
0000
0001
0010
1000
0000
,
0100
0000
0001
0000
0001
0010
1000
0000
,
0100
0000
0001
0000
1000
0100
0010
0000
,
0001
0000
1000
0000
0010
0100
0001
0000
,
0100
0000
0001
0000
0010
1000
0100
0000
,
0001
0000
1001
0000
0010
0100
1000
0000
,
0000
1000
0100
0000
0010
0000
0011
0000
,
0001
0100
0020
0000
1030
0000
0001
0000
,
0100
1000
0200
0000
0310
0000
1000
0000
,
0001
0100
0002
0000
0013
0000
1000
0000
,
0100
1000
0200
0000
0310
0000
1000
0000
,
0010
1000
0020
0000
1030
0000
1001
0000
,
0010
0001
0020
0000
0130
0000
1000
0000
,
0100
1000
0200
0000
1300
0000
0010
0000
,
0000
0100
1000
0000
0010
0000
0001
0000
,
1000
0000
0001
1000
0000
0100
0000
0010
,
0001
0000
0010
0100
0000
1000
0000
0001
,
1000
0000
0100
0010
0000
1000
0000
1000
,
0100
0000
0001
0100
0000
0010
0000
0010
,
0100
0000
1000
0001
0000
1100
0000
0011
,
0000
0101
0000
1010
0000
1000
0100
0010
,
0001
0011
0100
1100
,
0110
0000
0010
0200
0000
1300
0000
0001
,
0100
0000
0110
0000
0000
1000
0100
0000
,
0000
0100
1000
0000
0000
0100
0000
1000
,
0100
0010
0001
0000
0000
0010
0200
0000
,
0000
1300
0100
0000
0000
0110
0000
0010
,
1000
0010
0001
0000
0000
0100
1000
0000
,
0000
0100
0100
0000
0000
0010
1000
0001
,
0100
0010
0001
0000
0000
0001
1000
0000
,
0000
0100
0010
0000
0000
0100
0000
0000
,
1000
0000
1100
0000
0000
0010
1000
0000
,
0100
0000
0002
0000
0013
0000
0100
1000
,
0100
0001
0010
0000
0200
0000
0320
0000
,
2030
3002
0203
0320
,
2030
0000
3100
0000
0000
0010
0002
0000
,
0000
0103
0200
0000
0000
1300
0000
0100
,
1000
0100
0011
0000
0000
0001
0100
0010
,
1000
0001
1000
0000
0000
1000
0100
0000
,
0010
1000
1001
0000
0000
0000
0000
0000
,
0000
0110
1000
1100
,
0010
0011
0001
0101
,
0010
0110
1000
1100
,
1000
0000
0010
1000
0020
0000
2030
0000
,
3200
0000
0320
0000
0032
0000
0023
0030
,
0200
0000
0320
0000
2030
0000
3002
0003
,
0100
1000
2002
0000
0000
0000
0000
0000
,
0000
3003
0000
0000
;

//---------------dance-single - ----------------
#NOTES:
     dance-single:
     :
     Easy:
     3:
     0.260,0.394,0.131,0.312,0.000:
0000
0000
0000
0000
,
0000
0000
0000
0000
,
0000
0000
0000
0000
,
0000
0000
0000
0000
,
0001
0010
0100
1000
,
0010
0100
1000
0001
,
0010
0100
1000
0010
,
0001
0100
1000
0010
,
1000
0001
0100
1000
,
0010
0100
1000
0002
,
0103
0010
1000
0010
,
0000
0002
2000
3003
,
0010
0100
0001
0100
,
0010
0100
1000
0100
,
0001
0010
1000
0010
,
0100
0010
1000
0001
,
0100
0010
0100
1000
,
0010
1001
0010
0100
,
2000
3100
0020
0031
,
1000
0002
2003
0000
,
3010
0000
0000
0000
,
0001
0000
0000
0000
,
1000
0000
0000
0000
,
0100
0000
0000
0000
,
0020
0000
0000
0000
,
2030
0000
0000
0000
,
3001
0010
0100
1000
,
1000
0000
0000
0001
0000
1000
0000
0001
,
0000
0110
0000
2000
,
0000
3100
0000
0010
,
0001
1001
0000
0020
,
0000
0130
0000
1000
,
0100
0101
0000
0020
,
0000
0130
0000
1000
,
0001
0110
0000
0100
,
1000
0010
0000
0000
,
0000
1001
0000
0010
,
0100
1000
0000
0001
,
0100
0000
0002
2003
,
3002
0203
0320
0230
,
0310
1001
0000
1000
,
0000
0100
0000
0010
,
0001
1001
0000
0010
,
0000
0100
0000
1000
,
0100
0011
0000
0000
,
0000
1001
0000
1001
,
0000
1000
0000
0001
,
0000
1001
0000
0110
,
0000
2000
3200
0320
,
0032
0023
0230
0320
,
2030
3002
0203
0320
,
2030
0002
0000
0000
,
0000
3003
0000
0000
;

//---------------dance-single - ----------------
#NOTES:
     dance-single:
     :
     Beginner:
     1:
     0.063,0.103,0.020,0.000,0.000: // measure 1
0000
0000
0000
0000
,  // measure 2
0000
0000
0000
0000
,  // measure 3
0000
0000
0000
0000
,  // measure 4
0000
0000
0000
0000
,  // measure 5
0001
0000
0000
0000
,  // measure 6
0000
0000
0000
0000
,  // measure 7
1000
0000
0000
0000
,  // measure 8
0000
0000
0000
0000
,  // measure 9
0010
0000
0000
0000
,  // measure 10
0000
0000
0000
0000
,  // measure 11
0100
0000
0000
0000
,  // measure 12
0000
0000
0000
0000
,  // measure 13
0100
0000
0000
0000
,  // measure 14
0000
0000
0000
0000
,  // measure 15
0010
0000
0000
0000
,  // measure 16
0000
0000
0000
0000
,  // measure 17
1000
0000
0000
0000
,  // measure 18
0000
0000
0000
0000
,  // measure 19
0001
0000
0000
0000
,  // measure 20
0000
0000
0000
0000
,  // measure 21
0010
0000
0000
0000
,  // measure 22
0000
0000
0000
0000
,  // measure 23
0100
0000
0000
0000
,  // measure 24
0001
0000
0000
0000
,  // measure 25
1000
0000
0000
0000
,  // measure 26
0000
0000
0000
0000
,  // measure 27
0010
0000
0010
0000
,  // measure 28
0010
0000
0010
0000
,  // measure 29
0000
0001
0000
0000
,  // measure 30
0000
1000
0000
0000
,  // measure 31
0000
0100
0000
0000
,  // measure 32
0000
0100
0000
0000
,  // measure 33
0000
0110
0000
0000
,  // measure 34
0000
0010
0000
0000
,  // measure 35
0000
0010
0000
0000
,  // measure 36
0000
0000
0000
0000
,  // measure 37
0000
1001
0000
0000
,  // measure 38
0000
0001
0000
0000
,  // measure 39
0000
1000
0000
0000
,  // measure 40
0000
0010
0000
0000
,  // measure 41
0000
0100
0000
0000
,  // measure 42
0000
0100
0000
0000
,  // measure 43
0000
1000
0000
0000
,  // measure 44
0000
0001
0000
0000
,  // measure 45
0000
0010
0000
0000
,  // measure 46
0000
0100
0000
0100
,  // measure 47
0000
0100
0000
0000
,  // measure 48
0000
1000
0000
1000
,  // measure 49
0000
0001
0000
0000
,  // measure 50
0000
1000
0000
0000
,  // measure 51
0000
0010
0000
0100
,  // measure 52
0000
0001
0000
0000
;
