#TITLE:Beyond The Earth;
#SUBTITLE:;
#ARTIST:猫叉Master;
#TITLETRANSLIT:;
#SUBTITLETRANSLIT:;
#ARTISTTRANSLIT:Nekomata Master;
#CREDIT:;
#BANNER:bn.PNG;
#BACKGROUND:vol3-24-ntsc_0001.jpg;
#LYRICSPATH:;
#CDTITLE:Beatmania IIDX.png;
#MUSIC:Beyond The Earth.ogg;
#OFFSET:-5.240;
#SAMPLESTART:56.640;
#SAMPLELENGTH:12.000;
#SELECTABLE:YES;
#BPMS:0.000=140.000;
#STOPS:;
#BGCHANGES:8.000=-random-=1.000=0=0=1,
295.000=vol3-24-ntsc_0001.jpg=1.000=0=0=1,
99999=-nosongbg-=1.000=0=0=0 // don't automatically add -songbackground-
;

//---------------dance-single - ----------------
#NOTES:
     dance-single:
     :
     Hard:
     8:
     0.483,0.550,0.194,0.403,0.269: // measure 1
0000
0000
0000
0000
,  // measure 2
0000
0000
0000
0000
0000
0000
0000
0001
,  // measure 3
0010
0200
0000
1300
0100
1000
0010
0001
,  // measure 4
0010
0001
0010
0100
2000
0000
3001
1000
,  // measure 5
0200
0000
0000
0000
0000
0000
0000
0000
0310
0000
0000
0100
0020
0000
0000
0000
,  // measure 6
0130
0000
0000
1001
0000
0000
0110
0000
0000
0000
0000
0000
0000
0000
1000
0000
,  // measure 7
0001
0020
0000
0130
0010
0001
0010
0100
,  // measure 8
1000
0001
0010
1000
0002
0000
1003
0100
,  // measure 9
0020
0000
0031
0010
0200
0000
1300
0001
,  // measure 10
0011
0000
0000
1100
0000
0000
0002
0000
0020
0000
0000
0000
0033
0000
0001
0000
,  // measure 11
0010
0200
0000
1300
0100
1000
0010
0001
,  // measure 12
0010
0001
0010
0100
1000
0000
0001
1000
,  // measure 13
0002
0000
0000
0000
0000
0000
0000
0000
0010
0000
0000
0000
1003
0000
0000
0001
,  // measure 14
0010
0000
0000
1100
0000
0000
0011
0000
0000
0000
0000
0000
0000
0000
0000
0000
,  // measure 15
0001
0100
0001
0000
0001
1000
0001
0000
,  // measure 16
0001
0010
0001
0000
0010
0000
0001
0000
,  // measure 17
1000
0100
1000
0000
1000
0010
1000
0000
,  // measure 18
1000
0001
1000
0000
0010
0000
0100
0000
,  // measure 19
0001
0010
0100
0000
1000
0100
0010
0000
,  // measure 20
0001
0010
0100
0000
1000
0100
0010
0000
,  // measure 21
0010
0100
1000
0000
1000
0100
0010
0000
,  // measure 22
0002
0000
0000
0000
0023
0000
0000
0000
0200
0000
0000
0000
0330
0000
0010
0100
,  // measure 23
0020
0000
0000
0000
0000
0000
0130
0010
0200
0000
0000
0000
0000
0000
0310
0100
,  // measure 24
0020
0000
0000
0000
0000
0000
0130
0010
0100
0000
0010
0000
0100
0000
0000
0001
,  // measure 25
1000
0000
0000
0000
0000
0000
1000
0100
2000
0000
0000
0000
3000
0000
0010
0001
,  // measure 26
0020
0000
0000
0000
0000
0000
0000
0000
0000
0000
0000
0000
0030
0000
0001
1000
,  // measure 27
0001
0000
0000
0000
0000
0000
0001
1000
0002
0000
0000
0000
0000
0000
1003
0001
,  // measure 28
2000
0000
0000
0000
0000
0000
3001
1000
0001
0000
1000
0000
0001
0000
0000
0020
,  // measure 29
0200
0000
0000
0000
0000
0000
0000
0000
0000
0000
0000
0330
0000
0000
1000
0200
,  // measure 30
0020
0000
0000
0000
0000
0000
0330
0001
,  // measure 31
1000
0001
0000
1000
0100
0010
0001
0010
,  // measure 32
0100
0001
1000
0010
2000
0000
0100
0100
,  // measure 33
0100
0000
0010
0010
3010
0000
0001
1000
,  // measure 34
1001
0000
0000
0110
0000
0000
0001
0000
0020
0000
0000
0000
0000
0000
0031
0000
,  // measure 35
0010
0002
0000
0103
0001
0100
0001
1000
,  // measure 36
0010
1000
0010
1000
0002
0000
0013
0100
,  // measure 37
2000
0000
0000
0000
0000
0000
0000
0000
3001
0000
0000
0000
0100
0000
0000
0010
,  // measure 38
0100
0000
0000
0110
0000
0000
0110
0000
0000
0000
0000
0000
0000
0000
0000
0000
,  // measure 39
1000
0000
0000
0100
0000
0000
0010
0000
0001
0000
0000
0010
0000
0000
0001
0000
,  // measure 40
0010
0000
0000
0100
0000
0000
1000
0000
0100
0000
0000
1000
0000
0000
0010
0000
,  // measure 41
1000
0000
0000
0001
0000
0000
1000
0000
0100
0000
0000
0010
0000
0000
0001
0000
,  // measure 42
0010
0000
0000
0100
0000
0000
1000
0000
0100
0000
0000
0010
0000
0000
0001
0000
,  // measure 43
1001
0000
0000
1001
0000
0000
0000
0000
0110
0000
0000
0110
0000
0000
0000
0000
,  // measure 44
1100
0000
0000
1100
0000
0000
0000
0000
0011
0000
0000
0011
0000
0000
0000
0000
,  // measure 45
0101
0000
0000
0101
0000
0000
0000
0000
1010
0000
0000
1010
0000
0000
0000
0000
,  // measure 46
1000
0000
0000
0000
0100
0000
0000
0000
0010
0000
0000
0000
0001
0000
0000
0000
0000
0000
0001
0000
0000
0010
0000
0000
0200
0000
0000
0000
0000
0000
0000
0000
0000
0000
0000
0000
0000
0000
0000
0000
0000
0000
0000
0000
0000
0000
0000
0000
,  // measure 47
2300
0000
0000
0000
,  // measure 48
3002
0000
0000
0000
,  // measure 49
0203
0000
0000
0000
,  // measure 50
0320
0000
0000
0000
,  // measure 51
2030
0000
0000
0000
,  // measure 52
3002
0000
0000
0000
,  // measure 53
0200
0000
0000
0000
,  // measure 54
0303
0000
0000
0000
0000
0000
0000
0000
0000
0000
0000
0000
0000
0000
0010
1000
,  // measure 55
0020
0000
0000
0000
0000
0000
1030
0010
2000
0000
0000
0000
0000
0000
3010
1000
,  // measure 56
0020
0000
0000
0000
0000
0000
1030
0010
1000
0000
0010
0000
1000
0000
0000
1000
,  // measure 57
0100
0000
0000
0000
0000
0000
0010
0001
0020
0000
0000
0000
0000
0000
0031
0010
,  // measure 58
0002
0000
0000
0000
0000
0000
0000
0000
0000
0000
0000
0000
0103
0000
0010
0100
,  // measure 59
0020
0000
0000
0000
0000
0000
0130
0010
0200
0000
0000
0000
0000
0000
0310
0100
,  // measure 60
0020
0000
0000
0000
0000
0000
1030
0100
0010
0000
0001
0000
0010
0000
0000
0001
,  // measure 61
0020
0000
0000
0000
0000
0000
0000
0000
0000
0000
0000
0000
0000
0000
0130
0010
,  // measure 62
0200
0000
0000
0000
0000
0000
0000
0000
0000
0000
0000
0000
0300
0000
1000
0100
,  // measure 63
1000
0000
0010
0000
0001
0000
0010
0001
0010
0000
0100
0000
0001
0000
0001
0100
,  // measure 64
0001
0000
0100
0000
0001
0000
0010
1000
0010
0000
1000
0000
0010
0000
0000
0001
,  // measure 65
1000
0000
0001
0000
1000
0000
0001
1000
0001
0000
1000
0000
0001
0000
0010
0001
,  // measure 66
0020
0000
0000
0000
0000
0000
0000
0000
0000
0000
0000
0000
0030
0000
0100
1000
,  // measure 67
0100
0000
0010
0000
0100
0000
0010
0100
0010
0000
0100
0000
0001
0000
0001
0100
,  // measure 68
0001
0000
0100
0000
0010
0000
0010
1000
0010
0000
1000
0000
0010
0000
0000
0002
,  // measure 69
2000
0000
0000
0000
0000
0000
0000
0000
0000
0000
0000
0000
3003
0000
0010
0200
,  // measure 70
0020
0000
0000
0330
,  // measure 71
0001
0000
0000
1000
0000
0000
0100
0000
1000
0000
0000
0100
0000
0000
0010
0000
,  // measure 72
0001
0000
0000
0010
0000
0000
0001
0000
0010
0000
0000
0100
0000
0000
1000
0000
,  // measure 73
1010
0000
0000
0100
0000
0000
0010
0000
0011
0000
0000
0001
0000
0000
0100
0000
,  // measure 74
0101
0000
0000
0010
0000
0000
1000
0000
0010
1000
0000
0000
1001
0000
0000
0000
;

//---------------dance-single - ----------------
#NOTES:
     dance-single:
     :
     Medium:
     5:
     0.372,0.442,0.134,0.373,0.004:
0000
0000
0000
0000
,
0000
0000
0000
0000
,
0000
0000
0000
0000
,
0000
0000
0000
0000
,
0000
0000
0000
0000
,
0000
0000
0000
0000
,
0001
2000
0000
3010
0100
0000
0100
0000
,
1000
0000
1000
0100
0020
0000
0031
0100
,
2000
0000
3001
0010
,
0020
0000
0000
0130
0100
0000
0000
1000
,
0100
0010
0000
0001
0100
0000
0010
0000
,
1001
0000
0010
0100
0020
0000
1030
0000
,
0011
0000
0000
0100
0002
0000
0103
0000
,
2002
0000
0000
3003
0100
0000
0010
0000
,
1000
0100
0010
0000
0001
0000
0100
0000
,
0001
1000
0010
0100
,
1000
0010
0100
0000
0001
0000
1000
0000
,
0100
0001
0000
0001
0100
0000
0010
0000
,
0011
0000
0100
0000
0001
1000
0010
0000
,
0001
1000
0100
0010
,
0001
0001
0100
0000
1000
0000
0100
0000
,
0010
0000
0100
0000
0010
0000
0001
0010
,
0020
0000
0030
0100
0200
0000
0000
1000
,
2300
0000
0000
3100
0010
1000
0002
0000
,
0203
0000
0000
0310
0020
0000
0000
1030
,
2000
0000
3001
1001
,
0020
0000
0000
0130
0200
0000
0000
1300
,
2000
0000
3000
1000
0100
0010
0001
0000
,
0002
0000
0000
0100
0200
0003
0310
0000
,
1001
0000
0020
1030
,
0002
0000
0000
0103
1000
0000
1000
0100
,
0010
0001
0010
0100
1000
0000
0010
0000
,
0110
0000
0000
0010
0010
0000
0001
0000
,
0101
0000
0000
0010
0010
0000
0000
0001
,
1000
0000
0000
0000
1100
0000
0010
1000
,
0010
0000
0000
1000
1100
0000
0010
0000
,
0011
0000
0000
0000
0001
0000
1000
0100
,
0010
0000
0000
0100
0000
0000
0001
0000
0000
0000
1000
0000
0100
0000
0000
0000
,
0010
1000
0020
0000
0130
0000
0011
0000
,
0001
0100
0010
0000
1000
1000
1000
0000
,
0100
0010
0001
0100
,
1000
0000
0010
0000
0001
0001
0001
0000
,
0010
0100
0020
0000
1030
0001
0200
0000
,
1300
0001
2000
0000
3010
0010
0010
0000
,
1000
1000
1000
0000
0001
0001
0001
0000
,
0110
0000
1010
0000
0001
1000
0010
0000
,
1000
0100
0000
0000
,
0010
0100
1000
0001
,
1000
0100
0010
0000
0001
0000
0100
0000
,
0010
0100
0000
0100
0110
0000
0000
0000
,
2000
3000
0000
0000
,
0000
0002
0000
0000
,
0100
0000
0013
0000
,
2000
0000
3001
0000
,
0020
0000
0000
0130
0200
0000
0000
1300
,
2000
0000
3000
0001
0100
0010
2000
0000
,
3001
0000
0000
0001
0002
0000
0000
0013
,
2000
0000
3000
1100
,
0020
0000
0000
0130
0200
0000
0300
1000
,
2000
0000
0000
3000
0001
0100
0010
0000
,
1001
0000
0000
0000
0000
0000
0000
0010
,
0020
0000
0100
1030
,
0002
0000
0000
1000
2003
0000
0000
3100
,
0200
0000
0300
0010
1000
0001
0100
0000
,
0020
0000
0000
0130
0200
0000
0300
1000
,
2000
0000
0000
0000
0000
0000
3001
0001
,
0200
0000
0000
0301
0002
0000
0000
0103
,
0200
0000
0300
1000
1000
0100
0010
0000
,
0001
0000
0000
0100
1000
0000
0010
0000
,
0100
0000
0010
1000
,
0001
0000
1000
0100
0000
0000
0000
0010
,
0100
0000
0000
0010
1000
0000
0000
0001
,
0100
0000
0000
0010
0100
0000
0000
1000
,
0100
0000
0000
0010
0100
0000
2002
0000
,
3003
0000
0000
0000
;

//---------------dance-single - ----------------
#NOTES:
     dance-single:
     :
     Easy:
     3:
     0.273,0.387,0.209,0.470,0.000:
0000
0000
0000
0000
,
0000
0000
0000
0000
,
0000
0000
0000
0000
,
0000
0000
0000
0000
,
0000
0000
0000
0000
,
0000
0000
0000
0000
,
2000
0000
3002
0000
,
0103
0010
0100
1000
,
0020
0030
0002
0003
,
0100
1000
1001
0000
,
0020
0030
0002
0003
,
0100
1000
0100
0010
,
0001
0000
0001
0001
,
0020
0000
0030
0000
,
1000
0100
1000
0100
,
1000
0100
1000
0100
,
0001
0100
0001
0100
,
0001
0100
0101
0000
,
0001
0010
0001
0010
,
0001
0010
0001
0010
,
0010
1000
0010
1000
,
0010
1000
0010
0000
,
2000
0000
3200
0000
,
0320
0000
0032
0023
,
0230
0000
0320
0000
,
2030
0000
0000
3001
,
0020
0000
0230
0000
,
2300
0000
3002
0023
,
2030
0000
0000
0000
,
3002
0000
0000
0000
,
1003
0000
0100
0010
,
1000
0001
0100
0110
,
0010
0000
1000
1001
,
0020
0000
0130
1001
,
0010
0000
1000
1001
,
0020
0000
0130
1100
,
0020
0000
2030
0000
,
3002
0000
0103
0110
,
0020
1030
1000
0100
,
0010
0100
0001
1001
,
0010
0100
1000
0001
,
0100
0010
1000
0100
,
1001
0010
0110
0010
,
1001
0010
1001
0100
,
1100
0010
0011
0010
,
2002
0000
3003
0000
,
0020
0000
0000
0000
,
0000
0000
0000
0000
,
0200
0000
0000
0000
,
0000
0000
0030
0000
,
2000
0000
0000
0000
,
0000
0000
0000
0300
,
0002
0000
0000
0000
,
3003
0000
0000
0000
,
0020
0000
0230
0000
,
2300
0000
3002
2003
,
3020
0000
0230
0000
,
2300
0000
0000
3001
,
0020
0000
0230
0000
,
2300
0000
3002
0203
,
0320
0000
0000
0000
,
2030
0000
3002
0003
,
1100
0000
0011
0000
,
0101
0000
0010
1000
,
2002
3000
0200
0300
,
0020
0000
0000
0033
,
2100
0000
0020
0030
,
0200
0300
0002
0003
,
0020
0000
3000
0000
,
0200
0030
0302
0000
,
1003
0000
1001
0000
,
1001
0000
1001
0000
,
0110
0000
0110
0000
,
0110
0000
0010
0220
,
0330
0000
0000
0000
;

//---------------dance-single - ----------------
#NOTES:
     dance-single:
     :
     Beginner:
     1:
     0.071,0.138,0.015,0.000,0.000:
0000
0000
0000
0000
,
0000
0000
0000
0000
,
0000
0000
0000
0000
,
0000
0000
0000
0000
,
0000
0000
0000
0000
,
0000
0000
0000
0000
,
0001
0000
0000
0000
,
0000
0000
0000
0000
,
0100
0000
0000
0000
,
0000
0000
0000
0000
,
0010
0000
0000
0000
,
0000
0000
0000
0000
,
1000
0000
0000
0000
,
0000
0000
0000
0000
,
0001
0000
0000
0000
,
0000
0000
0000
0000
,
1000
0000
0000
0000
,
0100
0000
0100
0000
,
0100
0000
0000
0000
,
0001
0000
0000
0000
,
0010
0000
0000
0000
,
0001
0000
0000
0000
,
1000
0000
1000
0000
,
1000
0000
0000
0000
,
0001
0000
0001
0000
,
0001
0000
0000
0000
,
0010
0000
0010
0000
,
0010
0000
0000
0000
,
0100
0000
0000
0000
,
0100
0000
0000
0000
,
1001
0000
0000
0000
,
0000
0000
0000
0000
,
0001
0000
0000
0000
,
0000
0000
0000
0000
,
0110
0000
0000
0000
,
0000
0000
0000
0000
,
1000
0000
0000
0000
,
0000
0000
0000
0000
,
0001
0000
0000
0000
,
0000
0000
0000
0000
,
1000
0000
0000
0000
,
0000
0000
0000
0000
,
0010
0000
0010
0000
,
0010
0000
0010
0000
,
0100
0000
0100
0000
,
0100
0000
0000
0000
,
0001
0000
0000
0000
,
0000
0000
0000
0000
,
0100
0000
0000
0000
,
0000
0000
0000
0000
,
1000
0000
0000
0000
,
0000
0000
0000
0000
,
0010
0000
0000
0000
,
0000
0000
0000
0000
,
0001
0000
0001
0000
,
0001
0000
0000
0000
,
1000
0000
1000
0000
,
1000
0000
0000
0000
,
0100
0000
0100
0000
,
0100
0000
0000
0000
,
0001
0000
0000
0000
,
0010
0000
0000
0000
,
1000
0000
0001
0000
,
1000
0000
0000
0000
,
0010
0000
0100
0000
,
0010
0000
0000
0000
,
0001
0000
1000
0000
,
0100
0000
0000
0000
,
0010
0000
0000
0000
,
0001
0000
0000
0000
,
1000
0000
0000
0000
,
0000
0000
0000
0000
,
0001
0000
0000
0000
,
0000
0000
0000
0010
;
