#TITLE:Beatonic Nation;
#SUBTITLE:;
#ARTIST:Sota Fujimori;
#TITLETRANSLIT:;
#SUBTITLETRANSLIT:;
#ARTISTTRANSLIT:;
#CREDIT:;
#BANNER:bn.PNG;
#BACKGROUND:bg.PNG;
#LYRICSPATH:;
#CDTITLE:15 trooper.png;
#MUSIC:Beatonic Nation.mp3;
#OFFSET:-2.200;
#SAMPLESTART:50.684;
#SAMPLELENGTH:12.000;
#SELECTABLE:YES;
#DISPLAYBPM:165.000;
#BPMS:0.000=165.000,98.000=82.500,114.000=165.000;
#STOPS:194.000=2.545
;
#BGCHANGES:;

//---------------dance-single - ----------------
#NOTES:
     dance-single:
     :
     Challenge:
     9:
     0.701,1.000,0.022,1.000,0.116:
0000
0000
0001
0010
,
0100
1000
0010
0001
,
0100
0001
0100
1000
,
0100
1000
0010
0001
,
0010
0000
0100
0000
0100
0001
0100
0000
,
1000
0010
0100
0000
0001
0010
0100
0000
,
1000
0010
0001
0000
0001
0010
0100
0000
,
1000
0010
0100
0000
2002
0000
0000
0000
,
0000
0000
3003
0000
0100
0002
0003
0010
,
0001
0020
0030
0100
1000
0200
0300
1000
,
0010
2000
3000
0100
0001
0200
0300
1000
,
0001
2000
3000
0001
0010
0002
0003
0100
,
1000
0200
0300
1000
0010
2000
3000
0100
,
0001
0200
0300
0100
0010
0200
0300
1000
,
0001
2000
3000
0001
0010
0002
0003
0100
,
0010
2000
3000
0001
0010
0200
0300
1000
,
0001
0200
0300
0001
0010
0100
1000
0100
,
0010
1000
0010
0000
0100
0001
0100
0001
,
0100
0010
0100
0000
1000
0100
0010
0001
,
0010
0100
1000
0000
1000
0001
0100
0001
,
1000
0001
0100
0000
1000
0001
0010
0001
,
1000
0010
0001
0000
0010
0001
0010
0100
,
1000
0100
0010
0000
1000
0001
0010
1000
,
0010
0001
0010
0000
0100
0001
1000
0100
,
0010
0000
0001
0000
0010
0000
0100
0000
1000
0020
1030
0002
0003
0001
0010
0100
,
1000
0100
0020
0000
0031
0000
0000
0200
0301
0200
0301
0200
0301
0020
0130
2000
,
3100
0020
0031
0020
1030
0002
0103
0002
1003
0020
0031
0020
0030
0002
0013
0200
,
1300
0200
0320
0000
1030
0000
0000
0100
0010
0002
0103
0020
1030
0200
0310
2000
,
3001
0020
0130
0002
0103
0020
1030
0002
1003
0000
0020
0000
1030
0000
0020
0000
,
0030
0002
0013
0200
1300
0200
0020
0300
,
0130
0000
0000
0200
0301
0200
0301
0020
,
0130
2000
3100
0020
1030
0020
1030
0020
,
0130
0002
0103
0002
0103
0002
0103
0002
,
0003
0002
0013
0200
1300
0200
1300
0000
,
1100
0000
0000
0200
0310
0200
0310
0200
,
0310
2000
3001
2000
3010
0002
0013
0200
,
1300
0200
0310
0002
0013
0002
0013
0002
,
0003
0100
1000
0100
0010
1000
0020
0000
,
0130
0000
0000
0002
0013
0200
1300
0200
,
0310
0002
0013
0200
0301
2000
3001
2000
,
3001
2000
3001
0200
0301
0020
0130
2000
,
3000
0020
0031
0020
0130
2000
3100
0000
,
1010
0000
0000
1000
0010
0010
0001
0100
,
0010
1000
1000
0001
0010
0010
0100
0100
,
0001
0000
0001
0000
1000
0000
1000
0000
0001
0000
0010
0000
0001
0000
0100
0001
,
0000
0000
0010
0001
0010
0100
2000
0000
,
0000
0000
0000
0000
3001
0020
0000
0000
,
0031
0000
1000
0200
2000
0000
0000
0000
,
0000
0000
3300
0002
,
2003
3002
2003
3020
,
0230
0320
0230
0320
,
2030
3020
0000
0230
,
0320
2030
3002
0203
,
0302
0023
0230
2300
,
3200
0320
0032
0023
,
0230
2300
3020
0230
,
0302
0023
0000
0032
,
0023
0032
0023
2030
,
3020
2030
3020
0230
,
0320
0000
0230
0000
0000
0000
0310
0100
,
0010
0000
0100
0000
0001
0010
0100
0000
1000
0000
0010
0000
0200
0000
0000
0000
,
0320
2030
3002
2003
,
3002
0203
0302
2003
,
3020
2030
3200
2300
,
3020
0230
0000
0320
,
2030
3002
0023
2030
,
3200
2300
3200
2300
,
3020
0000
0000
0000
0032
0000
0000
0000
0000
0000
0000
0000
1003
0010
1000
0000
,
0010
0001
0010
0100
1000
0100
0020
0000
,
0230
0302
2003
3200
,
0320
0032
0023
0230
,
2300
3020
0032
0203
,
0320
2030
3002
2003
,
3010
0000
0001
0010
0100
1000
0200
0000
,
0010
0000
0300
0001
1000
0001
2000
0000
,
3010
0000
0001
0000
0100
0001
0200
0000
,
0310
0000
0001
0000
0001
0010
0100
0000
,
0000
1000
0010
1000
0010
1000
0020
0000
,
0000
0000
0030
0001
0010
0001
0020
0000
,
0000
0230
0302
2003
,
3020
0032
0203
0300
;

//---------------dance-single - ----------------
#NOTES:
     dance-single:
     :
     Medium:
     6:
     0.436,0.484,0.105,0.540,0.000:
0000
0000
0001
0001
,
1000
1000
0001
0100
,
0010
1000
0100
0010
,
0001
0010
0100
1000
,
0001
0000
0100
0001
0100
0000
0110
0000
,
0010
0100
1000
1100
,
1000
0100
0010
0011
,
0100
0101
2200
0000
,
0000
0000
3300
0000
0001
0100
0000
0000
,
1000
0100
0000
0000
0010
0001
0000
0000
,
0100
0010
0000
0000
1000
0100
0000
0000
,
0010
0001
0000
0000
0001
0100
0000
0000
,
0010
0100
0000
0000
1000
0100
1000
0000
,
0010
0000
0100
0000
0001
0100
0001
0000
,
0010
0000
0001
0000
0001
1000
0010
0000
,
0100
1000
2200
0000
,
0000
0000
3300
0000
0001
0100
0001
0100
,
0001
0100
0001
0000
1000
0100
1000
0100
,
1000
0100
1000
0000
0010
1000
0010
1000
,
0010
1000
0010
0000
0001
0100
0001
0100
,
0001
0100
0001
0000
0001
0010
0001
0000
,
0100
0000
1100
0000
0010
1000
0010
0000
,
1000
0000
1001
0000
0001
1000
0001
0000
,
0100
0000
1100
0000
0010
1000
0010
0000
,
0100
0000
0010
0000
0002
0000
0000
1003
,
0100
0010
0001
0000
0020
0000
0230
0000
,
0320
0000
2030
0000
3002
0000
0003
1000
,
0001
0100
0110
0000
0020
0000
0230
0000
,
0320
2030
3001
1000
,
0100
0000
0010
0000
0001
0100
0001
0000
,
0101
0000
0001
0001
,
1000
1000
0001
0010
,
0100
0000
1000
0000
0100
0000
0000
1000
,
0000
0100
0000
1000
0000
0100
1000
0000
,
1100
0000
0010
1000
,
0001
0100
0001
0010
,
0100
0000
1000
0000
0001
0000
1000
0001
,
0000
0001
0100
0001
1000
0010
1000
0000
,
1001
0000
0001
0001
,
1000
1000
0001
0010
,
0100
0000
1000
0000
0200
0000
0000
2300
,
0000
3010
0100
0010
,
1001
0000
0001
0100
,
1000
0000
0100
0000
0010
0001
0010
0100
,
1000
0100
0010
0001
2000
0000
3001
0000
,
0100
0000
0010
0200
0020
0000
0000
0000
,
0000
0000
0330
0000
0001
0200
0000
0000
,
1000
0000
0020
0000
,
0000
0330
0000
0002
,
0103
2000
3100
0002
,
0103
2000
3100
0002
,
0100
0200
0303
0020
,
1000
1000
1030
2000
,
3100
0002
0103
2000
,
3100
0002
0103
0002
,
1003
0002
0013
0020
,
0100
0200
0330
0002
,
0013
2000
3010
0002
,
0013
2000
3010
0002
,
0010
0020
0033
2000
,
0100
0100
0100
3200
,
1300
0200
1300
2000
,
3100
2000
3100
2000
,
3001
0200
0301
0020
,
0130
0002
1003
0002
,
0000
1000
1000
2000
,
0000
0000
3003
0000
0001
1000
0002
0000
,
0000
0100
0100
0200
,
0000
0000
0303
0000
0010
0100
0020
0000
,
0000
0100
0100
0230
,
0000
0302
0000
2003
,
3001
0200
0310
1000
,
0100
0010
0001
0200
,
0000
0301
0100
0001
0100
0001
0200
0000
,
0000
0300
0010
0020
,
0000
0000
1030
0010
1000
0010
2000
0000
,
0000
0000
3001
0002
,
0000
0000
1003
0001
1000
0001
2000
0000
,
0000
3002
0000
0203
,
0010
0010
0010
0320
,
2030
3002
0200
0303
;

//---------------dance-single - ----------------
#NOTES:
     dance-single:
     :
     Easy:
     3:
     0.306,0.272,0.000,0.420,0.000:
0000
0000
1000
0000
,
0001
0000
1000
0000
,
0001
0000
0100
0000
,
0010
0000
1000
0000
,
0001
0000
1000
1000
,
0001
1000
0001
0100
,
0010
1000
0100
0010
,
0001
0100
0002
0000
,
0003
0000
2000
3000
,
0002
0003
0200
0300
,
0020
0030
2000
3000
,
0002
0003
0200
0300
,
0020
0030
2000
3000
,
0002
0003
2000
3000
,
0200
0300
0020
0030
,
0002
0000
2000
0000
,
0000
3003
0001
0100
,
0002
0003
0010
1000
,
0020
0030
1000
0001
,
2000
3000
0001
0100
,
0002
0003
0010
1000
,
0020
0030
1000
0001
,
2000
3000
0001
0100
,
0020
0030
0010
0100
,
2000
3000
0001
0000
,
0000
0000
1000
1000
,
0001
0100
0010
0000
,
0000
0010
0100
0100
,
0010
1000
0001
0000
,
0000
1000
0100
0010
,
0001
0000
0001
0100
,
0010
1000
0001
0010
,
0100
1000
0100
0000
,
0000
1000
0100
0010
,
0001
0000
0001
1000
,
0001
0100
0010
1000
,
0010
1000
0001
1000
,
0001
0100
0010
1000
,
0010
0000
1000
0100
,
0010
0001
0010
0001
,
0010
0001
2000
0000
,
0000
0001
0001
0001
,
3001
0000
0001
0100
,
1000
0100
0001
0010
,
1000
0010
0002
0000
,
0003
1000
0200
0000
,
0000
0300
1000
0000
,
0100
0000
0000
0010
0000
0000
0000
0000
,
0001
1000
0000
0002
,
0100
0100
0100
0100
,
0100
0100
0100
0100
,
0100
0200
0300
0100
,
0100
0100
0103
2000
,
0100
0100
0100
0100
,
0100
0100
0100
0100
,
0100
0100
0100
0100
,
0100
0200
3300
0020
,
0100
0100
0100
0100
,
0100
0100
0100
0100
,
0100
0200
0330
0010
,
0100
1000
0001
2000
,
0100
0100
0100
0100
,
0100
0100
0100
0100
,
0100
0100
0100
0100
,
0100
0200
3300
0020
,
0000
0001
0001
0002
,
0000
0033
0001
0002
,
0000
0100
0100
0200
,
0000
0303
0010
0020
,
0000
0100
0100
0200
,
0030
0020
0300
0200
,
0000
0000
0330
0002
,
0000
1003
0000
0002
,
0000
1000
1000
2000
,
0000
3003
0010
0020
,
0000
0100
0100
0200
,
0000
0330
0002
2000
,
0003
0001
0001
0002
,
3000
2000
3003
0002
,
0000
2003
0000
3200
,
0000
0020
0000
0330
;

//---------------dance-single - ----------------
#NOTES:
     dance-single:
     :
     Hard:
     8:
     0.607,0.878,0.022,0.757,0.116:
0000
0000
1000
0100
,
0010
0001
0100
1000
,
0010
1000
0010
0001
,
0010
0001
0100
1000
,
0100
0000
0010
0000
0010
1000
0010
0000
,
0001
0100
0010
0000
1000
0100
0010
0000
,
0001
0100
1000
0000
1000
0100
0010
0000
,
0001
0100
0010
0000
2002
0000
0000
0000
,
0000
0000
3003
0000
0010
1000
0000
0100
,
1000
0100
0000
0010
0001
0010
0000
0001
,
0100
0001
0000
0010
1000
0010
0000
0001
,
1000
0001
0000
1000
0100
1000
0000
0010
,
0001
0010
0000
0001
0100
0001
0000
0010
,
1000
0010
0000
0010
0100
0010
0000
0001
,
1000
0001
0000
1000
0100
1000
0000
0010
,
0100
0001
0000
1000
0100
0010
0000
0001
,
1000
0010
0000
1000
0100
0010
0001
0010
,
0100
0001
0100
0000
0010
1000
0010
1000
,
0010
0100
0010
0000
0001
0010
0100
1000
,
0100
0010
0001
0000
0001
1000
0010
1000
,
0001
1000
0010
0000
0001
1000
0100
1000
,
0001
0100
1000
0000
0100
1000
0100
0010
,
0001
0010
0100
0000
0001
1000
0100
0001
,
0100
1000
0100
0000
0010
1000
0001
0010
,
0100
0000
1000
0000
0100
0000
0010
0000
0001
0100
0001
1000
0000
1000
0100
0010
,
0001
0010
0100
0000
1000
0000
0000
0010
1000
0010
1000
0010
1000
0100
0010
0001
,
0010
0100
1000
0100
0001
1000
0010
1000
0001
0100
1000
0100
0000
1000
0100
0010
,
0001
0010
0100
0000
0001
0000
0000
0010
0100
1000
0010
0100
0001
0010
0100
0001
,
1000
0100
0010
1000
0010
0100
0001
1000
0001
0000
0100
0000
0001
0000
0100
0000
,
0000
1000
0100
0010
0001
0010
0100
0000
,
0010
0000
0000
0010
1000
0010
1000
0100
,
0010
0001
0010
0100
0001
0100
0001
0100
,
0010
1000
0010
1000
0010
1000
0010
1000
,
0000
1000
0100
0010
0001
0010
0001
0000
,
0011
0000
0000
0010
0100
0010
0100
0010
,
0100
0001
1000
0001
0100
1000
0100
0010
,
0001
0010
0100
1000
0100
1000
0100
1000
,
0000
0010
0001
0010
0100
0001
0100
0000
,
0010
0000
0000
1000
0100
0010
0001
0010
,
0100
1000
0100
0010
1000
0001
1000
0001
,
1000
0001
1000
0010
1000
0100
0010
0001
,
0000
0100
1000
0100
0010
0001
0010
0000
,
0101
0000
0000
0001
0100
0100
1000
0010
,
0100
0001
0001
1000
0100
0100
0010
0010
,
1000
0000
1000
0000
0001
0000
0001
0000
1000
0000
0100
0000
1000
0000
0010
1000
,
0000
0000
0100
1000
0100
0010
0002
0000
,
0000
0000
0000
0000
1003
0200
0000
0000
,
1300
0000
0001
0020
0002
0000
0000
0000
,
0000
0000
0033
2000
,
3002
2003
3002
0203
,
0320
0230
0320
0230
,
0302
0203
0000
0320
,
0230
0302
2003
3020
,
2030
3200
0320
0032
,
0023
0230
2300
3200
,
0320
0032
0203
0320
,
2030
3200
0000
2300
,
3200
2300
3200
0302
,
0203
0302
0203
0320
,
0230
0000
0320
0000
0000
0000
0130
0010
,
0100
0000
0010
0000
1000
0100
0010
0000
0001
0000
0100
0000
0020
0000
0000
0000
,
0230
0302
2003
3002
,
2003
3020
2030
3002
,
0203
0302
0023
0032
,
0203
0320
0000
0230
,
0302
2003
3200
0302
,
0023
0032
0023
0032
,
0203
0000
0000
0000
2300
0000
0000
0000
0000
0000
0000
0000
3001
0100
0001
0000
,
0100
1000
0100
0010
0001
0010
0200
0000
,
0320
2030
3002
0023
,
0230
2300
3200
0320
,
0032
0203
2300
3020
,
0230
0302
2003
3002
,
0103
0000
1000
0100
0010
0001
0020
0000
,
0100
0000
0030
1000
0001
1000
0002
0000
,
0103
0000
1000
0000
0010
1000
0020
0000
,
0130
0000
1000
0000
1000
0100
0010
0000
,
0000
0001
0100
0001
0100
0001
0200
0000
,
0000
0000
0300
1000
0100
1000
0200
0000
,
0000
0320
2030
3002
,
0203
2300
3020
0030
;

//---------------dance-single - ----------------
#NOTES:
     dance-single:
     :
     Beginner:
     2:
     0.096,0.150,0.015,0.000,0.000: // measure 1
0000
0000
0001
0000
,  // measure 2
0000
0000
0000
0000
,  // measure 3
0000
0000
1000
0000
,  // measure 4
0000
0000
0000
0000
,  // measure 5
0000
0000
0100
0000
,  // measure 6
0000
0000
0100
0000
,  // measure 7
0000
0000
0010
0000
,  // measure 8
0000
0000
1001
0000
,  // measure 9
0000
0000
0001
0000
,  // measure 10
0000
0000
1000
0000
,  // measure 11
0000
0000
0100
0000
,  // measure 12
0000
0000
0010
0000
,  // measure 13
0000
0000
0001
0000
,  // measure 14
0000
0000
1000
0000
,  // measure 15
0000
0000
0001
0000
,  // measure 16
0000
0000
1000
0000
,  // measure 17
0000
0000
0100
0000
,  // measure 18
0000
0000
0100
0000
,  // measure 19
0000
0000
0100
0000
,  // measure 20
0000
0000
0100
0000
,  // measure 21
0000
0000
0010
0000
,  // measure 22
0000
0000
0010
0000
,  // measure 23
0000
0000
0010
0000
,  // measure 24
0000
0000
0010
0000
,  // measure 25
0000
0000
1001
0000
,  // measure 26
0000
0000
0000
0000
,  // measure 27
0000
0000
0100
0000
,  // measure 28
0000
0000
0000
0000
,  // measure 29
0000
0000
1000
0000
,  // measure 30
0000
0000
0000
0000
,  // measure 31
0000
0000
0001
0000
,  // measure 32
0000
0000
0001
0000
,  // measure 33
0001
0000
0001
0000
,  // measure 34
0000
0000
0000
0100
,  // measure 35
0100
0000
0000
0000
,  // measure 36
0000
0000
1000
0000
,  // measure 37
1000
0000
1000
0000
,  // measure 38
0000
0000
0010
0010
,  // measure 39
0010
0000
0100
0000
,  // measure 40
0000
0000
0000
0000
,  // measure 41
0000
0000
0001
0000
,  // measure 42
0000
1000
1000
1000
,  // measure 43
1000
0000
0001
0000
,  // measure 44
0000
0000
0000
0000
,  // measure 45
0000
0000
0100
0000
,  // measure 46
0000
0000
0010
0000
,  // measure 47
0000
0000
1000
0000
,  // measure 48
0000
0000
0000
0000
,  // measure 49
0001
0001
0000
0100
,  // measure 50
0000
0000
0000
0000
,  // measure 51
0000
0000
0000
0100
,  // measure 52
0000
0000
0000
0100
,  // measure 53
0000
0100
0000
0001
,  // measure 54
0000
0000
0000
0001
,  // measure 55
0000
0000
0000
0001
,  // measure 56
0000
0000
0000
0001
,  // measure 57
0000
0001
0000
1000
,  // measure 58
0000
0000
0000
1000
,  // measure 59
0000
0000
0000
1000
,  // measure 60
0000
0000
0000
0010
,  // measure 61
0000
0010
0000
0010
,  // measure 62
0000
0000
0000
0010
,  // measure 63
0000
0000
0000
0100
,  // measure 64
0000
0000
0000
1000
,  // measure 65
0000
0000
0000
1000
,  // measure 66
0000
1000
0000
1000
,  // measure 67
0000
0000
0000
0001
,  // measure 68
0000
0001
0000
0001
,  // measure 69
0000
0000
0000
0100
,  // measure 70
0000
0100
0000
0100
,  // measure 71
0000
0000
0000
0010
,  // measure 72
0000
0000
0000
0000
,  // measure 73
0000
0000
0000
0010
,  // measure 74
0000
0000
0000
0000
,  // measure 75
0000
0000
0010
0010
,  // measure 76
0000
0000
0000
0100
,  // measure 77
0000
0000
1000
1000
,  // measure 78
0000
0000
0000
0001
,  // measure 79
0000
1000
0000
0001
,  // measure 80
0000
0000
0000
0100
,  // measure 81
0000
0010
0000
0000
;
