#TITLE:Beat Machine;
#SUBTITLE:;
#ARTIST:Crunchy Boy Jr.;
#TITLETRANSLIT:;
#SUBTITLETRANSLIT:;
#ARTISTTRANSLIT:;
#CREDIT:;
#BANNER:bn.bmp;
#BACKGROUND:bg.bmp;
#LYRICSPATH:;
#CDTITLE:!Dokuroridertitle.png;
#MUSIC:Beat Machine.mp3;
#OFFSET:-6.420;
#SAMPLESTART:37.800;
#SAMPLELENGTH:12.500;
#SELECTABLE:YES;
#BPMS:0.000=128.000;
#STOPS:;
#BGCHANGES:;

//---------------dance-single - ----------------
#NOTES:
     dance-single:
     :
     Hard:
     7:
     0.431,0.454,0.292,0.240,0.177:
0000
0000
0000
0010
,
0100
0000
0000
0000
1000
0000
0000
0100
0000
0000
0010
0000
1000
0000
0001
0000
,
0100
0000
0000
0000
1001
0000
0000
1100
0000
0000
1000
0000
0010
0000
0000
0000
,
0100
0000
0000
0000
0010
0000
0000
0001
0000
0000
0100
0000
1000
0000
0100
0000
,
0010
0000
0000
0000
0001
0000
0000
0100
0000
0000
1000
0000
0020
0000
0000
0000
,
0230
0000
0000
0000
1300
0000
0000
0100
0000
0000
0000
0000
0010
0000
0100
0000
,
0010
0000
0000
0000
1001
0000
0000
1001
0000
0000
0001
0000
0010
0000
0000
0000
,
0200
0000
1300
0000
0100
0000
0010
1000
,
0020
0100
0130
1000
,
0100
0000
0000
0000
0010
0000
0000
0001
0000
0000
0100
0000
1000
0000
0100
0000
,
0010
0000
0000
0000
0001
0000
0000
0100
0000
0000
0010
0000
1000
0000
0000
0000
,
1001
0000
0000
0000
0010
0000
0000
0100
0000
0000
1000
0000
0100
0000
0010
0000
,
0001
0000
0000
0000
0010
0000
0000
0100
0000
0000
1000
0000
0010
0000
0000
0000
,
0101
0000
0000
0000
1100
0000
0000
0010
0000
0000
0100
0000
0001
0000
1000
0000
,
0010
0000
0000
0000
0110
0000
0000
0110
0000
0000
1010
0000
0001
0000
0000
0000
,
1000
0000
0000
0000
0100
0000
0000
1000
0000
0000
0010
0000
0100
0000
0001
0000
,
1000
0020
0000
2030
,
3200
0000
0000
0000
0310
0000
0000
0001
0000
0000
0100
0000
1000
0000
0001
0000
,
0100
1000
0000
0000
0010
0100
0010
0000
,
0001
0000
0010
0000
0100
1000
0100
0010
,
0001
0000
0000
0000
0001
0000
0001
0100
0000
0000
0010
0000
2100
0000
0000
0000
,
3020
0130
1000
0100
,
0100
0001
0010
0001
0100
0000
0020
0000
,
0230
0000
0310
0100
0010
0000
0001
0000
,
0100
1000
0010
0100
0001
0000
2000
0000
,
0001
0000
3000
0002
,
1000
0000
0000
1000
0000
0000
1000
0000
0000
1003
0000
0000
0020
0000
0000
0000
,
0100
0000
0000
0000
0000
0000
0030
0000
0000
0000
0000
0000
2000
0000
0000
0001
,
0000
0000
0001
0000
0000
0001
0000
0000
0001
0000
0000
0001
3000
0000
0000
0000
,
0020
0000
2030
0000
3002
0000
0103
0010
,
0100
0000
0000
0000
0000
0000
1000
0000
0000
0100
0000
0000
0020
0000
0000
0000
0000
0000
0031
0000
1000
0000
0010
0000
,
0200
0000
0310
1000
0010
0000
0001
0100
,
0001
0000
0000
0100
0000
0000
0010
0000
0000
1000
0000
0000
0001
0000
0000
0000
0000
0000
0010
0000
0100
0000
0001
0000
,
1000
0000
0100
1000
0100
0000
0010
0100
,
0010
0000
0000
1000
0000
0000
0001
0000
0000
0010
0000
0000
0100
0000
0000
0000
0000
0000
0010
0000
0100
0000
0001
0000
,
1000
0000
0000
0000
0000
0000
1000
0000
0000
0100
0000
0000
0010
0000
0000
0000
0000
0000
0001
0000
0010
0000
0100
0000
,
1000
0000
0000
0000
0000
0000
0001
0000
0000
0010
0000
0000
0100
0000
0000
0000
0000
0000
0010
0000
0001
0000
1000
0000
,
0010
0000
0000
0000
0000
0000
1000
0000
0000
0100
0000
0000
0010
0000
0000
0000
0000
0000
1000
0000
0001
0000
0100
0000
,
0010
0000
0000
1001
0000
0000
0110
0000
0000
0010
0100
1000
,
0002
0000
0100
0100
0103
0000
0101
1010
,
2002
0000
3003
0010
,
0101
1000
1010
0100
,
1100
0010
0011
0010
,
0110
1000
0011
0100
,
1010
0100
0110
0001
,
0011
0000
1000
0000
1100
0010
1001
1001
;

//---------------dance-single - ----------------
#NOTES:
     dance-single:
     :
     Medium:
     5:
     0.326,0.334,0.240,0.312,0.000:
0000
0000
0000
1000
,
0100
0000
0010
0000
0001
0000
0100
0001
,
0100
0010
1000
0001
,
0100
0000
1000
0000
0010
0100
1000
0100
,
1000
0010
0100
0002
,
2003
0000
0000
0000
0000
3000
0100
1000
,
0100
0010
1000
0002
,
0200
0000
0000
0000
0303
0000
0010
0100
,
0020
0000
0000
0000
0000
0030
2000
0000
,
3100
0000
0010
0000
0001
0000
0010
0100
,
0010
1000
0001
0010
,
0011
0000
0100
0000
1000
0000
0010
1000
,
0010
0100
1000
0001
,
0110
0000
1000
0000
0010
0000
0001
0010
,
0001
0100
0010
1000
,
0110
0000
0001
0000
0100
0000
1000
0100
,
1000
0000
0020
0000
0000
0030
2000
0000
,
3200
0000
0300
0010
,
0200
0000
0000
0300
1000
0100
0010
0000
,
0001
0000
1000
0000
0001
0000
0100
0001
,
0100
0010
0100
1001
,
2002
0000
0000
0000
3003
0000
0010
0100
,
0010
1000
0100
0011
,
0022
0000
0000
0000
0033
0000
0100
1000
,
0100
1000
0010
0001
,
0000
0000
1000
0100
,
2000
0000
3010
0001
,
0200
0300
0000
0020
,
0000
0000
0000
0130
,
2000
3001
0000
0010
,
0100
2000
0000
3001
,
0200
0000
0000
0000
0300
0000
0010
1000
,
0010
0100
1000
0011
,
2200
0000
0000
0000
3000
0300
0010
1000
,
0010
0001
0100
0110
,
0220
0000
0000
0000
0000
0330
0001
1000
,
0002
1003
0100
0020
,
0002
0000
0000
0000
0000
0033
0100
1000
,
0100
0010
1000
1001
,
2002
0000
3003
0010
,
0100
0000
0001
1000
0200
0000
0310
0000
,
0011
0010
0110
1000
,
1100
0010
1010
1000
,
1001
0100
0110
0001
,
0011
0100
1100
0010
,
0110
0000
1001
0000
0000
1000
0010
0001
;

//---------------dance-single - ----------------
#NOTES:
     dance-single:
     :
     Easy:
     3:
     0.202,0.263,0.187,0.240,0.000:
0000
0000
0000
1000
,
0000
0001
0000
0100
,
0000
0010
0000
1000
,
0000
0001
0000
0100
,
0000
0020
0000
1030
,
2000
0000
0000
3001
,
0001
0100
0000
0110
,
0220
0000
0330
0001
,
0000
0000
0000
1000
,
0000
0001
0000
0100
,
0100
0010
0000
0001
,
1001
0000
0000
0100
,
0000
0010
0000
0000
,
1001
0000
0000
0010
,
0010
1000
0001
0100
,
1001
0000
0000
0020
,
0000
0000
0030
1000
,
2000
0000
3000
0001
,
0000
0000
0100
0010
,
0000
0001
0000
1001
,
1001
0020
0030
0100
,
0202
0000
0303
0010
,
1000
0001
0100
1010
,
2200
0000
3300
0001
,
0000
1000
0100
0020
,
0000
0000
0030
2000
,
0000
0000
3000
0002
,
0000
0000
0003
0200
,
0000
0000
0000
1300
,
0000
0000
0000
0001
,
0000
0000
0000
0100
,
0200
0000
0000
0300
,
0000
0010
0000
1001
,
2002
0000
3003
0010
,
1000
0100
0010
0011
,
0022
0000
0033
0100
,
1000
0001
0100
1010
,
2020
0000
3030
1000
,
0001
0100
0010
1001
,
1001
0000
0000
1000
,
0000
0000
0000
0001
,
0000
1000
0000
0100
,
0000
0010
0000
0001
,
0000
0100
0000
0010
,
0000
1000
0001
0100
,
0000
0000
0000
0000
0000
0000
0000
0000
0000
0000
0000
0000
0000
0000
0000
0000
0000
0000
0000
0000
0000
0000
0000
0000
0000
0000
0000
0000
0000
0000
0000
0000
0000
0000
0000
0000
0000
0000
0000
0000
0000
0000
0000
0000
0000
0000
0000
0000
0010
0000
0000
0000
0000
0000
0000
0000
0000
0000
0000
0000
0000
0000
0000
0000
0000
0000
0000
0000
0000
0000
0000
0000
0000
0000
0000
0000
0000
0000
0000
0000
0000
0000
0000
0000
0000
0000
0000
0000
0000
0000
0000
0000
0000
0000
0000
0000
0000
0000
0000
0000
0000
0000
0000
0000
0000
0000
0000
0000
0000
0000
0000
0000
0000
0000
0000
0000
0000
0000
0000
0000
0000
0000
0000
0000
0000
0000
0000
0000
0000
0000
0000
0000
0000
0000
0000
0000
0000
0000
0000
0000
0000
0000
0000
0000
0200
0000
0000
0000
0000
0000
0000
0000
0000
0000
0000
0000
0000
0000
0000
0000
0000
0000
0000
0000
0000
0000
0000
0000
0000
0300
0000
0000
0000
0000
0000
0000
0000
0000
0000
0000
0000
0000
0000
0000
0000
0000
0000
0000
0000
0000
0000
0000
;

//---------------dance-single - ----------------
#NOTES:
     dance-single:
     :
     Beginner:
     1:
     0.051,0.095,0.010,0.000,0.000: // measure 1
0000
0000
0000
1000
,  // measure 2
0000
0000
0000
0000
,  // measure 3
0000
0000
0000
0100
,  // measure 4
0000
0000
0000
0000
,  // measure 5
0000
0000
0000
0001
,  // measure 6
0000
0000
0000
0000
,  // measure 7
0000
0000
0000
0010
,  // measure 8
0000
0000
0000
0000
,  // measure 9
0000
0000
0000
0100
,  // measure 10
0000
0000
0000
0000
,  // measure 11
0000
0000
0000
1000
,  // measure 12
0000
0000
0000
0000
,  // measure 13
0000
0001
0000
0100
,  // measure 14
0000
0000
0000
0000
,  // measure 15
0000
0010
0000
0100
,  // measure 16
0000
0000
0000
0000
,  // measure 17
0000
0000
0000
1000
,  // measure 18
1000
0000
0000
0000
,  // measure 19
0000
0000
0000
0000
,  // measure 20
0000
0000
0000
0000
,  // measure 21
0000
0000
0000
0001
,  // measure 22
0001
0000
0000
0000
,  // measure 23
0000
0000
0000
0010
,  // measure 24
0010
0000
0000
0100
,  // measure 25
0100
0000
0000
0000
,  // measure 26
0001
0000
0000
0000
,  // measure 27
1000
0000
0000
0000
,  // measure 28
0010
0000
0000
0000
,  // measure 29
0000
0000
0000
0000
,  // measure 30
0000
0000
0000
1001
,  // measure 31
0000
0000
0000
0001
,  // measure 32
0000
0000
0000
0000
,  // measure 33
0000
0000
0000
0100
,  // measure 34
0000
0000
0000
0000
,  // measure 35
0000
0000
0000
0010
,  // measure 36
0000
0000
0000
1000
,  // measure 37
0000
0000
0000
0001
,  // measure 38
0000
0000
0000
0000
,  // measure 39
0000
0000
0000
0100
,  // measure 40
0000
0000
0000
1000
,  // measure 41
0000
0000
0000
0010
,  // measure 42
0000
0000
0000
0000
,  // measure 43
0000
0000
0000
0100
,  // measure 44
0000
0000
0000
0000
,  // measure 45
0000
0000
0000
1000
,  // measure 46
0000
0000
0000
0001
;
