#TITLE:Be quiet;
#SUBTITLE:;
#ARTIST:ryu☆;
#TITLETRANSLIT:;
#SUBTITLETRANSLIT:;
#ARTISTTRANSLIT:;
#CREDIT:;
#BANNER:bn.JPG;
#BACKGROUND:bg.jpg;
#LYRICSPATH:;
#CDTITLE:Beatmania IIDX.png;
#MUSIC:Be quiet.mp3;
#OFFSET:-1.900;
#SAMPLESTART:72.280;
#SAMPLELENGTH:12.500;
#SELECTABLE:YES;
#BPMS:0.000=150.000;
#STOPS:128.000=2.800
,169.000=1.200
;
#BGCHANGES:;

//---------------dance-single - ----------------
#NOTES:
     dance-single:
     :
     Hard:
     9:
     0.569,0.720,0.248,0.051,0.316:
0101
0000
1010
0000
0110
0000
0010
0100
,
0110
1000
0100
0010
,
0011
0000
0100
0000
1000
0000
0100
1000
,
2002
0000
0000
3003
,
0010
1000
0010
0000
0011
0000
1100
0000
,
0010
1000
0100
0000
0011
0000
0101
0000
,
0001
0100
0010
0000
1000
0000
0110
0000
,
1001
0000
0000
1010
0000
0000
0010
0000
0110
0000
0000
0000
1000
0000
0100
0000
,
0010
0000
0001
0010
0000
0001
0000
0000
0000
0000
0000
0000
0000
0000
0000
0000
,
1000
0000
0010
1000
0000
0010
0000
0000
0000
0000
0000
0000
0000
0000
0000
0000
,
0001
0000
0001
0100
0000
0001
0000
0000
0000
0000
0000
0000
0000
0000
0000
0000
,
0001
0000
0001
1000
0000
0001
0000
0000
0000
0000
0000
0000
0000
0000
0000
0000
,
0010
0000
0010
1000
0000
0000
0000
0000
0001
0000
0001
0100
0000
0000
0000
0000
,
0010
0000
0010
0100
0000
0000
0000
0000
1000
0000
1000
0100
0000
0000
0000
0000
,
0010
0000
0010
1000
0010
0000
0001
0100
0001
0000
0010
0001
0010
0000
0001
0010
,
0001
0100
1000
0100
0010
0100
0010
0001
,
0010
0000
0000
0001
0000
0000
0000
0000
0000
0000
0100
0000
0000
1000
0000
0000
,
0100
0000
0000
0000
0010
0000
0100
0000
0000
0000
1000
0000
0000
0100
0000
0000
,
0010
0000
0000
0001
0000
0000
0000
0000
0000
0000
0100
0000
0000
1000
0000
0000
,
0010
0100
0000
0010
0100
0000
0010
0000
2000
0000
0000
0000
3002
0000
0000
0000
,
0103
1000
0100
0000
0010
0001
0010
0000
,
0001
0100
0000
0001
0100
0000
0010
0000
1000
0000
0000
0000
1100
0000
0000
0000
,
0010
1000
0010
0000
0010
0100
0010
0000
,
1001
0000
0000
0110
0000
0000
0001
0000
0010
0000
0000
0000
1000
0100
1000
0100
,
1000
0000
0000
0010
0000
0000
0000
0000
0100
0000
0000
1000
0000
0000
0000
0000
,
0010
0000
0000
0001
0000
0000
0000
0000
0100
0000
0100
0000
0100
0000
0000
0000
,
0001
0000
0000
1000
0000
0000
0000
0000
0100
0000
0000
1000
0000
0000
0000
0000
,
0010
0000
0100
0000
0000
0000
1000
0000
1100
0000
0000
0000
0010
1000
0010
1000
,
0010
0000
0000
0100
0000
0000
0000
0000
1000
0000
0000
0100
0000
0000
0000
0000
,
0010
0000
0000
0001
0000
0000
0000
0000
0010
0000
0100
0000
1000
0000
0100
0000
,
0001
0010
0001
0010
0001
0010
0001
0010
0001
0010
0001
0010
,
0001
0010
0100
1000
0100
0010
0001
0100
0010
0100
1000
0001
,
0010
0000
0000
0000
0001
0000
0100
0000
0001
0000
0000
0001
0000
0000
0000
0000
,
0010
0000
1000
0000
0010
0000
1000
0000
0010
0000
0000
0010
0000
0000
0000
0000
,
0100
0000
1000
0000
0100
0000
1000
0000
0100
0000
0000
0100
0000
0000
0000
0000
,
0001
0000
0100
0000
0001
0000
0100
0000
0001
0000
0000
0001
0000
0000
0000
0000
,
0010
0000
0100
0000
0010
0000
0000
0010
0000
0000
0100
0000
1000
0000
0000
0100
,
0000
0000
1000
0000
0100
0000
0000
0010
0000
0000
0001
0000
0010
0000
0000
0001
,
0000
0010
0100
1000
0100
0010
0001
0010
,
0100
1000
0100
0010
0001
0010
0100
0010
,
1000
0001
1001
0000
0000
0000
0110
0000
,
0000
1100
0000
0011
,
0101
0000
1001
0000
0001
1000
0001
1000
,
0001
1000
0010
0000
1000
0100
0010
0001
,
0010
0100
0001
0000
0010
1000
0010
1000
,
0010
0100
0001
1000
0010
0010
0100
1000
,
0100
0010
0001
0001
0100
0001
1000
0010
,
0100
0001
1000
0000
1000
0100
0010
0001
,
0010
0100
1000
0000
0010
1000
0010
1000
,
0001
0000
0100
0000
0010
0000
1000
0000
1100
0000
0000
0101
0000
0000
1100
0000
,
0011
0000
1000
0001
1000
0100
1000
0100
,
0010
0100
0010
0100
0001
1000
0010
1000
,
0000
0001
0100
0001
0010
1000
0010
1000
,
0001
0100
0010
1000
0001
1000
0100
0010
,
0001
0000
0010
0100
0010
1000
0001
1000
,
0100
1000
0100
0010
0001
0010
0100
0001
,
0100
0010
1000
0001
0100
1000
0100
0010
,
0001
0010
1000
0001
1000
0010
1000
0100
,
1000
0100
0010
0001
0100
0100
1000
0100
,
0010
0001
0010
0100
0001
1000
0010
0100
,
0001
0000
1000
0000
0100
0000
0010
0000
0001
0000
0010
1000
0010
0000
0100
0000
,
0000
0000
0000
0000
0000
0000
0000
0000
0000
0000
1000
0000
1000
0000
0000
0100
,
0000
0000
0010
0100
0010
1000
0010
1000
,
0010
0100
0001
0010
0001
0010
0100
1000
,
0100
0000
0010
0000
0001
0000
0010
0000
0001
1000
0001
0000
0001
1000
0001
0000
,
0001
1000
0001
0000
0001
1000
0001
0000
0010
0100
0010
0000
0010
0100
0010
0000
,
0010
0100
0010
0000
0010
0100
0010
0000
2002
0000
0000
0000
0000
0000
0000
0000
,
0000
0000
3003
0000
;

//---------------dance-single - ----------------
#NOTES:
     dance-single:
     :
     Medium:
     7:
     0.456,0.605,0.154,0.111,0.038:
1000
0001
0100
0010
,
1000
0001
0100
0010
,
0010
1000
0001
0000
0100
0000
0010
0000
,
2002
3003
0000
0000
,
0010
1000
0000
0000
0010
0000
0100
0000
,
0010
1000
0001
0100
,
0010
0100
0010
0000
1000
0000
0010
0000
,
0010
0000
0000
1000
0000
0000
0001
0000
0100
0000
0000
0000
1000
0000
0100
0000
,
0010
0100
0010
0100
0000
0000
0000
0000
,
0010
1000
0001
0100
0000
0000
0000
0000
,
0010
2000
0010
3000
0000
0000
0000
0000
,
0001
0100
0001
0100
0000
0000
0000
0000
,
0010
0100
0010
0000
0010
1000
0010
0000
,
0001
0100
0010
0000
0010
1000
0010
0000
,
0010
0100
0001
1000
0010
0100
0001
1000
,
0010
0100
0010
1000
0001
0100
0010
0100
,
0020
0000
0030
0000
0000
1000
0000
0000
,
1000
0010
0001
0100
0000
0000
0020
0000
,
0130
0110
0000
0000
,
0020
0130
1000
0001
,
1001
0000
0010
0000
1000
0100
0010
0000
,
0011
0000
1100
0000
0010
0100
0010
1000
,
0001
1001
0110
0001
,
0010
1000
0001
0100
0020
0000
0130
0000
,
1000
0100
1000
0000
0001
0100
0001
0000
,
0010
0100
0010
0000
1001
0000
0110
0000
,
0010
0100
0100
0000
0001
0100
0010
0000
,
0001
0100
0010
0000
0010
0010
0110
0000
,
1000
0100
1000
0000
0010
0100
0010
0000
,
0001
1000
0001
0000
0010
1000
0010
0000
,
1010
0101
1100
0011
,
0001
1000
0001
1000
0001
1000
0001
1000
0001
1000
0001
1000
,
0001
2000
3100
0010
,
0000
0010
0100
0000
0000
0000
0000
0000
,
0010
1000
0010
0000
0000
0000
0000
0000
,
2000
0000
0000
3000
0000
0000
0000
0000
,
0000
0100
0010
0000
0000
0000
0010
0000
,
0000
0000
0010
0000
0000
0000
0100
1000
,
0000
0000
0010
0100
0010
0100
0010
0100
,
0010
0100
0010
0100
0010
0100
0010
0100
,
0010
0100
0001
0000
0000
0000
1000
0000
,
0000
0001
0000
1000
,
0001
1001
0010
1000
,
1000
0100
0010
0000
0001
0000
0100
0000
,
0010
1000
0001
0000
1001
0000
0110
0000
,
0010
1000
0001
0000
0002
0000
0100
0000
,
1000
1003
0100
0010
0100
0000
0010
0000
,
0001
1000
0010
0000
0100
0000
1000
0000
,
0010
0100
0001
0000
1000
0000
0100
0000
,
0010
1000
0001
0000
0100
0000
1000
0000
,
0100
0000
0010
0100
0001
1000
0010
0000
,
0010
0100
0010
0000
0010
1000
0010
0000
,
0001
0100
0001
0000
0010
0100
0010
0000
,
0010
1000
0010
0000
0001
0100
0002
0000
,
0100
0000
0103
0000
0010
0100
0010
0000
,
0010
1000
0010
0000
0001
0100
0010
0000
,
0010
0100
0010
0000
0010
0000
0100
0000
,
0010
0000
1000
0000
1000
0100
0010
0001
,
1000
0100
0010
0000
0010
0100
0001
1000
,
0010
0100
0001
0000
0010
1000
0010
0100
,
0001
0100
0010
0000
0001
1000
0100
0010
,
0100
0000
0010
0000
0010
1000
0010
0100
,
0001
0100
0001
0100
0010
1000
0001
0000
,
0010
0100
0010
0000
1000
0001
0100
0000
,
0010
1000
0010
0000
1000
0100
0010
0001
,
1000
0100
0010
0100
0001
1000
0010
0100
,
0001
1000
0010
0100
2002
0000
0000
0000
,
0000
0000
3003
0000
;

//---------------dance-single - ----------------
#NOTES:
     dance-single:
     :
     Easy:
     5:
     0.397,0.519,0.435,0.324,0.000:
0001
1000
0001
1000
,
1001
0010
0010
0010
,
2000
0000
3000
0100
,
0022
0033
0000
0000
,
0001
0100
0010
1000
,
0100
0010
1000
0001
,
0100
0010
1000
0010
,
0001
0000
1001
0010
,
2000
3100
0010
0100
,
0002
0103
0010
1000
,
0002
0103
0010
1000
,
0200
0310
1000
0001
,
2000
3100
0020
0130
,
0002
1003
0200
0310
,
0020
2030
3002
0203
,
0320
0230
0302
1003
,
2002
3003
0000
0000
,
0220
0330
0000
0000
,
2200
3300
0000
0000
,
0022
0033
0000
0000
,
0010
0100
1000
0001
,
0100
0010
0100
0010
,
1001
0010
1000
0100
,
0010
0100
1001
0010
,
1010
0001
0011
0001
,
0101
0000
0010
0000
1000
0010
0100
0000
,
0010
0110
0010
1010
,
0001
0000
0101
0000
0001
1000
0001
0000
,
2000
3100
0010
0110
,
0001
0011
0100
1000
,
1010
0101
1100
0011
,
0110
1001
0110
1010
,
0101
0001
0001
0001
,
1000
1000
1000
1000
,
0100
0100
0100
0100
,
0010
0010
0010
0010
,
1000
2000
0000
3000
,
0000
0001
0000
0001
,
0000
0001
1000
0001
,
1000
0001
1000
0001
,
1000
1002
0000
1003
,
0000
1001
0000
1001
,
1001
0000
0010
0100
,
0010
0110
1000
0100
,
1000
1100
0001
0100
,
0001
0101
0022
0033
,
0010
0000
0010
0100
,
0010
0110
0001
1000
,
0001
1001
1000
0100
,
1000
0100
1100
0011
,
1001
0001
0100
0001
,
0100
0001
0100
0001
,
0100
0101
0001
0010
,
0001
0020
0031
0001
,
0010
0110
1000
0100
,
0010
1000
0001
0100
,
0010
1000
0002
1003
,
0200
0310
2002
0000
,
0000
3003
0010
0100
,
0010
1000
0001
0100
,
0010
1000
1100
0011
,
0110
1001
0110
1001
,
0110
1001
0010
1000
,
0100
0001
0010
0100
,
1000
0001
1000
0100
,
0010
0001
1000
0010
,
0100
0010
2002
0000
,
0000
0000
3003
0000
;

//---------------dance-single - ----------------
#NOTES:
     dance-single:
     :
     Beginner:
     2:
     0.078,0.284,0.094,0.000,0.000: // measure 1
1000
0000
0000
0000
,  // measure 2
0000
0000
0000
0000
,  // measure 3
0001
0000
0000
0000
,  // measure 4
0000
0000
0000
0000
,  // measure 5
0010
0000
0000
0000
,  // measure 6
0000
0000
0000
0000
,  // measure 7
0100
0000
0000
0000
,  // measure 8
1001
0000
0000
0000
,  // measure 9
1000
0000
0000
0000
,  // measure 10
0000
0000
0000
0000
,  // measure 11
0001
0000
0000
0000
,  // measure 12
0000
0000
0000
0000
,  // measure 13
0010
0000
0000
0000
,  // measure 14
0010
0000
0000
0000
,  // measure 15
0100
0000
0100
0000
,  // measure 16
0100
0000
0000
0000
,  // measure 17
0001
0000
0000
0000
,  // measure 18
0000
0000
0000
0000
,  // measure 19
1000
0000
0000
0000
,  // measure 20
0000
0000
0010
0010
,  // measure 21
0010
0000
0000
0000
,  // measure 22
0000
0000
0000
0000
,  // measure 23
0100
0000
0000
0000
,  // measure 24
0001
0000
1001
1000
,  // measure 25
1000
0000
0000
0000
,  // measure 26
0000
0000
0001
0001
,  // measure 27
0000
0000
0000
0000
,  // measure 28
0000
0000
0000
0010
,  // measure 29
0010
0000
0000
0000
,  // measure 30
0000
0000
0000
0000
,  // measure 31
1001
0000
1001
0000
,  // measure 32
0110
0000
0110
0000
,  // measure 33
1001
0000
0000
0000
,  // measure 34
0000
0000
0000
0000
,  // measure 35
0000
0000
0000
0000
,  // measure 36
0000
0000
0000
0000
,  // measure 37
0000
0000
0000
0000
,  // measure 38
0000
0000
0000
0000
,  // measure 39
0000
0000
0000
0000
,  // measure 40
0000
0000
0000
0000
,  // measure 41
0000
1000
0000
1000
,  // measure 42
0000
1000
0000
0001
,  // measure 43
0001
1001
0010
0000
,  // measure 44
0000
0000
0000
0000
,  // measure 45
0000
0000
0100
0000
,  // measure 46
0000
0000
0001
0000
,  // measure 47
0000
0000
1000
0000
,  // measure 48
0000
0000
0000
0000
,  // measure 49
0000
0000
0001
0000
,  // measure 50
0000
0000
0110
0000
,  // measure 51
0000
0000
0100
0000
,  // measure 52
0000
0000
0000
0000
,  // measure 53
0000
0000
0001
0000
,  // measure 54
0000
0000
0000
0000
,  // measure 55
0000
0000
1000
0000
,  // measure 56
0000
0000
0000
0000
,  // measure 57
0000
0000
0010
0000
,  // measure 58
0000
0000
0000
0000
,  // measure 59
0000
0000
1001
0000
,  // measure 60
0000
0000
0000
0000
,  // measure 61
0000
0000
0100
0000
,  // measure 62
0000
0000
0000
0000
,  // measure 63
0000
0000
0010
0000
,  // measure 64
0000
0000
0000
0000
,  // measure 65
0000
0000
0001
0000
,  // measure 66
0000
0000
1000
0000
,  // measure 67
0000
0000
0110
0000
;
