#TITLE:Be quiet SF_Glitch Techno Mix;
#SUBTITLE:;
#ARTIST:RYU*;
#TITLETRANSLIT:;
#SUBTITLETRANSLIT:;
#ARTISTTRANSLIT:;
#CREDIT:;
#BANNER:bn.PNG;
#BACKGROUND:bg.PNG;
#LYRICSPATH:;
#CDTITLE:;
#MUSIC:Be quiet SF_Glitch Techno Mix.mp3;
#OFFSET:-0.020;
#SAMPLESTART:70.300;
#SAMPLELENGTH:12.000;
#SELECTABLE:YES;
#BPMS:0.000=157.000;
#STOPS:132.000=1.891
,175.000=1.146
;
#BGCHANGES:;

//---------------dance-single - ----------------
#NOTES:
     dance-single:
     :
     Hard:
     9:
     0.775,0.861,0.340,0.290,0.642:
0000
0000
0000
0000
,
0100
1000
0000
0000
0011
0000
0000
0000
0001
0000
0100
0000
0010
0000
0000
0000
,
1000
0000
0001
0000
0010
1000
0001
0000
,
1000
0100
0000
0000
0011
0000
0000
0000
0001
0000
1000
0000
0100
0000
1000
0000
,
0002
0010
0100
1003
,
1000
0001
0100
0000
0010
1000
0010
0000
,
0001
0100
0001
0010
0100
0000
1001
0000
,
0001
0100
0000
0000
0110
0000
0000
0000
1000
0000
0001
0000
0100
0000
0000
0000
,
1100
0000
0000
0110
0000
0000
0001
0000
1001
0000
0000
0000
0001
0100
0001
0100
,
0010
0100
0010
0000
0110
0000
0000
0000
1000
0000
0001
0000
0100
0000
0000
0000
,
1000
0100
0010
0001
1000
0000
0001
0000
,
1000
0001
0100
0000
0010
0000
0000
0000
1000
0000
0001
0000
0100
0000
0000
0000
,
0010
1000
0100
0010
0100
0000
0011
0000
,
1000
0001
0100
0000
0110
0000
0000
0000
1000
0000
1000
0000
0100
0000
0000
0000
,
0001
0010
0100
0010
0001
1000
0001
0000
,
0100
0010
1000
0000
0001
1000
0100
0000
,
1000
0000
0000
0000
0000
0000
0001
0000
0000
0000
0000
0000
0100
0000
0000
0000
0000
0000
0010
0000
0000
0000
0000
0000
0100
0000
0000
0010
0000
0000
0001
0000
0000
0010
0000
0000
0100
0000
0000
1000
0000
0000
0001
0000
0100
0000
0001
0000
,
0200
0300
0000
0000
,
0020
0000
0100
0030
0000
0000
0000
0000
,
2000
3000
0001
0000
,
0200
0000
0310
0000
2000
0000
0002
3003
,
1001
0000
1000
0100
0000
0000
0010
0000
0001
0000
0100
0000
0010
0000
1000
0000
,
0010
0001
0000
1000
0001
0000
0100
0000
0010
0000
0000
0000
1010
0000
0000
0000
,
0001
0000
1000
0100
0000
0000
0001
0000
0010
0000
0100
0000
1000
0000
0001
0000
,
1001
0000
0000
1100
0000
0000
0110
0000
1001
0000
0000
0000
1000
0001
0100
0001
,
0010
0000
0010
0001
0000
0000
0000
0000
0100
0000
1000
0100
0000
0000
0000
0000
,
0001
0000
0010
0001
0000
0000
0000
0000
1001
0000
1001
0000
1001
0000
0000
0000
,
0010
0000
0100
0010
0000
0000
0000
0000
1000
0000
0001
0010
0000
0000
1000
0000
,
1100
0000
0000
0011
0000
0000
0001
0000
0101
0000
0000
0000
1000
0001
0100
0001
,
0010
0000
0001
0010
0000
0000
1000
0000
0100
0000
0001
1000
0100
0000
0010
0000
,
1000
0000
0001
0100
0000
0000
0010
0000
1000
0000
0001
0000
1000
0001
0100
0000
,
0001
0010
0100
0001
1000
0001
0101
0000
0101
0000
0101
0000
,
0001
0010
0100
1000
0001
0100
0001
0010
1000
0100
1000
0020
,
0002
0000
0030
0000
0003
0000
1000
0001
,
0100
0000
0000
1000
0100
0000
0010
0000
0001
0000
1000
0000
0200
0000
0300
1000
,
0100
1000
0000
0020
0200
0000
0330
0000
0002
0000
0023
0000
0031
0000
1000
0000
,
1100
0000
0001
0100
0010
0000
0100
1000
0001
0000
0100
0000
0010
0000
1000
0200
,
0000
0000
2300
0000
0000
0002
0000
0000
3003
0000
2002
0000
3003
0000
0000
0100
,
0001
0000
0000
1000
0100
0000
0010
0001
0100
0010
0000
0100
0000
1000
0002
0000
,
1003
0000
0000
0000
0001
0000
0000
0000
0200
0000
0000
0000
0000
0000
0000
0000
0000
0000
0320
0000
0000
0000
0000
0000
1030
0000
0000
0000
0000
0000
0002
0000
0000
0000
0000
0000
0000
0000
0000
0000
0000
0000
1003
0000
0000
0001
0000
0000
,
0100
0000
0000
0010
0100
0000
1000
0100
1000
0000
0001
0100
0002
0000
0003
1000
,
0200
1300
0100
0010
0001
0100
0110
1000
,
0001
0100
0101
0001
0010
0100
1100
0001
,
0100
0010
0110
1000
1001
0100
1001
0000
,
0001
0100
0001
0000
0010
0000
0100
0000
1000
0000
0001
0000
0100
0000
0000
0000
,
0010
1000
0001
0100
0010
1000
0010
0000
,
1000
0001
0100
0000
0010
0000
1000
0000
0100
0000
0100
0000
0010
0000
0000
0000
,
0001
0000
0000
0001
0010
0000
0000
1000
0100
0000
0001
0000
0100
0000
0000
0000
,
0010
1000
0001
0000
1000
0000
0001
0000
0100
0000
0010
0000
0110
0000
0000
0000
,
1000
0000
0001
0000
0010
0000
0001
0010
0000
1000
0100
0000
0001
0000
1000
0000
,
0100
1000
0100
0000
1000
0000
0010
0000
0001
0000
0100
0000
0010
0000
1000
0000
,
1001
0000
0000
0101
0000
0000
0010
0000
2200
0000
3300
0000
0001
0010
0100
1000
,
0100
0000
0001
0100
0000
0010
0000
0100
0000
0000
1000
0000
0001
0000
0100
0000
,
0010
0000
1000
0001
0000
0100
0000
0010
0000
0000
1000
0000
0100
0000
1000
0000
,
0100
0000
0001
0010
0000
1000
0000
0001
0000
0000
0001
0000
0100
0000
0010
1000
,
0001
0000
1000
0001
0000
0100
0000
0010
0000
0000
1000
0000
0010
0000
1000
0000
,
0001
0000
1000
0100
0000
0010
0000
0100
0000
0000
1000
0000
0001
0100
0000
0010
,
1000
0000
0001
0100
0000
0001
0000
0010
0000
0000
1000
0000
0001
0000
0100
0000
,
0010
0000
1000
0100
0000
0010
0000
0100
0000
0000
0001
0000
0100
0000
0010
0000
,
1000
0000
0000
1000
0000
0000
0001
0000
0101
0000
0000
0000
1000
0100
1000
0100
,
1000
0000
0100
1000
0000
0010
0100
0000
0001
1000
0000
0001
0000
0010
0001
0010
,
0001
0000
0010
0000
0100
0000
1000
0100
0000
0000
0001
0000
0010
0000
0001
0000
,
0100
0000
0010
1000
0000
0001
0100
0000
1000
0100
0000
0010
0000
0001
0100
0000
,
1000
0000
0001
0000
0100
0000
0010
1000
0000
0001
0100
0000
0010
0000
1000
0000
,
0001
0000
0010
0001
0000
0010
0100
0000
1000
0000
0001
0100
0000
0010
0100
0000
,
1000
0000
0001
0100
0000
0010
1000
0000
0001
0000
1000
0100
0000
0010
0001
0000
,
0100
0000
0010
0100
0010
0000
1000
0000
0001
0000
0010
0001
0010
0000
0100
0000
,
1000
0100
0010
0001
1000
0001
0100
0001
0010
0001
0010
0100
1000
0001
0100
0010
,
2000
3100
0020
0031
0200
0310
2000
3001
,
0200
0010
0320
0100
0130
0100
1001
0000
,
1001
0000
0100
0001
0100
0000
0000
0000
0000
0000
0000
0000
0000
0000
0000
0000
,
0000
0000
1000
0000
0001
0000
0000
0100
0000
0000
0000
0000
0000
0000
0000
0000
,
1000
0000
0100
1000
0000
0001
0010
0000
0100
0000
0010
1000
0000
0001
0100
0000
,
1000
0001
0100
0000
0010
0000
1000
0100
0000
0010
0001
0000
1000
0000
0001
0000
,
0100
0010
0100
0000
1000
0100
1000
0000
0001
0010
0001
0000
0100
0010
0100
0000
,
1000
0100
1000
0000
0001
0100
0001
0000
0010
1000
0001
0000
1000
0100
0010
0000
,
0022
0000
0000
0000
,
0033
0000
0000
0000
;

//---------------dance-single - ----------------
#NOTES:
     dance-single:
     :
     Medium:
     7:
     0.511,0.542,0.108,0.099,0.087:
0000
0000
0000
0000
,
0001
0100
0010
0000
0100
0000
0010
0000
,
1000
0001
0100
0010
,
1000
0001
0100
0000
0010
0000
1000
0000
,
2020
0000
3030
0000
,
0010
1000
0010
0000
0100
0000
0001
0000
,
1000
0001
0100
0001
,
0010
0001
0010
0000
0100
0000
1000
0000
,
0001
0000
0000
0001
0000
0000
0100
0000
0010
0000
0000
0000
1000
0000
0100
0000
,
1000
0000
0100
0000
0010
0100
0001
0000
,
1000
0000
0001
0100
0010
0000
1000
0000
,
0001
1000
0001
0000
0100
0000
0010
0000
,
1000
0001
0100
0010
0001
0000
0010
0000
,
1000
0001
0100
0000
0010
0000
1010
0000
,
0001
1000
0010
0100
0010
0000
1000
0000
,
0100
1000
0010
0000
0001
0100
0010
0000
,
0001
1000
0010
1000
0001
0100
0001
0010
,
0002
0003
0000
0000
,
1000
0001
0000
0000
,
0110
0000
0110
0000
,
0010
1000
0002
0203
,
0310
1000
0010
0000
0100
0000
0010
0000
,
1000
0000
0001
0100
0010
0000
0100
0000
,
0010
1000
0010
0000
0100
0000
0010
0000
,
1001
0000
0000
0010
0000
0000
0001
0000
1001
0000
0000
0000
0001
0000
0000
0000
,
0100
0001
0100
0000
0010
1000
0010
0000
,
0100
0010
0100
0000
0110
0110
0110
0000
,
0010
1000
0001
0000
0010
1000
0001
0000
,
0010
0000
0000
1000
0000
0000
0001
0000
0100
0000
0000
0000
0010
0000
1000
0000
,
0010
0100
0010
0000
0001
1000
0010
0000
,
1000
0100
1000
0000
0010
0001
0010
0000
,
0001
1000
0010
0100
,
0001
0010
0100
1000
0001
0100
0001
0100
0010
1000
0100
0010
,
0001
0000
0000
0000
0000
0000
1000
0001
,
0100
0010
2000
0200
,
3300
0000
0010
0000
0100
0001
0100
0000
,
0010
0000
1000
0001
0100
0010
0200
0000
,
0000
0310
0000
0000
0010
0000
0010
1000
,
0001
0000
0010
0001
0010
0100
1000
0000
,
0200
0300
1000
0100
,
0010
0000
0001
0010
0100
1000
0001
0000
,
0100
0010
1000
0010
0100
0001
0010
0001
,
0010
0100
1000
0100
1000
0100
0010
0100
,
0010
0100
0001
1000
0010
0100
0101
0000
,
0001
0100
0010
0000
0010
1000
0001
0000
,
1000
0001
0100
0001
0100
0000
0010
0000
,
1000
1100
0100
0000
1000
0100
1000
0000
,
0020
0030
0020
1030
,
0001
0100
0010
0000
0001
0100
0010
0000
,
0001
1000
0010
1000
0001
0000
0100
0000
,
1000
1100
0100
0000
1000
0100
0010
0000
,
0001
0000
0000
1000
0000
0000
0010
0000
1000
0000
0000
0000
0001
0000
0100
0000
,
0010
0000
1000
0000
0100
0000
0010
0001
,
0100
0000
0010
0000
1000
0000
0001
1000
,
0010
0000
1000
0000
0100
1000
0100
0000
,
0010
0000
0100
0000
0001
0100
0001
0000
,
0010
0000
0001
0000
0100
1000
0100
0000
,
0010
0000
1000
0000
0001
1000
0010
0000
,
0010
1000
0010
0000
0100
0010
0100
0000
,
1000
0001
0100
0010
,
1000
0100
1000
0000
0010
0001
0010
0000
,
0001
0100
0001
0100
0010
1000
0010
0000
,
0001
1000
0010
0000
1000
0100
0001
0000
,
0001
0100
1000
0100
0001
0010
1000
0000
,
0010
1000
0001
0000
0010
1000
0001
0000
,
0001
0100
0010
1000
0100
1000
0100
0000
,
1000
0100
0010
0001
0010
0100
0001
0100
,
0010
1000
0001
0100
1000
0100
0010
0001
,
0100
0010
1000
0000
0001
0000
0101
0000
,
0001
0010
0100
0010
0010
0000
0001
0000
,
1000
0001
0100
0000
0010
0000
0000
0000
,
0000
0000
1000
0000
1000
0000
0000
1000
0000
0000
0000
0000
0000
0000
0000
0000
,
0010
1000
0010
0000
0100
0001
0100
0000
,
0010
0100
0010
0000
1000
0000
0001
0000
,
1000
0000
0000
0001
0100
0000
0000
0010
0100
0000
0000
1000
0100
0000
0000
0010
,
0001
0000
0000
0001
0100
0000
0000
0010
1000
0000
0000
0001
0100
0000
0000
0001
,
2000
0000
0000
0000
,
3000
0000
0000
0000
;

//---------------dance-double - ----------------
#NOTES:
     dance-double:
     :
     Challenge:
     11:
     0.852,0.988,0.629,0.729,0.497:
00000000
00000000
00000000
00000000
,
10000000
00010000
01000000
00000000
01100000
00000000
00000000
00000000
10000000
00000000
00010000
00000000
01000000
00000000
00000000
00000000
,
00100000
10000000
00010000
00100000
00010000
00000000
00011000
00000000
,
00001000
00000100
00001000
00000000
00000011
00000000
00000000
00000000
00000001
00000000
00000010
00000000
00000100
00000000
00000000
00000000
,
00000001
00001000
00000100
00000010
00000200
00000000
00000310
00000000
,
00000001
00000010
00000100
00000000
00001100
00000000
00000000
00000000
00010000
00000000
01000000
00000000
00100000
00000000
00000000
00000000
,
10000000
00010000
00100000
00010000
02000000
00000000
03010000
00000000
,
00100000
00001000
00010000
00000000
00011000
00000000
00000000
00000000
00000100
00000000
00001000
00000000
00000100
00000000
00000000
00000000
,
00011000
00000000
00000000
00110000
00000000
00000000
01100000
00000000
11000000
00000000
00000000
00000000
00010000
01000000
00010000
01000000
,
00020000
01030000
00100000
00000000
20000000
31000000
00100000
00010000
,
00000200
00001000
00001300
00000000
00000000
00000100
00000002
00000000
,
00000013
00000001
00000201
00000000
00000310
00000100
00001000
00000100
,
00010000
00001000
00100000
01000000
10000000
00010000
01000000
00000000
,
10020000
01000000
01030000
00000000
20010000
01000000
31000000
00000000
,
10020000
01030000
20010000
31000000
01100000
00000000
10010000
00000000
,
00101000
00000000
00001100
00000000
00001000
00000100
00000010
00000000
,
00000001
00000000
00001000
00000000
00000010
00000000
00000100
00000000
00001000
00000100
00001000
00000100
00001000
00000100
00001000
00000100
,
00001000
00000000
00000000
00000000
,
00000100
00010000
00000000
00000000
,
10010000
00000000
00010100
00000000
,
00011000
00000000
00000110
00000000
00000022
00000033
00002200
00003300
,
00011000
00000000
00001000
00010000
00001000
00000000
00010000
00000000
00200000
00000000
00000000
00000000
00310000
00000000
00000000
00000000
,
10000000
01000000
00000000
00010000
01000000
00000000
00100000
00000000
01100000
00000000
00000000
00000000
10010000
00000000
00000000
00000000
,
10000000
00000000
00010000
01000000
00100000
00000000
10000000
00000000
00010000
00000000
00100000
00000000
00010000
00000000
01000000
00000000
,
11000000
00000000
00000000
01100000
00000000
00000000
00001000
00000000
00011000
00000000
00000000
00000000
00001000
00000100
00000010
00000001
,
00000010
00000000
00000001
00000010
00000001
00000000
00000000
00000000
00000100
00000000
00000100
00000010
00000100
00000000
00000000
00000000
,
00001000
00000000
00000100
00001000
00000100
00000000
00000000
00000000
00011000
00000000
00011000
00000000
00011000
00000000
00000000
00000000
,
00110000
00000000
00010000
00100000
00010000
00000000
00000000
00000000
11000000
00000000
10000000
01000000
10000000
00000000
00000000
00000000
,
10010000
00000000
00000000
00100000
00000000
00000000
10010000
00000000
01100000
00000000
00000000
10000000
00010000
01000000
00100000
01000000
,
00100000
00000000
01000000
00100000
01000000
00000000
00000000
00000000
00010000
00000000
00100000
00000000
00001000
00000000
00000000
00000000
,
00001100
00000000
00000000
00000000
00000000
00000000
00000001
00000000
00000000
00000010
00000000
00000000
00000100
00000000
00000000
00000000
00000000
00000000
00000000
00000000
00000000
00000000
00000000
00000000
00000001
00000000
00000000
00000000
00000000
00000000
00000100
00000000
00000000
00000000
00000000
00000000
00000001
00000000
00000000
00000000
00000010
00000000
00000000
00000000
00000100
00000000
00000000
00000000
,
00001000
00000100
00010000
00001000
00100000
00010000
00110000
00000000
01000000
00000000
11000000
00000000
,
00010000
10000000
00010000
10000000
00010000
10000000
00010000
10000000
00010000
10000000
00010000
10000000
,
10010000
00000000
00000000
00000000
00000000
00000000
20000000
32000000
,
03200000
00320000
02030000
03200000
20300000
30020000
00230000
00000000
,
00000000
00001000
00301000
00000000
00020000
00030100
00002000
00003200
,
00000320
00000032
00000203
00000302
00000023
00000032
00000203
00000000
,
00000002
00000000
00000000
00000000
00000303
00000000
00000000
00000000
00000000
00000000
00011000
00000000
00000000
00000000
00010000
10000000
,
02000000
03200000
20300000
30020000
20030000
32000000
03200000
00300000
,
00100000
00000000
00001000
00000000
00020000
00000000
00000000
00000000
00000000
00031000
00000000
00000000
00000000
00000000
00000000
00000000
00000000
00000000
00001100
00000000
00000000
00000000
00000000
00000000
,
00000001
00001000
00000002
00000000
00000023
00000000
00000032
00000000
00000203
00000000
00000320
00000000
00002030
00000000
00003200
00000000
,
00020300
00032000
00203000
00320000
02030000
03100000
20010000
00010000
,
00010000
30010000
10020000
01000000
01000000
01030000
02100000
00100000
,
00100000
03100000
01100000
00000000
00011000
00000000
00001100
00000000
,
00001000
00000001
00001000
00000000
00001001
00000000
00000001
00000000
00000010
00000000
00000100
00000000
00001000
00000000
00000100
00000000
,
00000010
00000001
00000100
00000010
00002000
00000000
00003100
00000000
,
00010000
00100000
00010000
00000000
00110000
00000000
00010000
00000000
00100000
00000000
01000000
00000000
10000000
00000000
00010000
00000000
,
01020000
00000000
00000000
00000000
00100000
00000000
00000000
00000000
01030000
00000000
00000000
10000000
00010000
00000000
01000000
00000000
,
00010000
01000000
00100000
00000000
01100000
00000000
10000000
00000000
00010000
00000000
01000000
00000000
00100000
00000000
00010000
00000000
,
00100000
01000000
10000000
00010000
00100000
00000000
00110000
00000000
,
00001000
00000100
00001000
00000000
00001100
00000000
00000000
00000000
00000001
00000000
00000010
00000000
00000100
00000000
00000100
00000000
,
00001001
00000000
00000000
00000100
00001000
00000000
00000000
01000000
00010000
00000000
00000000
00000000
10000000
00010000
01000000
00010000
,
02000000
03010000
02000000
03100000
02000000
00000000
00020000
03030000
,
20000000
31000000
20000000
30100000
20000000
00000000
00020000
30030000
,
00200000
00301000
00020000
00031000
00020000
00000000
00002000
00033000
,
00002000
00003100
00000020
00000031
00000200
00000000
00000002
00000303
,
00000001
00000000
00001000
00000001
00000000
00000010
00000000
00000011
00000000
00000000
00000001
00000000
00000010
00000000
00000100
00000000
,
00010000
00000000
00001000
00010000
00000000
00001000
00000000
00100000
00000000
00000000
00010000
00000000
10000000
00000000
01000000
00000000
,
11000000
00000000
10000000
01000000
00000000
00100000
00000000
00010000
00000000
00000000
10000000
00000000
00010000
00000000
01000000
00000000
,
00100000
00000000
00000000
01100000
00000000
00000000
10000000
00000000
00110000
00000000
00000000
00100000
00001000
00010000
00000100
00001000
,
00000100
00000000
00001000
00000100
00000000
00000010
00000001
00001000
00000001
00000000
00000100
00000010
00000000
00001000
00000001
00000010
,
00000002
00000013
00000200
00001300
00001100
00000000
00011000
00000000
,
00110000
00000000
01000000
00010000
00000000
10000000
00100000
10000000
00010000
00000000
10000000
01000000
00000000
00010000
00100000
01000000
,
10000000
00010000
02000000
03100000
01000000
10000000
00010000
00100000
,
00110000
00000000
00100000
00001000
00000000
00001000
00010000
00000000
00110000
00000000
00010000
00001000
00000000
00100000
00010000
00000000
,
10010000
00000000
10000000
01000000
00000000
00100000
00010000
00000000
00011000
00000000
00001000
00000100
00000000
00000010
00000001
00000000
,
00000001
00000000
00000001
00001000
00000001
00000000
00000101
00000000
00000001
00000000
00000010
00000100
00000010
00000000
00001100
00000000
,
00001000
00010000
00001000
00010000
00001000
00010000
00001000
00010000
00001000
00100000
00001000
00010000
00001000
00010000
00000100
00001000
,
00000200
00001300
00000000
00020000
00130000
00020000
01030000
00200000
,
01300000
20000000
00010000
30010000
00000000
20000000
01000000
31000000
,
10010000
00000000
01000000
00100000
01000000
00000000
00000000
00000000
00000000
00000000
00000000
00000000
00000000
00000000
00000000
00000000
,
00000000
00100000
00000000
00000000
00100000
00000000
00000000
00101000
00000000
00000000
00000000
00000000
00000000
00000000
00000000
00000000
,
00001000
00000000
00001000
00000100
00000000
00000100
00000010
00000000
00000011
00000000
00000001
00000010
00000000
00000010
00000100
00000000
,
00000101
00000000
00000001
00000100
00000000
00000010
00000100
00000000
00001100
00000000
00000100
00010000
00000000
00001000
00100000
00000000
,
01000000
00100000
01000000
00000000
10000000
00010000
10000000
00000000
00100000
00010000
00100000
00000000
00001000
00100000
00001000
00000000
,
00010000
00001000
00010000
00000000
00001000
00000100
00001000
00000000
00000100
00000001
00000100
00000000
00000100
00001000
00000100
00000000
,
00022000
00000000
00000000
00000000
,
00033000
00000000
00000000
00000000
;

//---------------dance-single - ----------------
#NOTES:
     dance-single:
     :
     Easy:
     5:
     0.375,0.574,0.315,0.381,0.000:
0000
0000
0000
0000
,
1000
1100
0000
0000
,
0001
0000
0000
0000
,
0101
1010
0000
0000
,
1001
0000
0000
0000
,
1000
0000
1000
0000
,
1000
1000
1000
0000
,
0001
0000
0001
0000
,
1001
0000
0010
0000
,
0100
0100
0010
1000
,
0002
0003
0000
0000
,
1001
0001
1000
0100
,
2000
0000
3200
0000
,
1300
1100
0010
1000
,
0200
0300
0000
0000
,
1001
0001
0100
0010
,
0002
0000
2000
3003
,
0001
0000
0000
0000
,
0100
0100
0000
0000
,
0110
0000
0110
0000
,
0110
0110
0020
2030
,
3001
0001
1000
0001
,
0200
0302
0103
0010
,
1010
1010
1000
0001
,
2002
0000
3003
0000
,
1000
0000
0001
0000
,
0100
0000
0000
0000
0010
0100
0010
0000
,
0010
0000
0001
0000
,
1000
0000
0001
0000
0100
0000
0010
1000
,
0010
0000
1000
0000
0001
1000
0001
0000
,
1000
0000
0100
0000
0010
0001
0010
0000
,
0001
0001
1000
1000
,
1001
0101
1010
1100
,
0011
0000
0000
2000
,
0000
3002
0000
0203
,
0000
0320
0000
2030
,
0000
3002
0000
0203
,
0000
0302
0000
2003
,
0000
3020
0000
2030
,
0000
3200
0000
2300
,
0000
0000
3020
0000
0000
0030
0200
0000
,
0000
0302
0003
1001
,
0000
1001
0000
1001
,
0000
1001
1001
1001
,
0010
1000
0010
0000
1000
0000
0100
0000
,
0020
0001
0031
0100
,
0001
0100
0001
0000
0100
0000
0010
0000
,
2000
0000
0200
3300
,
1000
0001
0100
0000
0100
0000
0010
0000
,
1000
0010
1000
0000
1000
0000
0001
0000
,
1000
0001
1000
0000
0001
0000
0100
0000
,
0101
0000
1010
0000
,
1000
0001
1000
0000
0001
0000
0100
0000
,
0001
0100
0001
0000
0100
0000
0010
0000
,
1000
0010
1000
0000
1000
0000
0001
0000
,
1000
0001
1000
0000
0001
0000
0100
0000
,
0010
0100
0010
0000
1000
0000
0001
0000
,
1000
0001
1000
0000
0001
0000
1000
0000
,
0100
1000
0100
0000
1000
0000
0010
0000
,
0022
0000
0033
0000
,
0002
0000
1003
0000
,
0100
0100
0100
0100
,
1000
0001
0100
0010
,
0010
0010
0010
0010
,
1010
0010
1000
0100
,
0100
0100
0100
0100
,
0010
0001
1000
0100
,
0202
0000
0000
0303
,
0002
0000
2003
0000
,
3002
2003
3002
0000
,
0100
0103
0000
0000
,
0000
0010
0010
0000
,
2000
0000
3010
0000
,
0100
0010
1000
0001
,
1100
1100
0101
0101
,
0012
0013
2010
3010
,
2002
0000
0000
0000
,
3003
0000
0000
0000
;

//---------------dance-single - ----------------
#NOTES:
     dance-single:
     :
     Beginner:
     3:
     0.134,0.315,0.075,0.000,0.000: // measure 1
0000
0000
0000
0000
,  // measure 2
1000
0000
0000
0000
,  // measure 3
0000
0000
0000
0000
,  // measure 4
0001
0000
0000
0000
,  // measure 5
0100
0000
0000
0000
,  // measure 6
0010
0000
0000
0000
,  // measure 7
0000
0000
0000
0000
,  // measure 8
1000
0000
0000
0000
,  // measure 9
0001
0000
0001
0000
,  // measure 10
1000
0000
0000
0000
,  // measure 11
0000
0000
0000
0000
,  // measure 12
0010
0000
0000
0000
,  // measure 13
0000
0000
0000
0000
,  // measure 14
0100
0000
0000
0000
,  // measure 15
0000
0000
0000
0000
,  // measure 16
1000
0000
0000
0000
,  // measure 17
0001
0000
1000
0000
,  // measure 18
1001
0000
0000
0000
,  // measure 19
0000
0000
0000
0000
,  // measure 20
0010
0000
0010
0000
,  // measure 21
0010
0000
0000
0000
,  // measure 22
0100
0000
0000
0000
,  // measure 23
1000
1000
0000
0000
,  // measure 24
0001
0000
0000
0000
,  // measure 25
0010
0000
0110
0000
,  // measure 26
0100
0000
0100
0000
,  // measure 27
0100
0000
0000
0000
,  // measure 28
1000
0000
1000
0000
,  // measure 29
1000
0000
0000
0000
,  // measure 30
0001
0000
0000
0000
,  // measure 31
0001
0000
0000
0000
,  // measure 32
1000
0000
1000
0000
,  // measure 33
0001
1000
0001
1000
,  // measure 34
1001
0000
0000
0010
,  // measure 35
0000
0000
0000
0010
,  // measure 36
0000
0000
0000
1000
,  // measure 37
0000
0000
0000
0001
,  // measure 38
0000
0000
0000
0000
,  // measure 39
1000
0000
0000
0001
,  // measure 40
0000
0000
0001
0000
,  // measure 41
1000
0000
0000
1000
,  // measure 42
0000
0000
0000
0010
,  // measure 43
0000
0010
0000
0010
,  // measure 44
0000
0010
0010
0110
,  // measure 45
0100
0000
0000
0000
,  // measure 46
0000
0000
0000
0000
,  // measure 47
0110
0000
0000
0000
,  // measure 48
1000
0000
1000
0000
,  // measure 49
1001
0000
0000
0000
,  // measure 50
0000
0000
0000
0000
,  // measure 51
1001
0000
0000
0000
,  // measure 52
0100
0000
0100
0000
,  // measure 53
0100
0000
0000
0000
,  // measure 54
0010
0000
0000
0000
,  // measure 55
1000
0000
0000
0000
,  // measure 56
0001
0000
0000
0000
,  // measure 57
0100
0000
0000
0000
,  // measure 58
0010
0000
0000
0000
,  // measure 59
1000
0000
0000
0000
,  // measure 60
1000
0000
1000
0000
,  // measure 61
1000
0000
0001
0000
,  // measure 62
1000
1000
1000
0000
,  // measure 63
0100
0000
0010
0000
,  // measure 64
0001
0001
0001
0000
,  // measure 65
0100
0000
0010
0000
,  // measure 66
1000
1000
1000
0000
,  // measure 67
0001
0000
1000
0000
,  // measure 68
1001
0000
0000
0000
,  // measure 69
0010
0000
0000
0000
,  // measure 70
0010
0000
0000
0000
,  // measure 71
0100
0100
0000
0000
,  // measure 72
1000
0000
0000
0000
,  // measure 73
0001
0000
0000
0000
,  // measure 74
1000
0000
0000
0000
,  // measure 75
0010
0010
0010
0010
,  // measure 76
0010
0010
0010
0010
,  // measure 77
1001
0000
0000
0000
;
