#TITLE:Bad Maniacs;
#SUBTITLE:;
#ARTIST:kors k as teranoid;
#TITLETRANSLIT:;
#SUBTITLETRANSLIT:;
#ARTISTTRANSLIT:;
#CREDIT:;
#BANNER:bn.png;
#BACKGROUND:bg.png;
#LYRICSPATH:;
#CDTITLE:cdtitle.png;
#MUSIC:Bad Maniacs.mp3;
#OFFSET:0.930;
#SAMPLESTART:45.820;
#SAMPLELENGTH:16.000;
#SELECTABLE:YES;
#DISPLAYBPM:195.000;
#BPMS:0.000=97.500,27.000=195.000,91.000=97.500,105.000=195.000,106.000=195.000,133.000=97.500,135.000=195.000,167.000=12.188,168.000=194.995,209.000=389.991,211.000=194.995,222.000=97.498,224.000=194.998,241.000=389.996,305.000=12.187,307.250=779.992,323.250=389.996;
#STOPS:26.750=0.615
,104.750=1.240
,172.000=0.923
,177.000=0.923
;
#BGCHANGES:;

//---------------dance-single - ----------------
#NOTES:
     dance-single:
     :
     Hard:
     9:
     0.591,0.821,0.203,0.093,0.258: // measure 1
0000
0000
0000
0000
,  // measure 2
0000
0000
0000
0000
,  // measure 3
0000
0000
0000
0000
,  // measure 4
0000
0000
0000
0000
,  // measure 5
0000
0000
0000
0000
,  // measure 6
0000
0000
0000
0000
,  // measure 7
0000
0000
0000
0110
,  // measure 8
0000
1000
0001
0100
0001
0010
1000
0001
,  // measure 9
0100
0001
0010
0001
1000
0100
1100
0000
,  // measure 10
0000
0001
1000
0001
0100
0010
1000
0100
,  // measure 11
0001
0010
0001
0100
0010
1000
1001
0000
,  // measure 12
0000
0000
1000
0001
0100
0001
0100
0001
,  // measure 13
0010
0001
1000
0100
1000
0001
0100
0000
,  // measure 14
1000
0001
0100
0010
1000
0100
1000
0010
,  // measure 15
0001
1000
0001
0100
0002
0000
1003
1000
,  // measure 16
0100
0100
0010
0010
0001
0001
0010
0010
,  // measure 17
0100
0100
1000
1000
0000
0000
0001
0001
,  // measure 18
1000
1000
0010
0010
0100
0100
0010
0010
,  // measure 19
0100
0100
0010
0010
0000
0000
1000
1000
,  // measure 20
0001
0001
0100
0100
0010
0010
0100
0100
,  // measure 21
0010
0000
0000
0000
0000
0000
0010
0000
0000
0000
0000
0000
1000
0000
0000
0000
0000
0000
1000
0000
0000
0000
0000
0000
0001
0000
0000
0000
1000
0000
0000
0000
0001
0000
0000
0000
0100
0000
0000
0000
0000
0000
0000
0000
0000
0010
0000
0000
,  // measure 22
0000
0000
1000
0000
0000
0001
0000
0000
0010
0000
0000
1001
0000
0000
1010
0000
,  // measure 23
0000
0101
0000
0000
1001
0000
0000
0000
0000
0000
0000
0000
1000
0000
0001
0100
,  // measure 24
0000
0100
0000
0000
0010
0100
0010
0000
0010
0000
0010
0000
0010
1000
0001
1000
,  // measure 25
0000
1000
0000
0000
1000
0001
0100
0000
0100
0000
0010
0000
1010
0000
0000
0000
,  // measure 26
0110
0011
1100
1001
,  // measure 27
1100
0000
1001
0000
0001
0100
0010
0000
,  // measure 28
0100
0000
0010
0000
0010
1000
1010
0000
,  // measure 29
0000
0000
0000
1000
0001
0100
0010
0010
,  // measure 30
0100
0010
1000
0001
1000
0010
1000
0000
,  // measure 31
1000
1000
0000
0010
0100
0010
1000
0000
,  // measure 32
0001
0000
1000
0100
0010
0001
0010
0000
,  // measure 33
0011
0000
0001
0100
0010
1000
0001
0100
,  // measure 34
0010
0000
0000
0000
1000
0000
0000
0000
0001
1000
0001
0100
0010
0000
0000
0000
1001
0000
0000
0000
0000
0000
0000
0000
1000
0000
0000
0000
0001
0000
0000
0000
,  // measure 35
0100
0001
0010
0001
0010
1000
0001
0100
,  // measure 36
0010
1000
0010
0000
0000
0000
1000
0001
,  // measure 37
0100
0100
0010
1000
0001
0100
0001
0010
,  // measure 38
0001
0000
0010
0010
0010
0000
1000
0001
,  // measure 39
0100
0001
0010
0100
1000
0001
1000
0001
,  // measure 40
0100
0001
0010
0001
1000
0100
1000
1000
,  // measure 41
0001
0001
0100
0100
0010
0010
1000
0001
,  // measure 42
1000
0000
0000
0001
0000
0000
1000
0000
0000
0001
0000
0000
1000
0000
0000
0001
0000
0000
2002
0000
0000
0000
0000
3003
,  // measure 43
1000
0001
1000
0000
0000
0000
0000
0000
0000
0000
1000
0000
0001
0100
0001
0000
,  // measure 44
0000
0000
0000
0000
1000
0100
1000
0000
0000
0000
0000
0000
0000
0000
0010
0000
,  // measure 45
0001
1000
0001
0000
0000
0000
0000
0000
1000
0000
0001
1000
0001
0000
1000
0000
,  // measure 46
0001
1000
0001
0000
1000
0001
1000
0000
0001
0000
0100
0001
0100
0000
0001
0000
,  // measure 47
0100
0001
0100
0000
0010
0100
0010
0000
1000
0000
0001
1000
0001
0000
1000
0001
,  // measure 48
1000
0000
0001
0000
1000
0001
1000
0000
0100
0000
1000
0100
1000
0000
0001
0100
,  // measure 49
0001
0000
0100
0000
0010
0100
0010
0000
0100
0000
0010
0000
1000
0000
0001
0000
,  // measure 50
0100
0010
1000
0001
0100
0010
1000
0001
,  // measure 51
0100
0010
1000
0001
0010
0010
0010
0010
,  // measure 52
0010
0100
1000
0001
0010
0001
0010
0001
0010
0100
1000
0001
,  // measure 53
0100
0000
0000
0000
0000
0000
2002
0000
0000
0000
0000
0000
0000
0000
0000
0000
3003
0000
1001
0000
0000
1000
0000
0000
,  // measure 54
0000
0000
0000
1000
0100
0001
0100
1000
,  // measure 55
0100
0001
0100
1000
0100
0001
0101
1010
,  // measure 56
0000
0000
0000
0000
0000
0000
0001
0000
1000
0001
0100
0001
0010
1000
0100
0001
,  // measure 57
0100
0010
1000
0010
0000
0000
0000
0001
,  // measure 58
1000
0001
0100
0010
1000
0100
0001
0010
,  // measure 59
0001
0100
0010
0100
0000
0000
0000
1000
,  // measure 60
0001
0100
0001
0010
1000
0100
0001
0010
,  // measure 61
0011
1000
0001
0000
,  // measure 62
0000
1000
0001
0100
,  // measure 63
0010
1000
0100
1000
,  // measure 64
0010
0001
0100
0001
,  // measure 65
0100
0200
0300
0000
,  // measure 66
0000
0000
1000
0001
,  // measure 67
0100
0001
1000
0010
,  // measure 68
0100
0001
0010
0002
,  // measure 69
2003
0001
3001
0000
,  // measure 70
0000
0000
1000
0001
,  // measure 71
0100
0001
0010
0100
,  // measure 72
1000
0001
0010
0001
,  // measure 73
1000
0002
0200
0303
,  // measure 74
0000
0000
1000
0001
,  // measure 75
1000
0001
0100
0010
,  // measure 76
1000
0100
0010
0001
,  // measure 77
1000
0000
0000
0000
0110
0000
0000
0000
0000
0000
0000
0000
0000
0001
0000
0000
,  // measure 78
0000
0100
0000
0000
0000
0001
0000
0000
0000
0100
0000
0000
0000
0001
0000
0000
,  // measure 79
0000
0100
0000
0000
0000
0001
0000
0000
0000
0100
0000
0000
0000
0001
0000
0000
,  // measure 80
0000
0100
0000
0000
0000
0001
0000
0000
0000
0100
0000
0000
0000
0001
0000
0000
,  // measure 81
0000
0100
0000
0000
0000
0001
0000
0000
0000
0100
0000
0000
0000
0020
0000
0000
,  // measure 82
0030
0000
0000
0000
;

//---------------dance-single - ----------------
#NOTES:
     dance-single:
     :
     Medium:
     6:
     0.475,0.648,0.836,0.000,0.038:
0000
0000
0000
0000
,
0000
0000
0000
0000
,
0000
0000
0000
0000
,
0000
0000
0000
0000
,
0000
0000
0000
0000
,
0000
0000
0000
0000
,
0000
0000
0000
1001
,
0000
0000
0001
0100
0001
0100
0010
1000
,
0010
1000
0010
0100
0010
0100
0010
0000
,
0000
0000
0010
1000
0010
1000
0010
1000
,
0010
1000
0010
1000
0010
1000
0010
0000
,
0000
0000
0001
0100
0001
0100
0001
0100
,
0001
0100
0001
0100
0001
0100
0001
0000
,
0000
0000
0010
0001
0010
0001
0010
0001
,
0010
0001
0010
0001
0010
0000
0011
0000
,
1100
0110
1001
1010
,
0101
0000
0001
1000
0001
0000
1001
0000
,
1001
0000
0101
0000
0101
0000
0010
1000
,
0010
1000
0010
0100
0010
0000
0110
0000
,
0110
0000
1001
0000
1001
0000
0001
1000
,
0001
0000
1000
0000
0001
0000
0100
0000
0001
0000
0000
0000
1000
0000
0000
0001
,
0000
0000
1000
0000
0000
0001
0000
0000
1000
0000
0000
0001
0000
0000
1000
0000
,
0000
0001
0000
0000
1000
0000
0000
0000
0000
0000
0000
0000
1001
0000
0000
0000
,
0001
0000
0100
0010
1000
0001
1000
0000
,
1000
0000
0001
0100
0010
0100
0110
0000
,
0110
0110
0110
1001
,
1001
0000
1000
0000
0001
1000
0001
0000
,
0100
0001
0100
0110
,
0000
0000
0000
0000
0010
0000
0100
0100
,
0010
1000
0010
1000
,
0001
1000
0001
0000
0100
0000
0010
0000
,
1000
0010
0010
0110
,
0000
0010
0100
0010
,
1000
0001
1001
1000
,
0001
0100
0010
1000
,
0010
0000
0100
0000
0010
0100
0010
0000
,
1000
0000
0001
1000
0001
1000
0001
0100
,
0001
0100
0001
0000
0001
0001
1000
0000
,
0001
0100
0010
1000
,
0010
0100
0010
0000
1000
0000
0001
1000
,
0001
1000
0001
0100
0001
0100
0001
0010
,
0001
0010
0100
1000
0100
0010
0001
0000
,
1000
0000
0000
0000
0000
0001
0100
0001
,
0000
0000
0110
0000
0000
0000
0000
0010
,
1000
0001
0000
0000
1100
0000
1100
0000
,
1100
1100
0101
0101
,
0101
0101
0011
0011
,
0011
0011
1010
1010
,
1010
1010
1001
0110
,
1001
0110
1001
0110
,
1001
0110
0110
0110
,
0110
0110
0110
0000
,
0000
0000
0000
0000
0000
0000
1000
0001
,
0000
0000
0000
0001
0101
0000
0101
0000
,
1010
0000
1010
0000
0110
0000
0010
0100
,
0000
0000
0000
1000
1001
1001
1001
1001
,
1001
1001
1001
1001
,
0101
0110
1010
0110
,
0010
1000
1010
0000
0010
0000
0100
0000
,
0110
0110
0110
0110
,
0110
1000
0001
0000
,
0000
0000
0000
1100
,
0000
0011
0000
0110
,
0000
1001
0000
1010
,
0000
0110
0000
0000
,
0000
0000
0000
0110
,
0000
1010
0000
0110
,
0000
0110
0000
0010
,
1000
1001
0000
0000
,
0000
0000
0000
1001
,
0000
0101
0000
0101
,
0000
0101
0000
0101
,
0000
1001
0000
1001
,
0000
1100
0000
0011
,
0000
0001
0010
0100
,
1000
0100
0010
0010
,
1000
0000
0000
0000
0001
0000
0000
0000
0000
0000
0000
0000
0000
0001
0000
0000
,
0000
0000
0000
0000
0000
0000
0000
0000
0000
0000
0000
0000
0000
0001
0000
0000
,
0000
0000
0000
0000
0000
0000
0000
0000
0000
0000
0000
0000
0000
0001
0000
0000
,
0000
0000
0000
0000
0000
0000
0000
0000
0000
0000
0000
0000
0000
0001
0000
0000
,
0000
0000
0000
0000
0000
0000
0000
0000
0000
0000
0000
0000
0000
1001
0000
0000
;

//---------------dance-single - ----------------
#NOTES:
     dance-single:
     :
     Easy:
     5:
     0.419,0.614,0.659,0.059,0.000:
0000
0000
0000
0000
,
0000
0000
0000
0000
,
0000
0000
0000
0000
,
0000
0000
0000
0000
,
0000
0000
0000
0000
,
0000
0000
0000
0000
,
0000
0000
0000
1001
,
0001
0000
0100
0001
0100
0000
0010
0100
,
0010
0000
0010
1000
0010
0000
1010
0000
,
0000
0000
0010
0100
0010
0000
0010
0100
,
0010
0000
0010
0100
0010
0000
0110
0000
,
0000
0000
0001
1000
0001
0000
1000
0001
,
1000
0000
0001
1000
0001
0000
1001
0000
,
0000
0000
1000
0100
1000
0000
0010
0001
,
0010
0101
0010
0110
,
1001
0110
1001
0110
,
1001
0000
0010
0100
0010
0000
1010
0000
,
0101
1010
0101
1010
,
0101
0000
0010
1000
0001
0000
1100
0000
,
0011
1100
0011
1100
,
0011
0000
1000
0010
1000
0000
2002
0000
,
0000
0000
0000
0000
,
0000
3003
0000
0001
,
1000
0000
0001
0100
0010
1000
0001
0000
,
1000
0000
0001
0000
0100
0010
1000
0000
,
1000
0001
0001
0100
,
0100
0000
0010
0000
0100
0010
0100
0000
,
0010
1000
0010
1000
,
0000
0000
1000
0001
,
0100
0010
1000
0001
,
0100
0010
1000
0000
0010
0000
0100
0000
,
0010
1000
0001
1000
,
0001
0100
0010
1000
,
0010
1002
0103
0010
,
1000
0100
0010
1000
,
0010
0000
0100
0000
0010
1000
0001
0000
,
1000
0000
0001
0000
0100
0000
0001
0100
,
0001
0100
0001
0100
0001
0000
0001
0000
,
0010
0001
0010
0100
,
1000
0100
1001
0001
,
0100
0000
0010
0000
1000
0000
0010
0100
,
0001
1000
0010
0100
0001
2000
0002
3003
,
1000
0000
0000
0000
0000
0001
0100
0000
,
0000
0000
0110
0000
0000
0000
0000
0010
,
1000
0000
1001
1001
,
1001
1001
0101
0101
,
0101
0101
0011
0011
,
0011
0011
1010
1010
,
1010
1010
0101
1010
,
0101
1010
1100
0011
,
1100
0011
1001
1001
,
1001
1001
1001
1001
,
1001
0000
0000
0001
,
1000
0001
0100
0010
,
1000
0000
0010
0000
0100
0000
0010
1000
,
0010
1000
0010
0000
,
0000
1001
1001
1001
,
0001
0100
0010
1000
,
0100
0110
0110
0110
,
0010
0000
0010
1000
0010
1000
0010
1000
,
0001
1001
0000
1001
,
0000
1001
0000
1001
,
0000
1000
0000
0001
,
0000
0100
0000
0010
,
0000
0110
0000
0110
,
0000
0110
0000
0010
,
0000
1000
0000
0001
,
0000
0100
0000
0010
,
0000
1010
0000
1010
,
0000
1010
0000
0010
,
0000
0100
0000
1000
,
0000
0001
0000
0100
,
0000
1001
0000
1001
,
0000
1001
0000
0001
,
0000
0010
0100
0001
,
1000
0010
0100
0001
,
1000
2002
0000
0000
,
0000
0000
0000
0000
,
0000
0000
0000
0000
,
0000
0000
0000
0000
,
0000
0000
0000
0000
0000
0000
0000
0000
0000
0000
0000
0000
0000
3003
0000
0000
;

//---------------dance-single - ----------------
#NOTES:
     dance-single:
     :
     Beginner:
     3:
     0.095,0.273,0.093,0.000,0.004:
0000
0000
0000
0000
,
0000
0000
0000
0000
,
0000
0000
0000
0000
,
0000
0000
0000
0000
,
0000
0000
0000
0000
,
0000
0000
0000
0000
,
0000
0000
0000
0010
,
0000
0000
0000
0000
,
0000
0000
0000
0001
,
0000
0000
0000
0000
,
0000
0000
0000
1000
,
0000
0000
0000
0000
,
0000
0000
0000
0010
,
0000
0000
0000
0000
,
0000
0000
0000
0110
,
0000
0000
0000
0000
,
0000
0000
0000
1000
,
0000
0000
0000
0000
,
0000
0000
0000
1001
,
0000
0000
0000
0000
,
0000
0000
0000
0100
,
0000
0000
0000
0000
,
0000
0000
0000
1001
,
0000
0000
0000
0010
,
0000
0000
0000
1000
,
0000
0000
0000
0001
,
0000
0000
0000
1000
,
0000
0000
0000
1000
,
0000
0000
0000
0001
,
0000
0000
0001
0001
,
0001
0000
0000
0100
,
0000
0000
0000
0010
,
0000
0000
0000
1000
,
0000
1000
1001
0001
,
0000
0000
0000
0001
,
0000
0000
0000
1000
,
0000
0000
0000
1000
,
0000
0010
0000
0100
,
0000
0000
0000
0100
,
0000
0000
0000
0010
,
0000
0010
0000
0010
,
0000
0010
0000
1001
,
0100
0000
0000
0000
,
0000
0010
0000
0000
,
0000
0000
0001
0000
,
0000
0000
1000
0000
,
0000
0000
0100
0000
,
0000
0000
0010
0000
,
0000
0000
0001
0000
,
0001
0000
1000
0000
,
1000
0000
0010
0010
,
0010
0010
0010
0010
,
0010
0000
0000
0010
,
0000
0000
0000
0000
,
0000
0000
0000
0110
,
0000
0000
0000
0000
,
0000
1001
0000
0000
,
0000
0000
0000
0000
,
0000
1000
0000
0000
,
0000
0010
0000
0010
,
0000
0010
0000
0000
,
0000
0000
0000
0100
,
0000
0000
0000
0000
,
0000
0000
0000
0000
,
0000
1001
0000
0000
,
0000
0000
0000
0010
,
0000
0000
0000
0000
,
0000
0000
0000
0000
,
0000
1001
0000
0000
,
0000
0000
0000
0010
,
0000
0000
0000
0000
,
0000
0000
0000
0000
,
0000
0110
0000
0000
,
0000
0000
0000
0100
,
0000
0000
0000
0000
,
0000
0000
0000
0000
,
0000
1001
0000
0000
,
0000
0000
0000
0000
,
0000
0000
0000
0000
,
0000
0000
0000
0000
,
0000
0000
0000
0000
0000
0000
0000
0000
0000
0000
0000
0000
0000
1000
0000
0000
;
