#TITLE:BRAINSTORM;
#SUBTITLE:;
#ARTIST:Hardcore United Tokyo;
#TITLETRANSLIT:;
#SUBTITLETRANSLIT:;
#ARTISTTRANSLIT:;
#CREDIT:;
#BANNER:bn.PNG;
#BACKGROUND:bg.PNG;
#LYRICSPATH:;
#CDTITLE:;
#MUSIC:BRAINSTORM.mp3;
#OFFSET:-3.700;
#SAMPLESTART:24.365;
#SAMPLELENGTH:12.000;
#SELECTABLE:YES;
#BPMS:0.000=90.000,32.000=180.000;
#STOPS:88.500=0.333
,89.500=0.333
,318.000=2.220
,318.250=0.020
,318.500=0.160
,318.750=0.800
,319.000=0.400
,319.250=0.200
,319.500=0.320
,319.750=0.180
;
#BGCHANGES:;

//---------------dance-single - ----------------
#NOTES:
     dance-single:
     :
     Hard:
     9:
     0.655,0.778,0.265,0.335,0.171:
0000
0000
0000
0000
,
0000
0000
0000
0000
,
0000
0000
0000
0000
,
0000
0000
0000
0000
,
1000
0100
0000
0000
0010
0000
0000
0000
0000
0000
0001
1000
0001
0000
0000
0000
,
0010
0100
0000
0000
0010
0000
0000
0000
0000
0000
1000
0100
1000
0000
0000
0000
,
0010
0100
0000
0000
0001
0000
0000
0000
0000
0000
1000
0100
1000
0000
0000
0000
,
1000
0000
0001
0100
0000
0010
1000
0002
0200
0000
0000
0000
0303
0000
0000
0000
,
0001
1000
0001
1000
0010
0100
0001
1000
,
0001
0010
0100
1000
0100
0010
0001
1000
,
0001
0100
0010
1000
0001
0100
0001
0010
,
0100
1000
0100
0010
0001
1000
0001
0000
,
0001
0100
0001
1000
0010
0100
0001
1000
,
0100
0010
0001
0100
0001
1000
0001
1000
,
0010
1000
0001
0100
1000
0100
0010
0001
,
2000
3001
0002
1003
,
0001
0010
0100
1000
0001
0100
0001
1000
,
0010
1000
0001
0100
0001
0100
0010
0001
,
0010
0100
1000
0100
0010
1000
0001
0100
,
0020
0000
0130
0010
0001
1000
0002
0000
,
1003
0100
0010
0001
0010
0100
0001
1000
,
0001
1000
0010
1000
0001
0100
0001
0010
,
0100
1000
0001
0100
0110
0000
0110
0000
,
2002
0000
3003
0000
1000
0100
1000
0100
,
0001
0100
0001
0100
0001
0000
0001
0100
,
0000
0010
0000
1000
0001
1000
0001
1000
,
0010
1000
0001
0100
0010
0000
0001
1000
,
0000
0100
0000
1000
0100
1000
0100
0010
,
0001
0100
0010
1000
0001
0000
0001
1000
,
0000
0100
0000
1000
0100
1000
0100
0010
,
0000
0001
0100
0000
1000
0000
0001
1000
,
0000
1000
0100
1000
0001
0010
0100
1000
,
0001
1000
0001
0100
0001
1000
0010
1000
,
0001
0100
1000
0100
0010
0001
0010
1000
,
0001
0100
0001
1000
0010
0001
0010
0100
,
1000
0001
0100
0000
0001
1000
0001
1000
,
0010
0100
0001
0100
0001
0010
0100
1000
,
0100
0010
0001
0010
2000
0000
0000
0000
,
0000
0000
0000
0000
3001
0010
0100
1000
,
0022
0000
0000
0033
2000
0100
3200
1000
,
2300
0100
3200
1000
2300
0010
3020
1000
,
2030
0010
3020
1000
2030
0001
3002
1000
,
2003
0001
3002
1000
0203
0001
0302
0100
,
0203
0000
0000
0300
0000
0000
2000
3100
0020
0031
0200
0310
,
0002
0000
0003
0000
0000
0000
1000
0000
0000
1000
0000
0000
0002
0000
0013
0000
0200
0000
1300
0000
0002
0000
0013
0000
,
0200
0000
0000
0000
1300
0000
0000
0000
0001
0000
0000
0000
1000
0000
0000
0000
0000
0000
0000
0000
0000
0000
0000
0000
0001
0000
0000
0000
0000
0000
0000
0000
0000
2000
0000
0000
0100
0000
0000
0000
0000
0000
0000
0000
0000
0000
0000
0000
,
3001
0001
0001
0000
1000
0001
0010
0100
,
1000
0000
0100
0000
0001
0000
0010
0000
0001
0000
2000
0000
3001
0000
0001
0100
,
0001
0000
0001
1000
0100
0010
0001
1000
,
0001
0100
0002
0000
1003
1000
1000
1000
,
2000
0000
3001
0001
0000
1000
1000
0000
,
0001
0000
0010
0000
0100
0000
1000
0000
0001
0000
1000
0000
1001
0000
0000
0000
0000
0000
0000
0000
0000
1100
0000
0000
,
0000
0000
0000
0000
0001
0010
0001
0000
0011
0000
0000
0000
1100
0000
0000
0000
,
0000
0000
1001
0000
0000
0000
0000
0000
1000
0100
1000
0100
1000
0000
0001
0010
,
0001
0010
0001
0000
1000
0000
0001
0000
0101
0000
0000
1010
0000
0000
0101
0000
,
0000
1100
0000
0000
0011
0000
0010
0000
1100
0000
0000
0110
0000
0000
0011
0000
,
0000
0101
0000
0000
1001
0000
0000
0110
0000
0000
1001
0000
0000
1100
0000
0000
,
0011
0000
0000
0101
0000
0000
1010
0000
0000
1000
0100
0000
0100
0010
0000
0010
,
0001
0000
0001
0010
0000
0010
0100
0002
2000
0000
0000
0000
0000
0000
0000
0000
,
0000
0000
3003
0000
0001
1000
0010
0100
,
0000
0000
1000
0100
0010
0001
0010
0100
,
0000
0000
0001
0001
1000
0001
0100
0010
,
0000
0000
1000
0001
0100
0001
1000
0010
,
0100
0001
1000
0010
0001
1000
0001
0100
,
0000
0000
1000
0100
0010
0001
1000
0001
,
0000
0000
0001
0100
0010
1000
0001
0100
,
0000
0000
1000
0100
0010
1000
0001
0100
,
0010
1000
0001
0000
1000
0100
0001
0100
,
0001
0100
0001
1000
0010
1000
0001
0100
,
0001
0010
0100
1000
0100
0010
0001
0010
,
0100
0001
1000
0010
0100
0001
1000
0010
,
0100
0010
1000
0000
0001
1000
0001
0100
,
0010
1000
0010
1000
0001
0100
0001
0100
,
1000
0100
0010
0001
0010
0100
0001
1000
,
0001
0100
0010
1000
0001
0001
0000
0001
,
0000
0000
0000
1000
0001
0000
0000
0000
2000
0000
0000
0000
3000
0000
0000
0000
0101
0000
0000
0000
0000
0000
0000
0000
0000
0000
0000
0000
0011
0000
0000
0000
,
0000
0000
1100
0000
0011
0000
0000
0110
,
0000
0000
1001
0000
1100
0000
0000
0011
,
0000
0000
0110
0000
0001
1000
0001
0100
,
0010
1000
0100
2000
0002
0000
0000
0000
,
3003
0000
0000
0000
;

//---------------dance-single - ----------------
#NOTES:
     dance-single:
     :
     Medium:
     6:
     0.459,0.498,0.342,0.218,0.039:
0000
0000
0000
0000
,
0000
0000
0000
0000
,
0000
0000
0000
0000
,
0000
0000
0000
0000
,
1000
0000
1100
0000
0000
0001
0100
0000
,
0010
0000
0110
0000
0000
0100
0010
0000
,
1000
0000
1100
0000
0000
0010
0010
0000
,
0001
1000
2002
3003
,
0001
0100
0001
0000
0100
0000
1000
0000
,
0100
0010
0001
1000
,
0001
1000
0001
0000
0100
0000
0010
0000
,
0010
0000
1000
0000
0001
0100
0001
0000
,
1100
0010
0001
0100
,
0110
0010
1000
0100
,
1000
0100
1000
0000
0010
0000
0100
0000
,
0102
0000
2000
3003
,
0001
1000
0001
0000
0100
0000
0010
0000
,
1000
0100
1000
0000
0010
0000
0001
0000
,
0011
0000
0100
0000
0001
0100
0001
0000
,
0002
0000
1003
0000
0001
0100
0001
0000
,
1010
0000
0010
0000
0100
0010
0100
0000
,
1000
0000
0100
0000
1000
0100
1000
0000
,
1100
0011
0101
0101
,
1100
1100
0001
1000
,
0100
0000
1000
0100
1000
0000
1000
0100
,
0000
0010
0000
0010
0001
0000
0100
0000
,
0001
0000
1000
0000
0001
0000
0001
1000
,
0000
1000
0000
0001
1000
0000
0100
0000
,
0010
0000
0001
0000
0100
0000
0001
0100
,
0000
0010
0000
0010
0100
0000
0010
0100
,
0000
0001
1000
0000
0100
0000
1000
0100
,
0000
1000
0100
0000
1100
0000
0010
0000
,
0110
0010
0011
0001
,
0011
0010
0110
0100
,
1100
0100
0110
0010
,
0011
0101
0101
0001
,
0101
0100
0110
0010
,
0110
1000
2000
0000
,
0002
3003
0001
1000
,
0001
0000
0002
0103
,
2000
0000
3010
0000
0010
0100
0020
0000
,
0100
0000
0130
0000
1000
0100
2000
0000
,
0100
0000
0010
3000
0001
0100
0001
0100
,
0002
0000
0203
0320
,
0130
0000
0010
0000
0001
1000
0002
0000
,
0100
0013
0012
0203
,
0310
1000
0020
0000
1000
0000
1000
0000
,
1000
0000
1030
0000
1000
0200
0000
1300
,
0200
0000
1300
0200
0000
1300
0100
0010
,
0002
0000
0013
0000
0001
0100
0001
0100
,
0001
0000
0001
0001
0000
1000
1000
0000
,
0001
0000
1000
0000
1001
0000
0000
0110
,
0000
0000
1100
0011
,
0000
0101
0000
0000
0110
0000
0000
1010
,
0000
0000
0000
0000
0010
0000
1000
0000
0001
0000
0000
0010
0000
0000
0100
0000
,
0000
1000
0000
0000
0100
0000
1000
0000
0100
0000
0000
0010
0000
0000
0001
0000
,
0000
0100
0000
0000
1000
0000
0000
0010
0000
0000
0100
0000
0000
1000
0000
0000
,
0100
0000
0000
0010
0000
0000
0001
0000
0000
0100
0000
0000
1000
0000
0000
0100
,
0000
0000
0010
0000
0000
0001
0000
0000
2002
0000
0000
0000
0000
0000
0000
0000
,
0000
0000
3003
0000
0001
0000
0001
0100
,
0000
0000
0010
0100
0010
0000
0010
1000
,
0000
0000
0100
1000
0100
0000
1000
0100
,
0000
0000
0010
0100
0010
0000
0000
0010
,
0200
0000
0310
0000
0001
0000
1000
0100
,
0000
0000
0010
0001
0010
0000
0001
0100
,
0000
0000
0010
1000
0010
0000
0010
1000
,
0000
0000
0001
1000
0001
0000
0000
0001
,
2000
0000
3100
0000
0010
0001
0010
0000
,
0100
0000
1000
0000
0100
1000
0100
0000
,
0010
0000
0100
0000
0001
1000
0001
0000
,
0100
0000
1000
0000
0010
1000
0010
1000
,
0001
0100
0001
0000
1000
0000
1100
0000
,
0010
1000
0010
0000
0100
0000
0101
0000
,
0010
0001
0010
0000
0100
0000
1000
0000
,
0100
0000
0010
0000
0001
1000
0000
0100
,
0000
1000
0100
0000
1100
0000
0000
0011
,
0000
0000
0001
0000
0101
0000
0000
0110
,
0000
0010
0100
0000
0010
0000
0100
1000
,
0100
0000
0010
0001
0000
0010
0100
0010
,
1000
0001
2002
0000
,
0000
3003
0000
0000
0000
0000
0000
0000
0000
0000
0000
0000
0000
0000
0000
0000
0000
0000
0000
0000
0000
0000
0000
0000
0000
0000
0000
0000
0000
0000
0000
0000
0000
0000
0000
0000
0000
0000
0000
0000
0000
0000
0000
0000
0000
0000
0000
0000
0000
0000
0000
0000
0000
0000
0000
0000
0000
0000
0000
0000
0000
0000
0000
0000
0000
0000
0000
0000
0000
0000
0000
0000
0000
0000
0000
0000
0000
0000
0000
0000
0000
0000
0000
0000
0000
0000
0000
0000
0000
0000
0000
0000
0000
0000
0000
0000
0000
0000
0000
0000
0000
0000
0000
0000
0000
0000
0000
0000
0000
0000
0000
0000
0000
0000
0000
0000
0000
0000
0000
0000
0000
0000
0000
0000
0000
0000
0000
0000
0000
0000
0000
0000
0000
0000
0000
0000
0000
0000
0000
0000
0000
0000
0000
0000
0000
0000
0000
0000
0000
0000
0000
0000
0000
0000
0000
0000
0000
0000
0000
0000
0000
0000
0000
0000
0000
0000
0000
0000
0000
0000
0000
0000
0000
0000
0000
0000
0000
0000
0000
0000
0000
0000
0000
0000
0000
0000
0000
0000
0000
0000
0000
0000
;

//---------------dance-single - ----------------
#NOTES:
     dance-single:
     :
     Easy:
     5:
     0.328,0.374,0.125,0.156,0.008:
0000
0000
0000
0000
,
0000
0000
0000
0000
,
0000
0000
0000
0000
,
0000
0000
0000
0000
,
0001
0101
0000
1000
,
0001
1000
0000
0100
,
0010
0100
0000
1000
,
0001
1000
0202
0303
,
1000
0001
1000
0100
,
0010
0001
0010
0100
,
1000
0001
1000
0010
,
1000
0100
0010
0001
,
0001
0010
0100
1000
,
0001
1000
0100
0010
,
0001
1000
0001
0100
,
0020
0000
0000
0000
,
0130
0100
0010
1000
,
0001
0010
0100
1000
,
0100
0010
0001
1000
,
1002
0003
0001
0001
,
1000
0100
0010
0001
,
0010
0100
1000
0010
,
0001
0001
1000
1000
,
1000
0000
0001
1000
,
0001
0100
0001
0001
,
0001
0001
0010
1000
,
0100
1000
0100
0100
,
0100
0100
0010
1000
,
0001
0010
0100
1000
,
0100
0010
0001
0000
,
1000
0000
0001
0000
,
0100
0000
0110
0010
,
0100
1000
0100
0010
,
0001
1000
0001
0100
,
1000
0100
0010
0001
,
0100
0001
0100
0001
,
0010
1000
0100
0010
,
0001
1000
0002
0000
,
0000
0000
1000
1000
,
2000
3003
0001
0001
,
1000
1000
0001
0010
,
0100
1000
0001
0010
,
0100
1000
0001
0100
,
1000
0000
0002
0203
,
0310
0001
2000
3200
,
1300
0010
0200
0310
,
0002
1003
0100
1000
,
0100
0010
0002
0000
,
0203
0000
0010
0010
,
0020
0330
0020
0100
,
0100
0000
0000
0100
0000
0000
0100
0000
,
0100
0000
0130
0000
1100
0000
0000
0011
,
0000
0001
0101
1100
,
0000
0110
0000
0000
0010
0000
0000
0010
,
0000
0000
1000
0100
1000
0000
0000
1000
,
0000
0000
0100
0000
1000
0000
0000
1100
,
0000
0000
0011
0000
0000
0110
0000
0000
,
1100
0000
0000
0001
0000
0000
1000
0000
,
0100
0000
0010
0000
0001
0020
0000
0000
,
0000
0000
0030
0000
0001
0000
0000
1000
,
0000
0000
0100
1000
0100
0000
0000
1000
,
0000
0000
0100
0000
0010
0000
0000
0001
,
0000
1000
0001
0000
,
0001
0000
0000
0000
0001
0000
0000
1000
,
0000
0000
0001
0000
0100
0000
0000
0010
,
0000
0000
0010
0000
0100
0000
0000
0100
,
0000
0000
1000
0000
0001
0000
0000
1000
,
0001
0000
1000
0100
,
0010
0001
0010
0100
,
1000
0001
1000
0100
,
0010
0001
0010
0100
,
1100
1100
1000
0100
,
0010
0001
0010
0100
,
1000
0001
1000
0100
,
0010
0001
2002
0000
,
0000
0000
3003
0000
0001
0000
0000
0001
,
0000
0000
1000
0000
0100
0000
0000
1000
,
0000
0100
1000
0100
,
0010
0000
0000
0001
0000
0000
0100
0000
,
0000
2000
0000
0000
,
0000
0001
3001
0000
0000
0000
0000
0000
0000
0000
0000
0000
0000
0000
0000
0000
0000
0000
0000
0000
0000
0000
0000
0000
0000
0000
0000
0000
0000
0000
0000
0000
0000
0000
0000
0000
0000
0000
0000
0000
0000
0000
0000
0000
0000
0000
0000
0000
0000
0000
0000
0000
0000
0000
0000
0000
0000
0000
0000
0000
0000
0000
0000
0000
0000
0000
0000
0000
0000
0000
0000
0000
0000
0000
0000
0000
0000
0000
0000
0000
0000
0000
0000
0000
0000
0000
0000
0000
0000
0000
0000
0000
0000
0000
0000
0000
0000
0000
0000
0000
0000
0000
0000
0000
0000
0000
0000
0000
0000
0000
0000
0000
0000
0000
0000
0000
0000
0000
0000
0000
0000
0000
0000
0000
0000
0000
0000
0000
0000
0000
0000
0000
0000
0000
0000
0000
0000
0000
0000
0000
0000
0000
0000
0000
0000
0000
0000
0000
0000
0000
0000
0000
0000
0000
0000
0000
0000
0000
0000
0000
0000
0000
0000
0000
0000
0000
0000
0000
0000
0000
0000
0000
0000
0000
0000
0000
0000
0000
0000
0000
0000
0000
0000
0000
0000
0000
0000
0000
0000
0000
0000
0000
;

//---------------dance-single - ----------------
#NOTES:
     dance-single:
     :
     Beginner:
     2:
     0.118,0.185,0.101,0.000,0.000: // measure 1
0000
0000
0000
0000
,  // measure 2
0000
0000
0000
0000
,  // measure 3
0000
0000
0000
0000
,  // measure 4
0000
0000
0000
0000
,  // measure 5
0010
0000
0000
0000
,  // measure 6
0001
0000
0000
0000
,  // measure 7
1000
0000
0000
0000
,  // measure 8
0001
0001
1001
0000
,  // measure 9
0100
0000
0000
0000
,  // measure 10
0100
0000
0000
0000
,  // measure 11
0010
0000
0000
0000
,  // measure 12
0010
0000
0000
0000
,  // measure 13
1001
0000
0000
0000
,  // measure 14
0001
0000
0000
0000
,  // measure 15
1000
0000
0000
0000
,  // measure 16
0100
0000
0100
0000
,  // measure 17
0100
0000
0000
0000
,  // measure 18
0010
0000
0000
0000
,  // measure 19
1000
0000
0000
0000
,  // measure 20
1001
0000
0000
0000
,  // measure 21
0001
0000
0000
0000
,  // measure 22
0100
0000
0000
0000
,  // measure 23
0010
0010
0010
0010
,  // measure 24
0010
0000
1000
0000
,  // measure 25
0000
0000
0001
0000
,  // measure 26
0000
0000
0001
0000
,  // measure 27
0000
0000
1000
0000
,  // measure 28
0000
0000
0010
0000
,  // measure 29
0000
0000
0100
0000
,  // measure 30
0000
0000
0100
0000
,  // measure 31
0000
0000
0010
0000
,  // measure 32
0000
0000
1000
0000
,  // measure 33
0000
0000
0001
0000
,  // measure 34
0000
0000
0100
0000
,  // measure 35
0000
0000
0010
0000
,  // measure 36
0010
0000
0010
0000
,  // measure 37
0000
0000
1000
0000
,  // measure 38
0000
0000
0001
0000
,  // measure 39
0000
0000
0100
0000
,  // measure 40
1001
0000
0001
0000
,  // measure 41
0000
0000
1000
0000
,  // measure 42
0000
0000
0100
0000
,  // measure 43
0000
0000
0010
0000
,  // measure 44
0000
0000
0001
0000
,  // measure 45
0000
0000
0001
0000
,  // measure 46
0000
0000
1000
0000
,  // measure 47
0000
0000
0010
0000
,  // measure 48
0000
0000
0110
0000
,  // measure 49
0100
0000
0010
0000
,  // measure 50
0100
0000
0001
0000
,  // measure 51
0000
0000
0000
0000
,  // measure 52
0000
0000
1001
0000
,  // measure 53
0000
0000
0110
0000
,  // measure 54
0000
0000
0100
0000
,  // measure 55
0000
0000
0010
0000
,  // measure 56
0000
0100
0100
0000
,  // measure 57
0000
0000
0000
0000
,  // measure 58
0000
0000
0000
0000
,  // measure 59
0000
0000
1001
0000
,  // measure 60
0000
0000
0010
0000
,  // measure 61
0000
0100
0100
0000
,  // measure 62
0000
1000
1000
0000
,  // measure 63
0000
0000
0001
0000
,  // measure 64
1000
0000
0001
0000
,  // measure 65
0000
0100
0100
0000
,  // measure 66
0000
0010
0010
0000
,  // measure 67
0000
0000
1000
0000
,  // measure 68
0001
0000
0110
0000
,  // measure 69
0000
0000
0100
0000
,  // measure 70
0000
0000
0010
0000
,  // measure 71
0000
0000
0001
0000
,  // measure 72
0000
0000
1000
0000
,  // measure 73
0000
0000
0001
0000
,  // measure 74
0000
0000
0010
0000
,  // measure 75
0000
0000
0100
0000
,  // measure 76
0000
0000
0110
0000
,  // measure 77
0000
0000
0110
0000
,  // measure 78
0000
0000
1001
0000
,  // measure 79
0001
0000
1000
0000
,  // measure 80
0001
1001
0000
0000
;
