#TITLE:Arabian Rave Night;
#SUBTITLE:;
#ARTIST:dj MAX STEROID;
#TITLETRANSLIT:;
#SUBTITLETRANSLIT:;
#ARTISTTRANSLIT:;
#CREDIT:;
#BANNER:bn.PNG;
#BACKGROUND:bg.PNG;
#LYRICSPATH:;
#CDTITLE:kxlxj.png;
#MUSIC:Arabian Rave Night.mp3;
#OFFSET:-0.060;
#SAMPLESTART:33.380;
#SAMPLELENGTH:12.000;
#SELECTABLE:YES;
#BPMS:0.000=180.000,192.000=90.000,208.000=180.000;
#STOPS:160.000=1.000
,191.000=0.333
,208.000=0.833
,210.000=0.667
,211.500=0.333
,212.500=0.500
,306.000=0.167
,307.500=0.167
,312.000=0.833
,314.000=0.667
;
#BGCHANGES:;

//---------------dance-single - ----------------
#NOTES:
     dance-single:
     :
     Hard:
     9:
     0.588,0.870,0.119,0.420,0.103:
0000
0000
0000
0000
,
0000
0000
0000
0000
,
0000
0000
0000
0000
,
0000
0000
0000
0000
,
0000
0000
0000
0000
,
0000
0000
0000
0000
,
0000
0000
0000
0000
,
0000
0000
0000
0000
,
0000
0000
0000
0000
,
1000
0000
0001
0020
0000
0130
0020
0000
,
0130
0000
0001
0010
0000
0010
1000
0000
,
1001
0000
1000
0100
0010
0001
0200
0000
,
0310
0001
0100
0000
0002
0000
2003
0000
,
3100
1000
0100
1000
0000
0100
1000
0000
,
1000
0100
0010
0001
0000
0001
1000
0000
,
1000
0000
0100
1000
0100
0000
0010
0000
,
1000
0000
0010
0000
0001
0002
1000
2003
,
0001
3000
1000
0000
0100
1000
0100
0000
,
1000
0000
0100
1000
0000
1000
0100
0000
,
0010
0000
0100
0000
0001
0100
0001
0000
,
0001
1000
0002
0000
,
0013
0000
1000
0000
0100
1000
0100
0000
,
0010
0000
1000
0000
0100
1000
0100
0000
,
1000
0000
0100
0000
0010
0000
0001
1000
,
0001
0000
0000
1000
0000
0000
0100
0000
0000
0010
0000
0000
0001
0000
1000
0000
,
0200
0000
0310
0000
1000
0200
1000
0000
,
0320
0000
0130
0000
0001
0200
0001
0000
,
0320
1030
0010
0001
,
0001
1000
0001
0100
0001
0100
0001
0000
,
0001
1000
0002
0000
0100
0000
0013
0000
,
0001
0020
0100
0000
1030
0000
0100
0000
,
1000
0100
0010
0001
0010
0000
0000
0000
,
1000
0000
0001
0100
0010
0000
0100
0000
,
1000
0100
0010
0001
0010
0100
0001
0100
,
0010
1000
0001
0100
0010
1000
0001
0100
,
0010
1000
0100
0010
0001
0010
1000
0100
,
0010
1000
0010
0100
0010
0100
0001
0000
,
0001
1000
0001
1000
0010
0100
0010
1000
,
0100
0010
0001
0010
0100
0010
1000
0010
,
1001
1000
1001
0001
1001
1000
1001
0001
,
0002
0000
0103
0000
0001
0000
1000
0100
,
1000
0000
0010
0000
0100
0000
1000
0100
,
1000
0000
0010
0000
1000
0000
0001
0100
,
0001
0000
0010
0000
0100
0000
0010
0100
,
0010
0000
1000
0000
0100
0000
0010
0001
,
0010
0000
0100
0000
0001
0000
1000
0001
,
1000
0000
0100
0000
0010
0000
1000
0100
,
1000
0000
0000
0010
0100
0010
1000
0001
0100
1000
0000
0000
,
1100
0000
0010
1000
0010
0000
0100
0000
0010
0100
0010
0000
1000
0001
1000
0001
,
1000
0000
0100
1000
0100
0000
0010
0000
0001
0100
0001
0000
0100
0000
1000
0000
,
0200
0000
1300
0100
2000
0000
3100
0000
0010
0000
0010
0100
0020
0000
0130
0000
,
0001
0000
0001
0010
0200
0000
1300
0000
1000
0100
0010
0001
0010
0000
1000
0000
,
1001
1000
0100
0000
0010
0000
0001
0000
1000
0001
0100
0000
1000
0000
0001
0000
,
1000
0001
1000
0100
0010
0001
0100
0001
,
0010
1000
0002
0000
0023
0000
0031
0020
,
0001
0030
2000
0000
3200
0000
1300
0200
,
1000
0300
0020
0000
2030
0000
3010
2000
,
0010
3000
0200
0000
0302
0000
0103
0002
,
0100
0003
0002
0000
0023
0000
0031
0020
,
0001
0030
2000
0000
3200
0000
1300
0200
,
1000
0300
0002
0000
0203
0000
0301
0200
,
0001
0300
2000
0000
3020
0000
1030
0020
,
1000
0030
2000
0000
3200
0000
1300
0100
,
0002
0000
0010
0000
0103
0000
1000
0001
,
1001
0002
2003
3200
,
0320
0000
0000
0000
0031
0000
0010
0000
0100
0000
1000
0000
0001
1000
0001
1000
,
0001
1000
0001
1000
0001
0000
0000
0000
1000
0000
0100
0000
0000
0000
0010
0000
,
0001
0010
0000
0000
0001
0000
0100
1000
,
0100
0000
0010
0000
1000
0100
0000
0010
,
0001
0011
0000
1100
0000
1001
1000
1000
,
0001
0001
1000
0100
0010
0001
0010
0100
,
0001
0000
0001
1000
0010
1000
0001
0100
,
0010
0000
1000
0100
0010
0001
0010
0100
,
0001
0000
0001
1000
0010
1000
0010
1000
,
0010
1000
0001
0100
1000
0100
0010
0001
,
0010
0000
0001
0100
0001
1000
0010
1000
,
0001
0000
1000
0100
1000
0001
0010
0001
,
1100
0011
0110
0001
,
0001
0001
0010
0000
0100
0000
1000
0000
1000
1000
0001
0000
0010
0000
0100
0000
,
1000
0100
0010
0001
0010
0100
1000
0100
,
0001
0000
0100
0000
1000
0000
0100
0000
0000
0001
0000
0000
0100
0000
2002
0000
,
0000
3003
0000
0000
;

//---------------dance-single - ----------------
#NOTES:
     dance-single:
     :
     Medium:
     7:
     0.519,0.612,0.222,0.428,0.012:
0000
0000
0000
0000
,
0000
0000
0000
0000
,
0000
0000
0000
0000
,
0000
0000
0000
0000
,
0000
0000
0000
0000
,
0000
0000
0000
0000
,
0000
0000
0000
0000
,
0000
0000
0000
0000
,
0000
0000
0000
0000
,
0001
0000
1000
0000
0100
1000
0000
0100
,
0000
1000
0000
0100
0000
0010
0001
0000
,
0010
0000
0100
0000
0001
1000
0000
0001
,
1000
0001
0000
0001
2000
0000
3200
0000
,
1300
0100
1000
0100
0000
1000
0000
0100
,
1000
0000
1000
0100
0000
0010
0001
0000
,
0001
0100
0001
0000
1000
0000
0010
0000
,
0100
0000
1000
0000
0001
1000
0001
1000
,
1001
0000
0100
0000
0010
0100
0000
0010
,
0000
0100
0000
1000
0100
0000
1000
0000
,
0100
1000
0100
0000
0010
0001
0010
0000
,
0100
0010
2002
3003
,
0001
0100
0001
0000
0010
0000
1000
0000
,
0100
1000
0000
1000
0100
0000
0010
0001
,
0010
0000
0100
0001
0000
0010
0100
0000
,
0010
0000
0000
1000
0000
0000
0100
0000
0000
0010
0000
0000
0001
0000
1000
0000
,
0002
0000
0103
0000
0010
0100
0010
0000
,
0200
0000
0310
1000
0010
0000
0100
0000
,
1000
0000
0100
1000
0200
0000
1300
0000
,
1000
0100
0010
0000
0001
1000
0010
0000
,
1002
0000
1000
0000
0100
0100
0103
0000
,
0020
0000
0100
0000
0100
0100
0130
0000
,
0010
0100
0001
1000
0010
0000
1000
0100
,
0001
0100
0000
0000
0001
0000
0100
0000
,
1000
1100
0110
0011
,
0110
0000
1001
0000
0110
0000
0001
0100
,
0101
1100
0110
1001
,
1100
0000
0001
0001
0000
1000
1000
0000
,
1002
1003
1002
1003
,
1020
1030
0120
0130
,
1000
0100
0010
0001
0010
0100
0010
1000
,
1001
0001
0100
1000
,
0100
0020
0001
0001
,
0031
0102
0103
0010
,
1000
0000
0200
0000
1300
0000
0100
0010
,
0100
0000
0020
0000
0130
0000
1000
0001
,
1000
0000
0200
0000
1300
0000
0010
0001
,
0010
0200
0310
2000
,
3100
2000
3002
0103
,
0010
0100
0001
1000
0100
0010
0002
0013
,
0100
1000
0100
0010
0001
0100
2000
3100
,
0020
0100
0130
0000
0200
0010
0310
0000
,
0001
1000
0100
0010
0001
0010
0100
0010
,
0001
1000
0001
1000
0001
1000
0001
1000
,
0001
1000
0001
0100
0010
0001
0010
0100
,
0010
1000
0002
0000
0100
0000
0010
0000
,
0103
2000
0100
0010
,
3100
0020
1000
0001
,
1030
0200
1000
0001
,
1300
0020
1000
1000
,
0130
0200
0001
0001
,
0310
0002
1003
2000
,
3001
0000
0001
1000
0001
0000
0010
0100
,
0010
2100
3100
0020
,
0031
0000
0100
0010
0100
0000
0002
0000
,
0103
2000
3100
0020
,
0130
0000
0001
0001
1000
1000
0001
0001
,
1000
1000
0002
0000
1003
0000
0100
1000
,
0200
0000
1000
0000
1300
0000
1000
0100
,
2000
0000
3100
0000
0010
0000
0100
0010
,
0200
0010
0300
0010
0000
0010
0100
0010
,
1000
0001
1000
0000
0200
0000
1300
0100
,
1000
0000
0010
0000
0110
0000
0001
0100
,
0002
0000
0103
0000
0120
0000
0130
0010
,
2000
0000
3001
0000
0102
0000
0103
0001
,
2000
0000
3010
0000
0120
0000
0130
0010
,
0200
0000
0310
0000
2000
0000
3001
1000
,
0001
0000
1000
0100
0000
0010
0001
0000
,
0110
0000
0110
0000
1000
0100
0010
0001
,
1000
0001
0100
1000
0100
1000
0100
0010
,
0000
0000
0001
0100
0000
0000
1000
0100
,
0010
0000
0001
0000
0010
0000
0100
0000
0000
0001
0000
0000
1000
0000
2002
0000
,
0000
3003
0000
0000
;

//---------------dance-single - ----------------
#NOTES:
     dance-single:
     :
     Easy:
     5:
     0.323,0.451,0.119,0.190,0.000: // measure 1
0000
0000
0000
0000
,  // measure 2
0000
0000
0000
0000
,  // measure 3
0000
0000
0000
0000
,  // measure 4
0000
0000
0000
0000
,  // measure 5
0000
0000
0000
0000
,  // measure 6
0000
0000
0000
0000
,  // measure 7
0000
0000
0000
0000
,  // measure 8
0000
0000
0000
0000
,  // measure 9
0000
0000
0000
0000
,  // measure 10
1000
1000
1000
0000
,  // measure 11
0001
0001
0001
0000
,  // measure 12
0100
0000
0010
0000
,  // measure 13
0010
0000
0020
0230
,  // measure 14
0310
0000
0010
0000
,  // measure 15
1000
0000
0001
0000
,  // measure 16
1000
0000
0001
0000
,  // measure 17
0100
0000
0000
0000
0001
1000
0001
1000
,  // measure 18
0001
0001
1000
1000
,  // measure 19
0001
0100
0010
1000
,  // measure 20
0100
0010
0001
0100
,  // measure 21
0000
0020
0000
0000
,  // measure 22
0130
0000
0100
0000
,  // measure 23
1000
0000
1000
0000
,  // measure 24
0001
0000
1000
0000
,  // measure 25
2002
0000
0000
3003
,  // measure 26
0002
0000
0000
0000
,  // measure 27
0203
0010
0020
0330
,  // measure 28
0020
0000
0000
0030
,  // measure 29
1000
0001
0100
1000
,  // measure 30
0002
2003
3002
0200
,  // measure 31
0000
0000
0000
0303
,  // measure 32
0001
1000
0001
0100
,  // measure 33
1000
0100
0000
0000
0010
0000
0000
0000
,  // measure 34
0001
0001
1000
0001
,  // measure 35
0100
0000
1000
0000
0100
0000
1000
0100
,  // measure 36
1000
0100
0010
0001
,  // measure 37
0100
0000
0001
1000
0000
0001
1000
0000
,  // measure 38
1000
0100
0010
0001
,  // measure 39
0100
0000
1000
0100
0000
0010
0001
0000
,  // measure 40
0001
1000
0001
0100
0010
1000
0100
0010
,  // measure 41
0001
0001
0000
0001
,  // measure 42
0000
2000
0000
0100
,  // measure 43
0000
3100
0000
0010
,  // measure 44
0000
0002
0000
0103
,  // measure 45
0000
0110
0000
0010
,  // measure 46
0000
0200
0000
0310
,  // measure 47
0000
1000
0000
0001
,  // measure 48
0000
1000
1000
1000
,  // measure 49
0001
0000
1000
0000
1000
0000
0001
0100
,  // measure 50
0001
0010
1000
0100
,  // measure 51
2000
3010
0200
0310
,  // measure 52
0002
0013
0200
0310
,  // measure 53
1000
0000
0001
0000
1000
0000
0000
0100
,  // measure 54
0000
1000
0000
0000
1000
0000
1000
0000
,  // measure 55
1000
0001
0001
0001
,  // measure 56
0100
0010
1000
0100
,  // measure 57
0010
0001
0100
1000
,  // measure 58
0010
1000
0001
0100
,  // measure 59
0000
0010
0100
1000
,  // measure 60
0001
0100
0001
0010
,  // measure 61
1000
0100
0010
0001
,  // measure 62
0100
0000
1000
0000
0010
0000
0001
1000
,  // measure 63
0001
1000
0100
0010
,  // measure 64
0001
0010
0100
1000
,  // measure 65
0001
1000
0000
0001
,  // measure 66
0000
0000
1000
0100
0010
0001
0010
0100
,  // measure 67
1000
0001
1000
0000
0001
0000
1000
0000
,  // measure 68
0001
0100
0010
1000
,  // measure 69
0100
0010
0001
0100
,  // measure 70
1000
0100
0000
0010
0000
0001
0100
0001
,  // measure 71
0100
0001
0101
1000
,  // measure 72
1100
0010
0110
1100
,  // measure 73
0011
0001
1001
0010
,  // measure 74
1010
0100
0110
0001
,  // measure 75
0011
0002
0100
0103
,  // measure 76
1000
0200
1000
1000
,  // measure 77
1300
0000
1100
0000
0000
0011
0000
0000
,  // measure 78
0101
0000
0001
1000
,  // measure 79
0001
0000
0000
0000
1000
0000
0000
0001
,  // measure 80
0000
1000
0000
0100
0000
0010
0000
0001
,  // measure 81
0000
0000
0000
1000
0000
0000
0000
2002
,  // measure 82
0000
3003
0000
0000
;

//---------------dance-single - ----------------
#NOTES:
     dance-single:
     :
     Beginner:
     2:
     0.108,0.160,0.032,0.000,0.000: // measure 1
0000
0000
0000
0000
,  // measure 2
0000
0000
0000
0000
,  // measure 3
0000
0000
0000
0000
,  // measure 4
0000
0000
0000
0000
,  // measure 5
0000
0000
0000
0000
,  // measure 6
0000
0000
0000
0000
,  // measure 7
0000
0000
0000
0000
,  // measure 8
0000
0000
0000
0000
,  // measure 9
0000
0000
0000
0000
,  // measure 10
0010
0000
0000
0000
,  // measure 11
0010
0000
0000
0000
,  // measure 12
0100
0000
0000
0000
,  // measure 13
1000
0000
0001
0001
,  // measure 14
0001
0000
0000
0000
,  // measure 15
1000
0000
0000
0000
,  // measure 16
0100
0000
0000
0000
,  // measure 17
0000
0000
0010
0010
,  // measure 18
0010
0000
0000
0000
,  // measure 19
0100
0000
0000
0000
,  // measure 20
1000
0000
0000
0000
,  // measure 21
0000
0000
0000
0000
,  // measure 22
0001
0000
0000
0000
,  // measure 23
1000
0000
0000
0000
,  // measure 24
0100
0000
0000
0000
,  // measure 25
1001
0000
0000
0000
,  // measure 26
0001
0000
0000
0000
,  // measure 27
1000
0000
0000
0000
,  // measure 28
0100
0000
0000
0000
,  // measure 29
0000
0000
0000
0000
,  // measure 30
0010
0000
0000
0000
,  // measure 31
0000
0000
0000
0000
,  // measure 32
0100
0000
0000
0000
,  // measure 33
0010
0000
0000
0000
,  // measure 34
1000
0000
1000
0000
,  // measure 35
1000
0000
1000
0000
,  // measure 36
0001
0000
0001
0000
,  // measure 37
0001
0000
0000
0000
,  // measure 38
0010
0000
0010
0000
,  // measure 39
0010
0000
0010
0000
,  // measure 40
0100
0000
0100
0000
,  // measure 41
0100
0010
0000
0000
,  // measure 42
0000
0000
0000
0000
,  // measure 43
0000
1000
0000
0000
,  // measure 44
0000
0000
0000
0000
,  // measure 45
0000
0001
0000
0000
,  // measure 46
0000
0000
0000
0000
,  // measure 47
0000
0010
0000
0000
,  // measure 48
0000
0000
0000
0000
,  // measure 49
1000
0000
0000
0000
,  // measure 50
0001
0000
0000
0000
,  // measure 51
0010
0000
0100
0000
,  // measure 52
1000
0000
0001
0000
,  // measure 53
1000
0000
0001
0000
,  // measure 54
0000
0000
0000
0000
,  // measure 55
0000
0010
0000
0000
,  // measure 56
0000
0010
0000
0000
,  // measure 57
0000
0100
0000
0000
,  // measure 58
0000
1000
0000
0000
,  // measure 59
0000
0001
0000
0000
,  // measure 60
0000
1000
0000
0000
,  // measure 61
0000
0100
0000
0000
,  // measure 62
0000
0001
0000
0000
,  // measure 63
0000
0010
0000
0000
,  // measure 64
0000
0100
0000
0000
,  // measure 65
0000
1000
0000
0000
,  // measure 66
0000
0001
0001
1000
,  // measure 67
1000
0001
0000
0000
,  // measure 68
0000
1000
0000
0000
,  // measure 69
0000
0010
0000
0000
,  // measure 70
0000
0110
0000
0010
,  // measure 71
0010
0010
0000
0100
,  // measure 72
0000
0010
0000
0100
,  // measure 73
0000
1000
0000
0001
,  // measure 74
0000
1000
0000
0001
,  // measure 75
0000
1000
0000
1000
,  // measure 76
0000
0001
0000
0001
,  // measure 77
0000
1001
0000
0000
,  // measure 78
0000
0000
0000
0000
,  // measure 79
1000
0000
0000
0000
0001
0000
0000
0100
,  // measure 80
0000
0000
0000
0100
0000
0000
0000
0010
,  // measure 81
0000
0000
0000
0010
0000
0000
0000
1001
;
