#TITLE:Anisakis;
#SUBTITLE:-somatic mutation type "Forza";
#ARTIST:朱雀;
#TITLETRANSLIT:;
#SUBTITLETRANSLIT:;
#ARTISTTRANSLIT:Suzaku;
#CREDIT:;
#BANNER:bn.PNG;
#BACKGROUND:anisakis.jpg;
#LYRICSPATH:;
#CDTITLE:15 trooper.png;
#MUSIC:Anisakis.mp3;
#OFFSET:-2.610;
#SAMPLESTART:2.600;
#SAMPLELENGTH:22.000;
#SELECTABLE:YES;
#BPMS:0.000=185.000,128.000=92.500,136.000=185.000,139.000=370.000,141.000=185.000,144.000=370.000,146.000=185.000,149.000=370.000,151.000=185.000,154.000=370.000,156.000=185.000,164.000=370.000,180.000=740.000,232.000=370.006,233.000=185.000,237.000=370.000,365.000=92.500,379.000=369.998,451.000=92.500,451.500=184.999;
#STOPS:212.000=0.243
,213.000=0.240
,214.000=0.240
,215.000=0.240
,232.000=1.135
;
#BGCHANGES:0.000=anisakis.PNG=1.000=0=0=1,
99999=-nosongbg-=1.000=0=0=0 // don't automatically add -songbackground-
;

//---------------dance-single - ----------------
#NOTES:
     dance-single:
     :
     Challenge:
     12:
     0.950,1.000,0.450,0.242,0.415: // measure 1
0100
0010
0100
1000
0001
0010
0001
0010
,  // measure 2
0001
0010
0100
0010
0001
0100
0001
0100
,  // measure 3
1000
0010
0001
0010
1000
0010
0001
0010
,  // measure 4
0100
0001
0100
1000
0001
0010
1000
0100
,  // measure 5
0010
0100
1000
0010
1000
0010
0100
1000
,  // measure 6
0100
0001
0100
0010
0001
0100
0010
1000
,  // measure 7
0010
1000
0100
0001
0010
0001
0100
0010
,  // measure 8
0100
1000
0001
0100
0001
0010
0100
0010
,  // measure 9
0100
1000
0100
0010
0001
1000
0010
0100
,  // measure 10
0010
0000
1010
0000
,  // measure 11
0001
0100
0010
1000
0001
0100
0001
1000
,  // measure 12
0010
0000
1001
0000
,  // measure 13
0001
1000
0100
0001
1000
0001
0010
0100
,  // measure 14
0001
0010
0100
1000
0001
1000
0001
1000
,  // measure 15
0010
1000
0001
1000
0001
0010
1000
0100
,  // measure 16
2002
0000
0000
3003
,  // measure 17
1000
0100
1000
0100
1000
0000
0010
0001
0010
0001
0010
0000
0100
0010
0100
0010
,  // measure 18
0100
0000
1000
0001
1000
0001
1000
0000
0100
0010
0100
0010
0100
0010
0100
0010
,  // measure 19
0100
0001
0100
0001
0100
0000
0010
1000
0010
1000
0010
0000
1000
0100
1000
0100
,  // measure 20
1000
0100
1000
0100
1000
0100
1000
0100
1000
0100
1000
0100
1000
0100
1000
0100
,  // measure 21
0010
0001
0010
0001
0010
0000
0100
0010
0100
0010
0100
0000
1000
0010
1000
0010
,  // measure 22
1000
0000
0001
0100
0001
0100
0001
0000
1000
0100
0010
0001
0010
1000
0001
0100
,  // measure 23
0010
0100
1000
0001
0100
0000
1000
0001
0010
0100
1000
0000
1000
0100
0010
0001
,  // measure 24
0010
1000
0001
0100
0010
1000
0100
0010
0001
1000
0001
0100
0010
0100
0010
1000
,  // measure 25
0001
1000
0010
0100
0010
1000
0010
0100
,  // measure 26
0012
0000
0100
0003
0011
0000
0000
0000
,  // measure 27
0010
0100
0001
1000
0010
0100
0001
1000
,  // measure 28
1020
0000
0100
0030
1001
0000
0000
0000
,  // measure 29
0010
1000
0001
0100
0010
1000
0010
0100
,  // measure 30
2100
0000
0010
3000
0102
0000
0013
0000
,  // measure 31
0010
0100
0010
1000
0001
0100
0010
0001
,  // measure 32
0010
0100
1000
0100
0010
1000
0001
0100
,  // measure 33
0010
1000
0010
0100
0001
0000
0100
0000
1000
0000
0100
0000
0000
0000
0000
0000
,  // measure 34
0001
0000
0000
0000
0100
0000
0000
0000
0100
0000
0000
0000
1000
0000
0000
0000
0010
0000
1000
0000
0001
0000
0100
0000
0002
0000
0000
0000
0200
0000
0000
0303
,  // measure 35
1010
0110
0022
0000
,  // measure 36
0033
0110
1010
2200
,  // measure 37
0000
3300
0110
1001
,  // measure 38
2020
0000
3030
0110
,  // measure 39
1010
0220
0000
0330
,  // measure 40
1000
0000
0000
0001
0010
0000
0000
0010
0100
0000
0000
0100
1000
0000
0000
1000
,  // measure 41
0001
0000
0000
0010
0100
0000
0000
1000
0100
0000
0000
0001
0010
0000
0000
0100
,  // measure 42
1000
0000
0001
0000
0010
0000
0100
0000
1000
0000
0001
0000
,  // measure 43
0100
0000
1000
0000
0100
0000
0001
0000
0010
0000
1000
0000
,  // measure 44
0001
0000
0010
0000
0100
0000
1000
0000
0001
0000
0100
0000
,  // measure 45
0010
0000
1000
0000
0001
0000
0100
0000
1000
0000
0001
0000
,  // measure 46
2002
0000
0000
0000
,  // measure 47
0000
0000
0000
0000
,  // measure 48
0000
0000
0000
0000
,  // measure 49
0000
0000
0000
0000
,  // measure 50
0000
0000
0000
0000
,  // measure 51
0000
0000
0000
0000
,  // measure 52
0000
0000
0000
0000
,  // measure 53
0000
0000
0000
3003
,  // measure 54
2002
0000
0000
3003
2200
0000
0000
3300
0022
0000
0000
0033
2002
0000
0000
3003
,  // measure 55
1000
0000
0000
0000
0010
0000
0000
0000
0001
0000
0000
0000
,  // measure 56
1000
0000
0000
0000
0010
0000
0000
0000
1000
0000
0000
0000
,  // measure 57
0010
0000
0000
0000
0001
0000
0000
0000
0100
0000
0000
0000
,  // measure 58
1000
0000
0000
0000
0001
0000
0000
0000
0100
0000
0000
0000
,  // measure 59
1000
0000
0000
0000
,  // measure 60
0000
0000
0010
0000
0010
0100
0010
0000
,  // measure 61
0010
0000
0010
1000
0010
0000
0001
0000
,  // measure 62
0001
0100
0001
0000
0010
0100
0010
0000
,  // measure 63
1000
0100
1000
0100
0001
0010
0001
0010
,  // measure 64
0100
1000
0001
0000
0010
0100
0010
0000
,  // measure 65
1000
0000
0010
0100
0010
0000
1000
0000
,  // measure 66
0100
0000
0001
0000
1000
0100
1000
0100
,  // measure 67
0010
0100
0010
0001
0010
0001
0100
0001
,  // measure 68
1000
0010
1000
0000
0001
0000
0010
0000
,  // measure 69
0100
1000
0010
1000
,  // measure 70
0001
0100
1000
0010
,  // measure 71
0100
0001
0010
0100
,  // measure 72
1000
0000
0010
0000
0010
0100
0010
0000
,  // measure 73
1000
0001
1000
0000
1000
0001
1000
0000
,  // measure 74
0100
0010
0100
0010
0100
1000
0100
0001
,  // measure 75
0010
0001
0010
0100
0001
0100
1000
0010
,  // measure 76
1000
0001
1000
0000
1000
0001
1000
0000
,  // measure 77
1000
0000
1000
0100
1000
0000
0010
0000
,  // measure 78
0010
0001
0010
0000
1000
0001
1000
0000
,  // measure 79
0100
0001
0100
0001
0010
1000
0010
1000
,  // measure 80
0001
0100
0010
0000
1000
0001
1000
0000
,  // measure 81
0100
0000
1000
0001
1000
0000
0100
0000
,  // measure 82
0001
0010
0001
0000
0100
0001
0100
0000
,  // measure 83
1000
0001
1000
0001
1000
0010
0001
0010
,  // measure 84
0100
1000
0100
0000
0011
0000
1010
0000
,  // measure 85
0011
1100
1001
0110
,  // measure 86
1010
0011
1100
1010
,  // measure 87
0101
1010
1001
0011
,  // measure 88
0110
0000
1000
0000
1000
0001
1000
0000
,  // measure 89
0100
0010
0100
0000
0100
0010
0100
0000
,  // measure 90
0001
1000
0001
1000
0001
0100
0001
0010
,  // measure 91
1000
0010
1000
0001
0010
0001
0100
1000
,  // measure 92
0100
0010
0001
0010
0100
1000
1010
0010
,  // measure 93
0100
1010
1001
0010
0100
1000
1100
0010
,  // measure 94
0011
0110
1001
0010
0100
1000
0011
0100
,  // measure 95
1000
0110
0110
0010
1000
0100
0001
0010
,  // measure 96
0100
1000
0100
0010
0001
0010
0100
1000
,  // measure 97
0100
0010
0001
0010
0100
1000
0100
0010
,  // measure 98
0100
0010
0100
0000
0000
1000
0100
0010
,  // measure 99
0001
0000
0001
0010
0001
0000
1000
0100
,  // measure 100
1000
0100
0010
0000
1000
0100
1000
0001
,  // measure 101
0010
0000
1000
0100
0010
0001
0010
0000
,  // measure 102
1000
0100
1000
0000
0001
0000
0001
0100
,  // measure 103
0001
0000
1000
0000
0001
1000
0100
0000
,  // measure 104
0010
0001
0010
0000
1000
0100
1000
0010
,  // measure 105
0001
1000
0001
0010
0100
0010
0100
0000
,  // measure 106
1000
0010
0001
0100
,  // measure 107
1000
0001
0010
1000
,  // measure 108
0100
0010
0001
0100
,  // measure 109
1000
0010
0100
1000
,  // measure 110
0001
0100
0001
0000
0010
1000
0010
0000
,  // measure 111
1000
0000
0000
0100
0000
0000
1000
0000
0000
0000
0000
0000
0001
0000
0000
0010
0000
0000
0001
0000
0000
0000
0010
0000
,  // measure 112
0000
1000
0000
0001
0000
0100
0000
1000
0000
0001
0000
0010
,  // measure 113
0000
0000
1000
0000
0000
0000
0001
0000
0000
0000
0100
0000
0000
0000
1000
0000
0000
0000
0001
0000
0000
2002
0000
0000
,  // measure 114
0000
0000
0000
0000
,  // measure 115
0000
0000
0000
0000
,  // measure 116
0000
0000
0000
0000
,  // measure 117
0000
0000
0000
0000
,  // measure 118
3003
0000
0000
0000
;

//---------------dance-single - ----------------
#NOTES:
     dance-single:
     :
     Hard:
     9:
     0.660,0.911,0.381,0.035,0.065:
0001
1000
0010
0100
1000
0100
0010
1000
,
0010
0100
0001
1000
,
0001
0100
0010
1000
0010
0100
0001
1000
,
0010
0100
1000
0010
,
0001
0010
1000
0010
0100
0001
1000
0100
,
1000
0100
0010
0001
,
0001
1000
0010
0100
1000
0100
0010
1000
,
0001
0100
0010
0001
0010
0100
0010
1000
,
0000
0010
1000
0010
0100
0001
0100
0010
,
0100
0000
0110
0000
,
1000
0001
0100
0010
1000
0001
0100
1000
,
0100
0000
0011
0000
,
0001
0100
0010
1000
0010
0100
0010
0100
,
0001
0010
0100
1000
0100
1000
0010
0100
,
0010
1000
0010
0100
0010
1000
0010
0100
,
0001
1000
0010
1000
0010
0100
0010
0000
,
0001
1000
0010
1000
0001
0100
0010
1000
,
0010
1000
0010
1000
0010
0100
0001
0100
,
0010
0001
0010
0001
0010
0100
1000
0100
,
0010
1000
0010
1000
0010
1000
0010
1000
,
0010
0100
0001
0100
1000
0001
0100
1000
,
0100
0010
0001
0010
0100
0010
1000
0001
,
0100
1000
0100
0010
0100
0010
0001
0010
,
0001
0010
0100
0001
1000
0010
0100
0010
,
1001
0010
0100
1000
0010
0100
1000
1000
,
1010
0001
0011
0100
,
0001
1000
0010
0100
0010
1000
0010
0100
,
0101
0010
1010
0010
,
0010
0100
0010
0000
0010
1000
0010
0000
,
0001
0100
0010
0000
1000
0100
0010
0000
,
0001
1000
0010
1000
0010
0100
0001
0100
,
1000
0100
0010
0001
0010
0100
0010
1000
,
0001
0000
0010
0100
0010
0000
1000
0000
0001
0000
0000
0000
0000
0000
0000
0000
,
1000
0100
0010
0001
0010
0100
1000
0000
,
1100
0011
0110
0000
,
0000
1010
0101
1100
,
0000
0000
1010
0101
,
1001
0000
0000
1100
,
0011
0110
0000
0000
,
1010
0101
1100
0011
,
0110
1100
0011
0110
,
1100
0000
0000
0000
0100
0000
1000
0000
0000
0000
0000
0000
,
0011
0000
0000
0000
0010
0000
0100
0000
0000
0000
0000
0000
,
0001
0000
0000
0000
1000
0000
0000
0000
0010
0000
0000
0000
,
0100
0000
0000
0000
0001
0000
0000
0000
0010
0000
0000
0000
,
2002
0000
0000
0000
,
0000
0000
0000
0000
,
0000
0000
0000
0000
,
0000
0000
0000
0000
,
0000
0000
0000
0000
,
0000
0000
0000
0000
,
0000
0000
0000
3003
,
0000
0000
0000
0000
,
1000
0001
1000
0001
,
1000
0000
0000
0000
,
0001
0000
0000
0000
,
0100
0000
0000
0000
,
0010
0000
0000
0000
,
1001
0000
0000
0000
,
0000
0010
1000
0010
,
1000
0010
0100
0010
,
0100
0001
0100
0010
,
1000
0100
1000
0010
,
0100
0010
1000
0001
,
0100
1000
0100
0010
,
0001
0010
0100
0010
,
1000
0010
1000
0010
,
0100
0001
0100
0001
,
0100
0010
0001
0010
,
0001
0100
1000
0100
,
1000
0010
0100
0010
,
0100
0010
1000
0010
,
0100
0001
0100
0010
,
1000
0001
1000
0001
,
1000
0001
1000
0001
,
1000
0010
1000
0010
,
1000
0001
0100
0001
,
0100
0010
0001
0010
,
0100
1000
0100
0010
,
1000
0010
0100
0001
,
1000
0010
1000
0010
,
1000
0001
0100
0010
,
0001
0010
0100
1000
,
0100
0010
1000
0010
,
0100
0001
0100
0001
,
0100
0010
0001
0010
,
0100
1000
0100
1000
,
0100
1000
0000
0100
,
0000
0010
0000
0001
,
0000
0001
1000
0001
,
1000
0010
0100
0010
,
1000
1010
0000
0110
,
0010
0001
0011
0000
0000
0000
1100
0000
,
0010
0110
0110
0000
0000
0000
1001
0000
,
0010
0100
1100
0000
0011
0000
1000
0000
,
0100
0010
0100
0010
,
0100
0000
0001
0000
0001
1000
0001
0000
,
0010
0100
1000
0100
,
1000
0100
1000
0010
,
0100
0010
0100
0010
,
0100
0010
0100
0001
,
0100
0001
0010
0001
,
0010
0100
0010
0110
,
0000
1010
0000
0110
,
0000
0011
0000
1000
,
0100
1000
0010
0100
,
0010
0100
0010
0001
,
0010
0001
0010
0100
,
0001
0100
0001
1000
,
0000
0010
0100
0000
0000
0100
1000
0000
,
0000
0000
0000
0010
0000
0000
0001
0000
0000
0000
0000
0000
0000
0000
0000
0010
0000
0000
0100
0000
0000
0000
0001
0000
,
0000
1000
0000
0100
0000
0010
0000
0001
0000
0100
0000
1000
,
0000
0000
0001
0000
0000
0000
0010
0000
0000
0000
0100
0000
0000
0000
0001
0000
0000
0000
2000
0000
0000
0002
0000
0000
,
0000
0000
0000
0000
,
0000
0000
0000
0000
,
0000
0000
0000
0000
,
0000
0000
0000
0000
,
3003
0000
0000
0000
;

//---------------dance-single - ----------------
#NOTES:
     dance-single:
     :
     Medium:
     7:
     0.512,0.709,0.658,0.138,0.000:
1001
0010
0100
1000
,
1100
0010
1000
0010
,
0101
0010
1000
0001
,
0011
0001
0100
1000
,
1010
0010
0100
1000
,
1001
0010
0100
1000
,
1100
0010
0100
0001
,
0202
0000
0000
0303
,
0000
0010
0100
0010
0100
0010
0100
0010
,
0100
0000
0110
0000
,
0000
1000
0001
1000
0001
1000
0001
1000
,
0001
0000
1001
0000
,
0010
1000
0010
0000
0001
0100
0001
0000
,
0010
0001
0100
1000
,
0010
1000
0010
0000
0001
0100
0010
0000
,
2002
0000
0000
3003
,
0010
0100
0000
1000
0100
0000
0010
0001
,
0000
0010
0100
0000
0001
1000
0001
0000
,
0010
1000
0000
0010
0100
0000
0001
0010
,
0000
0010
0100
0000
1000
0100
0010
0000
,
0001
1000
0000
0010
0100
0000
1000
0100
,
0000
0010
0001
0000
0001
0100
0001
0000
,
0010
1000
0000
0100
1000
0000
0100
1000
,
0000
0010
0100
0010
0100
0010
0100
0010
,
1000
0000
0100
0000
0010
0000
0001
0100
,
0010
0000
0110
0000
,
1000
0000
0001
0000
0100
0000
1000
0100
,
0010
0000
0101
0000
,
0001
0000
1000
0100
0010
0000
0001
0100
,
0010
0000
1000
0100
0010
0000
0001
1000
,
0001
0010
0100
1000
,
1000
0100
0010
0001
0010
0100
0010
1000
,
2002
0000
3003
0000
,
0001
0010
0100
1000
,
1100
1100
1100
0000
,
0000
0101
0101
0101
,
0000
0000
0011
0011
,
0011
0000
0000
1010
,
1010
1010
0000
0000
,
0110
1010
0011
1100
,
0110
0011
0110
1010
,
1010
0000
0101
0000
,
1100
0000
0011
0000
,
1010
0000
0101
0000
,
1100
0000
0011
0000
,
2002
0000
0000
0000
,
0000
0000
0000
0000
,
0000
0000
0000
0000
,
0000
0000
0000
0000
,
0000
0000
0000
0000
,
0000
0000
0000
0000
,
0000
0000
0000
0000
,
0000
0000
0000
0000
,
0000
0000
0000
0000
,
0000
0000
0000
0000
,
0000
0000
0000
0000
,
0000
0000
0000
0000
,
0000
0000
0000
0000
,
3003
0000
0000
0000
,
0000
1000
0000
0100
,
1000
0000
0010
0100
,
0000
0001
0000
1000
,
0100
0000
0010
0001
,
0010
0100
0000
1000
,
0100
0000
0010
0100
,
0000
0001
0000
1000
,
0000
0100
1000
0100
,
0000
0010
0000
0100
,
0000
1000
0000
0010
,
0000
1001
0000
1000
,
0000
0000
0000
0100
,
0000
0011
0000
0001
,
0000
0101
0000
0010
,
0000
0010
1000
0010
,
0100
0010
0100
0001
,
0100
0110
0000
0010
,
0000
1000
0000
0100
,
0000
1100
0000
0010
,
0000
1000
0100
0010
,
0001
0110
0000
0010
,
0000
0110
0000
1000
,
0000
0010
1000
0010
,
0000
0001
0100
0001
,
0000
1001
0000
1010
,
0000
0011
0000
1100
,
0000
0110
0000
1100
,
0000
0011
0000
0110
,
0000
1100
0000
0011
,
0000
0110
0000
0110
,
0000
1000
0100
0010
,
0100
0001
1000
0010
,
0100
2002
3003
0010
,
0000
1000
0000
0001
,
0000
0010
0000
1000
,
0100
0010
0001
2000
,
0000
3200
0000
0320
,
0000
0032
0000
1003
,
0000
0100
0000
0010
,
0100
0000
0010
0100
,
0000
1000
0100
0000
,
0010
0100
0001
1000
,
0000
0100
1000
0000
,
0010
0100
0010
1000
,
0100
0010
0001
0010
,
0100
0010
1000
1001
,
0000
1010
0000
0011
,
0000
1100
0000
0110
,
0000
1100
0000
0011
,
0000
0110
0000
1010
,
0000
0110
0000
0011
,
0000
1100
0000
1000
,
0100
0010
0100
0010
,
1000
0000
0001
0000
0100
0000
0001
2002
,
0000
0000
0000
0000
,
0000
0000
0000
0000
,
0000
0000
0000
0000
,
0000
0000
0000
0000
,
3003
0000
0000
0000
;

//---------------dance-single - ----------------
#NOTES:
     dance-single:
     :
     Easy:
     6:
     0.375,0.782,0.234,0.156,0.000:
1001
0010
0100
1000
,
0100
0010
0001
0100
,
0001
0100
1000
0001
,
0100
1000
0010
0100
,
1100
0010
0100
1000
,
0001
0010
0100
1000
,
0001
0100
1000
0010
,
0100
1000
0010
0100
,
0001
1000
0100
0010
,
1000
0000
0100
0000
,
0010
1000
0001
0100
,
1000
0000
0010
0000
,
0101
0010
0100
1000
,
1000
0100
0010
0001
,
0100
0001
1000
0100
,
0010
1000
0100
0010
,
0001
0001
0010
0010
,
0100
0100
2000
3100
,
0020
1030
0200
0310
,
0001
0010
0200
1300
,
0020
0130
0002
0013
,
0200
1300
0010
1000
,
0200
1300
0020
0031
,
0002
0103
0020
1030
,
1000
0100
0010
0001
,
0020
0000
0031
0000
,
0001
0100
1000
0010
,
0200
0000
1300
0000
,
0110
0010
0100
1000
,
1100
0010
0100
0010
,
0101
0010
0011
0100
,
1100
0110
0011
0110
,
2002
0000
0000
0000
0000
3003
0000
0000
,
1000
0000
0000
0000
,
0001
0001
0001
0000
,
0000
1000
1000
1000
,
0000
0000
0100
0100
,
0100
0000
0000
0010
,
0010
0010
0000
0000
,
1000
1000
1000
1000
,
0001
0001
0001
0001
,
0010
0000
0010
0000
,
0010
0000
0010
0000
,
0100
0000
0100
0000
,
0100
0000
0100
0000
,
2002
0000
0000
0000
,
0000
0000
0000
0000
,
0000
0000
0000
0000
,
0000
0000
0000
0000
,
0000
0000
0000
0000
,
0000
0000
0000
0000
,
0000
0000
0000
0000
,
0000
0000
0000
0000
,
3003
0000
0000
0000
,
0000
0000
0000
0000
,
0000
0000
0000
0000
,
0000
0000
0000
0000
,
0000
0000
0000
0000
,
0000
0000
0000
0000
,
0000
0001
0000
0010
,
0000
0100
0000
1000
,
0000
0100
0000
0010
,
0000
0100
0000
1000
,
0000
0001
0000
0100
,
0000
1000
0000
0100
,
0000
0010
0000
0001
,
0000
0010
0000
0100
,
0000
1000
0000
1000
,
0000
0100
0000
0100
,
0000
0010
0000
0010
,
0000
0001
0000
0001
,
0000
1001
0000
0110
,
0000
1001
0000
0110
,
0000
1000
0000
0100
,
0000
0010
0000
0100
,
0000
0101
0000
0001
,
0000
0100
0000
1000
,
0000
0010
0000
0100
,
0000
1000
0000
0100
,
0000
0010
0000
0001
,
0000
0100
0000
1000
,
0000
0010
0000
0100
,
0000
1000
0000
0100
,
0000
1000
0000
1000
,
0000
0001
0000
0001
,
0000
0010
0000
0010
,
0000
0100
0000
0100
,
0000
1100
0000
0011
,
0000
0110
0000
1010
,
0000
0001
0000
0100
,
0000
1000
0000
0010
,
0000
1001
0000
0010
,
0000
1000
0000
0100
,
0000
0010
0000
0001
,
0000
1000
0000
0200
,
0000
0000
0000
0000
,
0000
0000
0000
0310
,
0000
0000
0000
0010
,
0000
0000
0000
0010
,
0000
0010
0000
0010
,
0000
0010
0000
0100
,
0000
1000
0000
0100
,
0000
0010
0000
0001
,
0000
0100
0000
1000
,
0000
0010
0000
1000
,
0000
0100
0000
0010
,
0000
0001
0000
0100
,
0000
1000
0000
0010
,
0000
0100
0000
1010
,
0000
0110
0000
0011
,
0000
0100
0000
1000
,
0100
0010
0001
0010
,
0100
0000
0010
0000
1000
0000
0000
1001
;
