#TITLE:Alien World;
#SUBTITLE:;
#ARTIST:Pink Pong;
#TITLETRANSLIT:;
#SUBTITLETRANSLIT:;
#ARTISTTRANSLIT:;
#CREDIT:;
#BANNER:bn.bmp;
#BACKGROUND:BG.bmp;
#LYRICSPATH:;
#CDTITLE:Beatmania IIDX.png;
#MUSIC:ALIEN WORLD.mp3;
#OFFSET:0.000;
#SAMPLESTART:27.700;
#SAMPLELENGTH:12.000;
#SELECTABLE:YES;
#BPMS:0.000=145.000;
#STOPS:191.000=1.241
;
#BGCHANGES:;

//---------------dance-single - ----------------
#NOTES:
     dance-single:
     :
     Hard:
     8:
     0.483,0.669,0.077,0.094,0.338: // measure 1
0000
0000
0000
0000
,  // measure 2
0000
0000
0000
0000
,  // measure 3
0000
0000
0000
0000
,  // measure 4
0000
0000
0000
0000
,  // measure 5
0000
0000
0000
0000
,  // measure 6
0000
0000
0000
0000
,  // measure 7
0000
0000
0000
0000
,  // measure 8
0000
0000
0000
1001
,  // measure 9
0000
0000
0010
1000
0010
0000
0000
0000
0000
0000
0000
0000
1000
0000
0100
0000
,  // measure 10
1000
0000
0001
0100
0001
0000
0010
0001
,  // measure 11
0010
0000
0010
1000
0010
0000
0100
1000
,  // measure 12
0100
0000
0010
0001
0010
0000
0010
0100
,  // measure 13
1001
0000
0010
0100
0010
0000
1000
0100
,  // measure 14
0010
0000
0001
0010
0100
0000
1000
0100
,  // measure 15
0010
0000
0001
0010
0100
0000
1000
0100
,  // measure 16
0010
0001
0010
0100
0010
0100
0101
0000
,  // measure 17
0000
0000
0010
1000
0010
0000
0000
0000
0000
0000
0000
0000
1000
0000
0000
0100
,  // measure 18
0000
0000
0010
0000
0001
0000
0000
0010
0000
0000
0001
0000
0010
0000
0000
0100
,  // measure 19
0000
0000
1000
0000
0100
0000
0000
1000
0000
0000
0100
0000
0001
0000
0000
1000
,  // measure 20
0000
0000
0001
0000
1000
0000
0000
0010
0000
0000
1000
0000
0100
0000
0000
1000
,  // measure 21
0000
0000
1000
0100
1000
0000
0000
0100
0000
0000
1000
0000
0100
0000
0000
0010
,  // measure 22
0000
0000
0001
0000
0010
0000
0000
0001
0000
0000
0010
0000
0100
0000
0000
1000
,  // measure 23
0000
0000
0100
0000
0001
0000
0000
1000
0000
0000
0001
0000
0100
0000
0000
1000
,  // measure 24
0000
0000
0100
0000
1000
0000
0000
0100
0000
0000
0010
0000
0001
0000
0000
0010
,  // measure 25
0000
0000
0010
0100
0010
0000
0000
0100
0000
0000
1000
0000
1100
0000
0000
0010
,  // measure 26
0000
0000
0100
0000
0001
0000
0000
1000
0000
0000
0100
0000
0010
0000
0000
0001
,  // measure 27
0000
0000
0100
0000
1000
0000
0000
0001
0000
0000
1000
0000
0001
0000
0000
1000
,  // measure 28
0000
0000
0100
0000
0010
0000
0000
0001
0000
0000
0100
0000
1000
0000
0000
0100
,  // measure 29
0000
0000
0010
1000
0010
0000
0000
0100
0000
0000
1000
0000
0100
0000
0000
0010
,  // measure 30
0000
0000
0001
0000
0100
0000
0000
1000
0000
0000
0001
0000
1000
0000
0000
0001
,  // measure 31
0000
0000
1000
0000
0010
0000
0000
1000
0000
0000
0001
0000
0100
0000
0000
1000
,  // measure 32
0000
0000
0100
0000
0010
0000
0000
0001
0000
0000
0010
0000
0110
0000
0000
0000
,  // measure 33
0000
0000
0010
0100
0010
0000
0000
0000
0010
0000
0000
0000
1000
0000
0000
0100
,  // measure 34
0000
0000
0010
0000
0001
0000
0010
0000
0001
0000
0010
0000
0001
0000
0000
0010
,  // measure 35
0000
0000
0100
0000
1000
0000
0100
0000
1000
0000
0100
0000
1000
0000
0000
0100
,  // measure 36
0000
0000
0010
0000
0001
0000
0010
0000
0001
0000
0010
0000
0001
0000
0000
0100
,  // measure 37
0000
0000
0001
0000
0010
0000
1000
0000
0010
0000
1000
0000
0010
0000
0000
0100
,  // measure 38
0000
1000
0100
0010
0001
0011
0000
0100
,  // measure 39
1100
0000
0010
0100
0010
0110
0000
1000
,  // measure 40
1100
0000
0010
0001
0010
0200
0002
0000
,  // measure 41
0000
0000
0000
0000
0303
0000
1000
0100
,  // measure 42
1000
0100
0010
0001
0010
0001
0100
0001
,  // measure 43
0100
0001
0010
1000
0010
1000
0010
0100
,  // measure 44
0010
0100
0001
1000
0001
1000
0010
0100
,  // measure 45
0001
1000
0010
0100
0001
1000
0010
1000
,  // measure 46
0100
0010
0001
0100
0001
0010
1000
0010
,  // measure 47
1000
0100
0010
1000
0100
0010
0001
1000
,  // measure 48
0001
0010
0100
0001
1000
0001
1000
0000
,  // measure 49
0001
0000
0000
0010
0000
0000
0100
0000
1000
0000
0000
0100
0000
0000
1000
0000
,  // measure 50
0100
0000
0000
0010
0000
0000
0001
0000
0100
0000
0000
1000
0000
0000
0100
0000
,  // measure 51
0010
0000
0000
0001
0000
0000
0100
0000
1000
0000
0000
0100
0000
0000
1000
0000
,  // measure 52
0100
0000
0000
0010
0000
0000
1000
0000
0010
0000
0000
0100
0000
0000
0001
0000
,  // measure 53
0100
0000
0000
1000
0000
0000
0100
0000
0010
0000
0000
0001
0000
0000
0100
0000
,  // measure 54
1000
0000
0000
0100
0000
0000
0010
0000
0100
0000
0000
1000
0000
0000
0010
0000
,  // measure 55
0100
0000
0000
0001
0000
0000
0100
0000
1000
0000
0000
0001
0000
0000
0100
0000
,  // measure 56
0010
0000
0000
1000
0000
0000
0100
0000
1000
0000
0000
0100
0000
0000
0010
0000
,  // measure 57
0002
0100
0100
0100
,  // measure 58
0010
0010
0010
0010
,  // measure 59
0023
0100
0100
0100
,  // measure 60
0230
0000
1000
0000
1000
0000
1300
0100
,  // measure 61
0020
0031
0200
1300
,  // measure 62
0020
1030
0002
0103
,  // measure 63
0020
1030
0200
0301
,  // measure 64
1000
0100
1000
0100
1000
0100
1000
0100
1000
0100
1000
0100
1000
0100
1000
0100
,  // measure 65
1000
0000
0100
0000
0000
0000
1000
0100
0000
0000
0010
0000
0000
0000
0100
1000
,  // measure 66
0000
0000
0010
0000
0000
0100
0000
1000
0000
0000
0010
0000
0000
0001
0000
0100
,  // measure 67
0000
0000
1000
0000
0000
0100
0000
1000
0000
0000
0010
0000
0000
0001
0000
0100
,  // measure 68
0000
0000
1000
0000
0000
0100
0000
0010
0000
0000
0001
0000
1000
0001
1000
0001
;

//---------------dance-single - ----------------
#NOTES:
     dance-single:
     :
     Medium:
     5:
     0.386,0.495,0.120,0.574,0.000:
0000
0000
0000
0000
,
0000
0000
0000
0000
,
0000
0000
0000
0000
,
0000
0000
0000
0000
,
0000
0000
0000
0000
,
0000
0000
0000
0000
,
0000
0000
0000
0000
,
0000
0000
0000
1010
,
0001
1000
0100
1000
,
1100
0010
0011
0100
,
0101
0010
1000
0001
,
2002
0000
0000
0000
,
3003
0000
0000
0000
0000
0000
0010
1000
,
0020
0000
1030
0001
0200
0000
0301
0000
,
1000
0000
0100
0000
0010
0000
0001
1000
,
0001
1000
0001
1000
0001
0000
1001
0000
,
0000
0000
0110
0000
0000
0000
1000
0200
,
0000
0300
1000
0000
0000
0001
2000
0000
,
3000
0100
0020
0000
0030
0001
2000
0000
,
3000
0010
0200
0000
0300
0001
2000
0000
,
3000
0100
0020
0000
0030
1000
0002
0000
,
0000
0103
2000
0000
0000
3010
0200
0000
,
0000
0310
2000
0000
0000
3001
0200
0000
,
0000
0310
2000
0000
0000
3001
0200
0000
,
0000
1300
0002
0000
0000
1003
0200
0000
,
0000
0310
0002
0000
0000
0103
2000
0000
,
0000
3010
0200
0000
0000
1300
0002
0000
,
0000
0013
0002
0000
0000
0103
2000
0000
,
0000
3010
0200
0000
0000
0310
2000
0000
,
0000
3001
0200
0000
0000
0310
2000
0000
,
0000
3100
2000
0000
0000
3010
0002
0000
,
0003
0100
0002
0000
0003
2000
0002
0000
,
0000
0000
3003
0020
,
0230
0000
1300
0100
0010
0001
0020
0000
,
0230
0000
0310
1000
0010
1000
0020
0000
,
0230
0000
0301
0100
0001
0100
0002
0000
,
0013
0000
0001
0010
0002
0000
0013
0000
,
0002
0000
1003
0100
0010
0000
0000
0000
,
1001
0000
0000
0110
,
0000
0110
0000
0000
0010
0000
1100
0000
,
0000
0000
0011
0000
0000
0000
1000
0001
,
2000
0000
0100
0000
3010
0000
0001
0100
,
0002
0010
0100
0023
,
2030
0000
0002
3000
0203
0000
2300
0000
,
3020
0000
0130
1000
0100
0010
0002
0000
,
0013
0000
0200
0000
1300
0000
0010
1000
,
0002
0000
0103
1000
0020
0000
1030
0000
,
0100
0000
0001
1000
0010
0100
1000
0000
,
0001
0000
0000
1000
0000
0000
0000
0000
,
0100
0000
0000
0100
0000
0000
0000
0000
,
0010
0000
0001
0000
,
1000
0000
0001
0000
,
1100
0000
0000
0000
0020
0000
0000
0030
,
0200
0000
0000
0000
2300
0000
0000
3000
,
0002
0000
0100
1000
,
2000
0000
0000
3003
,
0000
0010
0100
0000
0000
0000
0000
0000
,
1000
0100
0020
0000
0130
0000
0001
0000
,
1002
0103
0010
1000
,
0000
1000
0100
0010
0000
0010
0100
0010
,
0000
1000
0001
0000
0000
0100
1000
0100
,
0000
0010
0100
0001
0000
1000
0100
0010
,
0001
0010
0100
1000
0100
0010
0100
0002
,
2000
0000
0000
0000
0000
0000
0000
3003
,
0010
1000
0001
0100
,
1000
0010
0100
0001
,
0010
1000
0100
0010
,
1000
0000
0001
0000
0100
0000
2000
0002
,
0000
3003
0000
0000
0000
0000
0000
0000
0000
0000
0000
0000
0000
0000
0000
0000
0000
0000
0000
0000
0000
0000
0000
0000
0000
0000
0000
0000
0000
0000
0000
0000
0000
0000
0000
0000
0000
0000
0000
0000
0000
0000
0000
0000
0000
0000
0000
0000
0000
0000
0000
0000
0000
0000
0000
0000
0000
0000
0000
0000
0000
0000
0000
0000
0000
0000
0000
0000
0000
0000
0000
0000
0000
0000
0000
0000
0000
0000
0000
0000
0000
0000
0000
0000
0000
0000
0000
0000
0000
0000
0000
0000
0000
0000
0000
0000
0000
0000
0000
0000
0000
0000
0000
0000
0000
0000
0000
0000
0000
0000
0000
0000
0000
0000
0000
0000
0000
0000
0000
0000
0000
0000
0000
0000
0000
0000
0000
0000
0000
0000
0000
0000
0000
0000
0000
0000
0000
0000
0000
0000
0000
0000
0000
0000
0000
0000
0000
0000
0000
0000
0000
0000
0000
0000
0000
0000
0000
0000
0000
0000
0000
0000
0000
0000
0000
0000
0000
0000
0000
0000
0000
0000
0000
0000
0000
0000
0000
0000
0000
0000
0000
0000
0000
0000
0000
0000
0000
0000
0000
0000
0000
0000
;

//---------------dance-single - ----------------
#NOTES:
     dance-single:
     :
     Easy:
     3:
     0.223,0.320,0.068,0.146,0.000:
0000
0000
0000
0000
,
0000
0000
0000
0000
,
0000
0000
0000
0000
,
0000
0000
0000
0000
,
0000
0000
0000
0000
,
0000
0000
0000
0000
,
0000
0000
0000
0000
,
0000
0000
0000
1010
,
0000
0010
0000
0000
,
1000
0000
0001
0000
,
0100
0000
0010
1000
,
0002
0000
0000
1000
,
1003
0000
0000
0010
,
0100
0000
1000
0000
,
0010
0000
0001
0000
,
1000
0020
0000
0230
,
0000
1300
0000
0010
,
0000
0010
0000
0010
,
0000
0010
0000
0100
,
0000
0100
0000
0100
,
0000
0100
0000
1000
,
0000
1000
0000
1000
,
0000
1000
0000
0001
,
0000
0001
0000
0001
,
0000
0001
0000
1010
,
0000
1000
0000
0100
,
0000
0010
0000
0001
,
0000
1000
0000
0100
,
0000
0010
0000
0100
,
0000
1000
0000
0001
,
0000
0100
0000
0010
,
0000
1000
0000
2002
,
0000
0000
3003
0010
,
0100
2000
3010
0100
,
0001
0002
0103
0010
,
1000
0020
0130
1000
,
0001
0200
1300
0010
,
0100
1000
0010
1001
,
0010
0100
1000
0100
,
0011
0001
0100
0010
,
2002
0000
3003
1000
,
1000
1000
1000
0100
,
0100
0100
0100
0010
,
0010
0010
0010
0001
,
0001
0001
0001
1000
,
0100
0010
0001
1000
,
0100
0010
0001
0010
,
0100
1000
0001
1001
,
0010
0000
0010
0000
,
0010
0000
0010
0000
,
0100
0000
1000
0000
,
0001
0000
0001
0000
,
1000
0100
0000
0010
,
0000
0001
0000
0001
,
0000
1000
0000
0010
,
0200
0000
1300
0010
,
0001
0001
0000
0100
,
0000
1000
0000
0010
,
2000
0000
0000
0000
,
0020
0000
0000
3030
,
0000
0001
0000
0100
,
0000
1000
0000
0010
,
0000
0100
0000
1000
,
2002
0000
0000
3003
,
0010
1000
0001
0100
,
1000
0010
0001
0100
,
1000
0010
0001
1000
,
0100
0010
1000
0002
,
0003
0000
0000
0000
;

//---------------dance-single - ----------------
#NOTES:
     dance-single:
     :
     Beginner:
     1:
     0.046,0.087,0.017,0.000,0.000:
0000
0000
0000
0000
,
0000
0000
0000
0000
,
0000
0000
0000
0000
,
0000
0000
0000
0000
,
0000
0000
0000
0000
,
0000
0000
0000
0000
,
0000
0000
0000
0000
,
0000
0000
0000
0010
,
0000
0000
0000
1000
,
0000
0000
0000
0000
,
0000
0000
0000
0001
,
0000
0000
0000
0000
,
1001
0000
0000
0000
,
0000
0000
0000
0000
,
0000
0000
0000
0010
,
0000
0000
0000
0100
,
0000
0000
0000
1000
,
0000
0000
0000
0000
,
0000
0000
0000
0001
,
0000
0000
0000
0000
,
0000
0000
0000
0010
,
0000
0000
0000
0000
,
0000
0000
0000
0100
,
0000
0000
0000
0000
,
0000
0000
0000
1001
,
0000
0000
0000
0000
,
0000
0000
0000
0010
,
0000
0000
0000
0000
,
0000
0000
0000
1000
,
0000
0000
0000
0000
,
0000
0000
0000
0001
,
0000
0000
0000
0010
,
0000
0000
0000
0100
,
0000
0000
0000
0000
,
0000
0000
0000
0010
,
0000
0000
0000
0000
,
0000
0000
0000
0001
,
0000
0000
0000
0000
,
0000
0000
0000
1000
,
0000
0000
0000
0000
,
0000
0000
0000
0001
,
0000
0000
0000
0000
,
0000
0000
0000
0100
,
0000
0000
0000
0000
,
0000
0000
0000
1000
,
0000
0000
0000
0000
,
0000
0000
0000
0010
,
0000
0000
0000
0000
,
0001
0000
0000
0000
,
0000
0000
0000
0000
,
0000
0000
0000
0000
,
0000
0000
0000
0000
,
0010
0000
0000
0000
,
0000
0000
0000
0000
,
0100
0000
0000
0000
,
0000
0000
0000
0000
,
1000
0000
0000
0000
,
0001
0000
0000
0000
,
1000
0000
0000
0000
,
0001
0000
0000
0000
,
0010
0000
0000
0000
,
0100
0000
0000
0000
,
0010
0000
0000
0000
,
0100
0000
0000
0000
,
0001
0000
0000
0000
,
0000
0000
0000
0000
,
0000
0000
0000
0000
,
0000
0000
0000
1000
;
