#TITLE:Air Bell;
#SUBTITLE:;
#ARTIST:D-crew;
#TITLETRANSLIT:;
#SUBTITLETRANSLIT:;
#ARTISTTRANSLIT:;
#CREDIT:;
#BANNER:bn.PNG;
#BACKGROUND:bg.PNG;
#LYRICSPATH:;
#CDTITLE:14 Gold.png;
#MUSIC:Air Bell.mp3;
#OFFSET:-5.720;
#SAMPLESTART:56.228;
#SAMPLELENGTH:15.000;
#SELECTABLE:YES;
#BPMS:0.000=171.000;
#STOPS:;
#BGCHANGES:;

//---------------dance-single - ----------------
#NOTES:
     dance-single:
     :
     Hard:
     6:
     0.394,0.590,0.073,0.676,0.009:
0002
0000
0000
0000
,
2003
0000
0000
0000
,
3200
0000
2300
0000
,
3010
1000
0001
0100
0001
1000
0001
0100
,
0002
0000
0000
0000
0000
1000
0000
0000
,
1000
0000
0000
1000
0000
1003
0000
0000
,
2000
0000
0000
0000
0000
0001
0000
0000
,
0001
0000
0000
0001
0000
3001
0000
0000
,
0020
0000
0000
0000
0000
0100
0000
0000
,
0100
0000
0000
0100
0000
0130
0000
0000
,
0200
0310
2000
3001
,
0200
0301
0020
1030
,
0000
0000
2000
0000
0000
0100
0000
0100
,
0000
0100
0000
0200
0000
0000
3300
0000
,
0000
0000
0002
0000
0000
0010
0000
0010
,
0000
0100
0100
0103
,
0000
0000
0020
0000
0000
0100
0000
0100
,
0000
0100
0000
0200
0000
0000
0330
0000
,
0000
0000
2000
0000
0000
0001
0000
0001
,
0000
0001
0001
3001
,
0000
0000
0200
0000
0000
0010
0000
0001
,
0000
0010
0000
0301
0000
0000
0000
0000
,
0000
0000
1000
1000
1000
2000
0000
0001
,
0000
0001
0001
3001
,
0000
0000
0200
0000
0000
1000
0000
0010
,
0000
0001
0000
0020
0000
0000
0000
0330
,
0000
0000
0002
0000
0103
0002
0000
0100
,
0000
0100
0100
0103
,
2000
3100
0020
0031
,
0200
0310
2000
3100
,
0020
0031
0200
0310
,
1001
0000
0110
0000
,
0002
0103
2000
3100
,
0020
0000
1030
0000
0002
0000
0103
0001
,
0200
0301
0100
0010
,
0001
2000
0000
0100
0000
0000
3010
0000
,
0002
1003
2000
3001
,
0200
0310
2000
3100
,
0020
0031
0200
0301
,
0200
0000
0310
0000
1000
0000
0001
0100
,
0020
0130
2000
3001
,
0200
0000
1300
0000
0020
0000
0031
0100
,
0002
0103
0020
0130
,
2000
3100
0020
0031
,
1002
0103
2001
3100
,
0102
0103
2100
3100
,
0120
0130
0002
0103
,
0001
0000
1000
0000
,
2000
0000
0000
0000
,
3002
0000
0000
0000
0000
0000
0203
0020
,
0000
0000
0000
0000
,
0000
0000
0000
0330
,
2002
0000
0000
0000
,
0000
0000
0000
0000
,
0000
0000
0000
0000
,
3000
0000
0000
0000
0000
1000
0000
1000
,
2000
0000
0000
0000
,
0003
0000
0000
0000
,
0001
0000
0001
0000
,
3001
0000
0100
0000
0001
0000
1000
0000
0001
1000
0001
1000
0001
0000
1000
0000
,
0002
0000
0000
0000
0000
0100
0000
0000
,
0100
0000
0000
0010
0000
0013
0000
0000
,
0020
0000
0000
0000
0000
0001
0000
0000
,
0001
0000
0000
0001
0000
0031
0000
0000
,
2000
0000
0000
0000
0000
0100
0000
0000
,
0010
0000
0000
0100
0000
0100
0000
0000
,
3020
0130
0002
1003
,
0200
1300
0020
0031
,
0200
0001
0001
0301
,
0020
1000
1000
1030
,
2000
0100
0100
3100
,
0002
0010
0010
0013
;

//---------------dance-single - ----------------
#NOTES:
     dance-single:
     :
     Medium:
     4:
     0.294,0.362,0.073,0.511,0.000:
0002
0000
0000
0000
,
1003
0000
0000
0000
,
2000
0000
0100
0000
,
3100
0000
1000
0000
0100
0010
0000
0000
,
0011
0000
0000
0000
0000
0200
0000
0000
,
1300
0000
0000
0010
0000
0100
0000
0000
,
0020
0000
0000
0000
0000
0100
0000
0000
,
0130
0000
0000
0001
0000
1000
0000
0000
,
2000
0000
0000
0000
0000
0100
0000
0000
,
3010
0000
0000
0001
0000
0100
0000
0000
,
0110
0010
0110
0100
,
1001
1000
1001
0000
,
0000
0000
0002
0000
0000
0100
0000
0100
,
0000
0100
0000
0200
0000
0000
0000
0000
,
0303
0000
0020
0000
0000
1000
0000
1000
,
0000
1000
1000
1030
,
0000
0000
2000
0000
0000
0100
0000
0100
,
0000
0100
0000
0200
0000
0000
3300
0000
,
0000
0000
0020
0000
0000
0001
0000
0001
,
0000
0001
0001
0031
,
0000
0000
0002
0000
0000
0100
0000
0100
,
0000
0100
0000
0200
0000
0000
0000
0000
,
0303
0000
0001
1000
0001
1000
0000
0002
,
0000
1000
1000
1003
,
0000
0000
2000
0000
0000
0100
0000
0100
,
0000
0100
0000
0200
0000
0000
3300
0000
,
0000
0000
0010
0000
0200
0010
0000
0010
,
0000
0010
0010
0310
,
0002
0000
0003
0000
,
2000
3000
0002
0003
,
0200
0300
0020
0030
,
1001
0000
1001
0000
,
0002
0000
0000
0000
,
0003
0000
0000
0000
1000
0000
0200
2000
,
0000
0000
3300
0010
,
0200
0000
0000
0010
0000
0000
0310
0000
,
0002
0000
0000
0000
,
2003
0000
0000
0000
,
0200
0000
0000
0000
0000
0000
0000
0300
,
3000
0000
0002
0000
,
0203
0000
0000
0000
0000
0000
0000
0300
,
0020
0000
0000
0000
0000
0000
1000
2000
,
0000
0000
0000
0000
,
0000
0000
0000
3030
,
0002
0000
2003
0000
,
3002
0000
0203
0000
,
0320
0000
0000
0000
,
1000
0000
1000
0000
,
2030
0000
0000
0000
,
3002
0000
0000
0000
0000
0000
0203
0020
,
0000
0000
0000
0000
,
0000
0000
0000
0330
,
2002
0000
0000
0000
,
0000
0000
0000
3000
,
0000
0000
0000
0000
,
0000
0000
0000
0000
0000
1003
0000
2000
,
0200
0000
0000
0000
,
0300
0000
0000
0000
,
3100
0000
0010
0000
,
0001
0100
0001
0100
0010
1000
0010
2000
,
0002
0000
0000
3000
0000
0100
0000
0000
,
0103
0000
0000
0010
0000
0100
0000
0000
,
0020
0000
0000
0000
0000
0100
0000
0000
,
0130
0000
0000
1000
0000
1000
0000
0000
,
2000
0000
0000
0000
0000
0001
0000
0000
,
0001
0000
0000
0001
0000
3001
0000
0000
,
0002
0000
0203
0000
,
0320
0000
2030
0000
,
3001
0001
0100
0100
,
0010
0010
1000
1000
,
0001
0010
0100
1000
,
0100
0010
0002
2003
,
3001
0000
0000
0000
;

//---------------dance-single - ----------------
#NOTES:
     dance-single:
     :
     Easy:
     2:
     0.150,0.263,0.000,0.247,0.000:
1000
0000
0000
0000
,
1000
0000
0000
0000
,
0001
0000
1000
0000
,
0001
0100
0010
1000
,
0001
0000
0000
0000
,
1000
0000
0000
0000
,
0100
0000
0000
0000
,
0010
0000
0000
0000
,
0001
0000
0000
0000
,
1000
0000
0000
0000
,
0100
0000
0010
0000
,
1000
0000
0001
0000
,
0000
2000
0000
0000
,
0000
0000
3000
0000
,
0000
0002
0000
0000
,
0000
0000
0000
0003
,
0000
0200
0000
0000
,
0000
0000
0000
0300
,
0000
0020
0000
0000
,
0000
0000
0000
0030
,
0000
2000
0000
0000
,
0000
0000
0000
3000
,
0000
0001
0001
1000
,
0001
0100
0020
1030
,
0000
0002
0000
0000
,
0000
0000
0000
0003
,
0000
2000
0000
0000
,
0000
0000
0000
3000
,
0200
0000
0300
0000
,
0002
0003
2000
3000
,
0002
0003
0200
0300
,
0010
0000
0010
0000
,
0020
0000
0000
0000
,
0000
0030
0001
0000
,
2000
0000
0000
0000
,
0001
0000
0001
0000
,
3002
0000
0000
0000
,
2003
0000
0000
0000
,
0002
0000
0000
0000
,
3003
0000
0010
0000
,
0020
0000
0000
0000
,
0230
0000
0000
0000
,
0020
0000
0000
0000
,
0000
0000
0000
0330
,
0002
0000
1000
0000
,
1000
0000
1000
0000
,
1000
0000
0000
0000
,
1000
0000
1000
0000
,
2003
0000
0000
0000
,
3020
0000
0000
0000
,
0200
0000
0000
0000
,
0000
0000
0000
0330
,
0001
0000
0000
0000
,
0000
0000
0000
0000
,
0000
0000
0000
0000
,
0000
0000
0000
1000
,
1000
0000
0000
0000
,
0010
0000
0000
0000
,
0100
0000
0010
0000
,
0002
0000
2003
0000
,
3100
0000
0000
0000
,
0001
0000
0000
0000
,
0100
0000
0000
0000
,
0010
0000
0000
0000
,
1000
0000
0000
0000
,
0001
0000
0000
0000
,
1000
0000
0001
0000
,
0100
0000
0010
0000
,
1000
0000
0001
0000
,
1000
0000
0100
0000
,
0010
0000
0001
0000
,
0100
0000
0010
0000
,
1000
0000
0000
0000
;

//---------------dance-single - ----------------
#NOTES:
     dance-single:
     :
     Beginner:
     1:
     0.072,0.216,0.046,0.000,0.000: // measure 1
0100
0000
0000
0000
,  // measure 2
0000
0000
0000
0000
,  // measure 3
0001
0000
0000
0000
,  // measure 4
0000
0000
0000
0000
,  // measure 5
1000
0000
0000
0000
,  // measure 6
0000
0000
0000
0000
,  // measure 7
0010
0000
0000
0000
,  // measure 8
0000
0000
0000
0000
,  // measure 9
0100
0000
0000
0000
,  // measure 10
0000
0000
0000
0000
,  // measure 11
0001
0000
0000
0000
,  // measure 12
0000
0000
0000
0000
,  // measure 13
0000
1000
0000
0000
,  // measure 14
0000
0000
0000
0000
,  // measure 15
0000
0001
0000
0000
,  // measure 16
0000
0000
0000
0000
,  // measure 17
0000
0010
0000
0000
,  // measure 18
0000
0000
0000
0000
,  // measure 19
0000
0100
0000
0000
,  // measure 20
0000
0000
0000
0000
,  // measure 21
0000
1000
0000
0000
,  // measure 22
0000
0000
0000
0000
,  // measure 23
0000
0001
0001
0000
,  // measure 24
0000
0000
0000
0000
,  // measure 25
0000
0100
0000
0000
,  // measure 26
0000
0000
0000
0000
,  // measure 27
0000
0010
0000
0000
,  // measure 28
0000
0000
0000
0000
,  // measure 29
1000
0000
0000
0000
,  // measure 30
0001
0000
0001
0000
,  // measure 31
0001
0000
0001
0000
,  // measure 32
0001
0000
0001
0000
,  // measure 33
0001
0000
0000
0000
,  // measure 34
0000
0000
0000
0000
,  // measure 35
1000
0000
0000
0000
,  // measure 36
0010
0000
0000
0000
,  // measure 37
0110
0000
0000
0000
,  // measure 38
0100
0000
0000
0000
,  // measure 39
0100
0000
0000
0000
,  // measure 40
0000
0000
0001
0000
,  // measure 41
0001
0000
0000
0000
,  // measure 42
1000
0000
0000
0000
,  // measure 43
1000
0000
0000
0000
,  // measure 44
0000
0000
0000
0000
,  // measure 45
0001
0000
0000
0000
,  // measure 46
1000
0000
0000
0000
,  // measure 47
0001
0000
0000
0000
,  // measure 48
0110
0000
0110
0000
,  // measure 49
0110
0000
0000
0000
,  // measure 50
0010
0000
0000
0000
,  // measure 51
0100
0000
0000
0000
,  // measure 52
0000
0000
0000
0000
,  // measure 53
1001
0000
0000
0000
,  // measure 54
0000
0000
0000
0000
,  // measure 55
0000
0000
0000
0000
,  // measure 56
0000
0000
0000
0000
,  // measure 57
0010
0000
0000
0000
,  // measure 58
0000
0000
0000
0000
,  // measure 59
0100
0000
0000
0000
,  // measure 60
0000
0000
0000
0000
,  // measure 61
0001
0000
0000
0000
,  // measure 62
0000
0000
0000
0000
,  // measure 63
1000
0000
0000
0000
,  // measure 64
0000
0000
0000
0000
,  // measure 65
0010
0000
0000
0000
,  // measure 66
0000
0000
0000
0000
,  // measure 67
0100
0000
0100
0000
,  // measure 68
0100
0000
0100
0000
;
