#TITLE:AIR RAID FROM THA UNDAGROUND;
#SUBTITLE:;
#ARTIST:GUHROOVY;
#TITLETRANSLIT:;
#SUBTITLETRANSLIT:;
#ARTISTTRANSLIT:;
#CREDIT:;
#BANNER:bn.png;
#BACKGROUND:bg.png;
#LYRICSPATH:;
#CDTITLE:;
#MUSIC:26 - AIR RAID FROM THA UNDAGROUND.mp3;
#OFFSET:-0.360;
#SAMPLESTART:42.340;
#SAMPLELENGTH:12.000;
#SELECTABLE:YES;
#BPMS:0.000=180.000,60.000=360.001,181.000=180.000,338.000=360.001,467.000=180.000;
#STOPS:60.000=1.167
,181.000=1.000
,338.000=1.167
;
#BGCHANGES:;

//---------------dance-single - ----------------
#NOTES:
     dance-single:
     :
     Hard:
     8:
     0.557,0.754,0.218,0.266,0.052: // measure 1
0000
0000
0000
0000
,  // measure 2
0000
0000
0000
0000
,  // measure 3
0000
0000
0000
0000
,  // measure 4
0000
0000
0000
0000
,  // measure 5
0000
0000
0000
0000
,  // measure 6
0000
0000
0000
0000
,  // measure 7
0000
0000
0000
0000
,  // measure 8
0000
0000
0000
0000
,  // measure 9
1001
0000
0001
0000
,  // measure 10
1000
0000
0001
0000
,  // measure 11
1000
0000
0100
0000
,  // measure 12
1000
0000
0001
0000
,  // measure 13
0100
0000
0010
0000
,  // measure 14
0100
0000
0010
0000
,  // measure 15
1000
0000
0100
0000
,  // measure 16
0000
1001
0000
0001
,  // measure 17
0000
0100
0001
0010
,  // measure 18
0001
0100
0000
0101
,  // measure 19
0000
0001
0100
0010
,  // measure 20
1000
0100
0000
1100
,  // measure 21
0000
1000
0001
0100
,  // measure 22
0001
0010
0000
0011
,  // measure 23
0000
0001
0100
0010
,  // measure 24
1000
0100
0000
1100
,  // measure 25
0000
1000
0001
0100
,  // measure 26
0001
0010
0000
0011
,  // measure 27
0000
0001
0100
0010
,  // measure 28
1000
1100
0000
0000
,  // measure 29
0000
1100
0000
0000
,  // measure 30
0000
1001
0000
0110
,  // measure 31
0000
2200
0000
3300
,  // measure 32
0000
1000
0001
0100
,  // measure 33
0001
0020
0000
0031
,  // measure 34
0000
0001
1000
0001
,  // measure 35
0100
0020
0000
1030
,  // measure 36
0000
1000
0001
0100
,  // measure 37
0001
0020
0000
0031
,  // measure 38
0000
1000
0001
0100
,  // measure 39
0010
2000
0000
3100
,  // measure 40
0000
1000
0100
1000
,  // measure 41
0100
2000
0000
3010
,  // measure 42
0000
0100
0010
0100
,  // measure 43
0010
0200
0000
0310
,  // measure 44
0000
0001
1000
0001
,  // measure 45
0100
0010
1000
0100
,  // measure 46
0010
0100
1000
0001
,  // measure 47
0001
0000
0001
0100
0000
1000
0100
0000
0000
0001
0000
0000
,  // measure 48
0001
0000
0100
0001
0000
0010
1000
0000
0000
1001
0000
0000
,  // measure 49
1000
0000
1000
0100
0000
0010
0001
0000
0000
0011
0000
0000
,  // measure 50
0001
0000
0001
0100
0000
0010
0100
0000
0000
0110
0000
0000
,  // measure 51
1000
0000
0001
1000
0000
1000
0100
0000
0000
1100
0000
0000
,  // measure 52
1000
0000
0001
0100
0000
0010
0100
0000
0000
0110
0000
0100
,  // measure 53
0010
0100
2002
0000
,  // measure 54
0000
0000
3003
0000
1000
0100
1000
0000
,  // measure 55
0001
0100
0010
0000
0100
0000
0010
1000
,  // measure 56
0000
0001
0100
0000
0001
1000
0001
0000
,  // measure 57
1000
0100
1000
0000
1000
0000
1000
0100
,  // measure 58
0000
0010
0001
0000
1000
0001
0100
0001
,  // measure 59
0010
0001
0100
0010
1000
0000
1000
0001
,  // measure 60
0000
0001
1000
0000
0100
1000
0001
0100
,  // measure 61
0010
1000
0100
1000
0001
0000
0010
0100
,  // measure 62
0000
0010
0001
1000
0100
1000
0100
1000
,  // measure 63
0010
0001
0010
0001
0100
0000
0000
0100
,  // measure 64
0000
0010
0100
0000
0010
0100
0010
0100
,  // measure 65
0010
1000
0010
1000
0010
0000
0000
0010
,  // measure 66
0000
1000
0001
0000
1000
0100
0001
0010
,  // measure 67
0001
0100
0010
1000
0001
0000
0000
0001
,  // measure 68
0000
0001
0100
0000
1000
0001
0100
0001
,  // measure 69
0010
0001
0100
0010
2000
0000
0000
0000
,  // measure 70
0200
0000
3300
0000
1000
0000
0001
0100
,  // measure 71
0002
0000
0013
0000
0001
0000
0001
1000
,  // measure 72
0200
0000
1300
0000
0001
0000
1000
0001
,  // measure 73
0200
0000
0301
0000
1000
0000
0001
0010
,  // measure 74
0002
0000
0103
0000
0010
0000
0010
1000
,  // measure 75
0002
0000
0013
0000
0001
0000
0001
0010
,  // measure 76
0200
0000
0310
0000
0001
0000
0001
1000
,  // measure 77
0200
0000
1300
0000
1000
0000
0001
0100
,  // measure 78
0020
0000
0130
0000
0110
0000
0010
0100
,  // measure 79
0000
0010
0000
1000
0000
0001
1000
0001
,  // measure 80
0000
1000
0001
0101
0101
0000
0001
0100
,  // measure 81
0000
0001
0000
0001
0010
0000
0001
0100
,  // measure 82
0000
0010
1000
0001
1001
0000
1000
0001
,  // measure 83
0000
1000
0000
0001
0100
0000
0010
0100
,  // measure 84
0000
0010
1000
0001
1001
0000
1000
0100
,  // measure 85
0000
1000
0000
0001
0000
0000
1000
0000
,  // measure 86
0001
0100
0001
0000
,  // measure 87
0001
0000
0001
0100
,  // measure 88
0010
1000
0100
0000
,  // measure 89
0100
1000
0100
1000
,  // measure 90
0100
0010
0001
0000
,  // measure 91
0001
0000
0001
0100
,  // measure 92
0010
1000
0002
0000
,  // measure 93
0000
0000
1003
0001
0100
0001
0010
0000
,  // measure 94
0001
0100
0002
0000
,  // measure 95
0103
0000
0001
0100
,  // measure 96
0010
1000
0200
0000
,  // measure 97
1300
0100
1000
0100
,  // measure 98
0010
0001
0200
0000
,  // measure 99
0310
0000
0010
2002
,  // measure 100
0000
0000
0000
0000
,  // measure 101
3000
0000
0003
1000
,  // measure 102
0100
0010
0002
0000
,  // measure 103
0013
0000
0001
0100
,  // measure 104
0010
1000
0200
0000
,  // measure 105
1300
0001
0100
0010
,  // measure 106
1000
0001
0200
0000
,  // measure 107
0301
0000
0001
0100
,  // measure 108
0010
1000
0100
2200
,  // measure 109
3300
0001
0100
0010
,  // measure 110
1000
0001
1000
0000
,  // measure 111
1010
0000
1000
0001
,  // measure 112
0100
0001
0100
0000
,  // measure 113
0100
0001
0100
0001
,  // measure 114
0010
0001
0100
0000
,  // measure 115
0101
0000
0000
0000
0001
0000
1000
0001
,  // measure 116
1000
0001
1000
0001
1000
0001
1000
0001
,  // measure 117
1000
0001
1000
0001
1000
0002
2000
0000
,  // measure 118
3003
0000
0000
0000
;

//---------------dance-single - ----------------
#NOTES:
     dance-single:
     :
     Medium:
     6:
     0.417,0.659,0.282,0.185,0.000:
0000
0000
0000
0000
,
0000
0000
0000
0000
,
0000
0000
0000
0000
,
0000
0000
0000
0000
,
0000
0000
0000
0000
,
0000
0000
0000
0000
,
0000
0000
0000
0000
,
0000
0000
0000
0000
,
1010
0000
0010
0000
,
0010
0000
1000
0000
,
0001
0000
1000
0000
,
0001
0000
0100
0000
,
0010
0000
1000
0000
,
0010
0000
1000
0000
,
0001
0000
1000
0000
,
0000
0001
0000
0001
,
0000
0001
1000
0001
,
0000
0001
0000
0100
,
0000
0001
0100
0001
,
0000
0001
0000
0100
,
0000
0010
0100
0010
,
0000
1000
0000
0010
,
0000
1000
0010
1000
,
0000
0010
0000
1010
,
0000
0010
1000
0010
,
0000
1000
0000
1001
,
0000
0001
1000
0001
,
0000
1001
0000
0001
,
0000
0101
0000
0001
,
0000
1001
0000
1001
,
0000
2002
0000
3003
,
0000
0001
1000
0001
,
0000
1000
0000
1001
,
0000
1000
0100
1000
,
0000
0100
0000
1100
,
0000
0010
0001
0010
,
0000
0001
0000
0011
,
0000
0001
0100
0001
,
0000
0100
0000
0001
,
0000
0100
0001
0100
,
0000
0001
0000
0100
,
0000
0010
0100
0010
,
0000
1000
0000
0010
,
0000
1000
0000
1000
,
0000
0001
0000
0001
,
0000
1001
0001
0001
,
1001
1001
1000
1000
,
1010
1010
0010
0010
,
0110
0110
0100
0100
,
0110
1010
1000
1000
,
1100
0011
0001
0001
,
0101
1010
1000
1000
,
1010
0101
2002
0000
,
0000
0000
3003
0000
0001
0000
0000
0001
,
0000
0000
0001
0000
1000
0000
0000
0001
,
0000
0001
0100
0000
0001
0000
0000
0100
,
0000
0000
0010
0000
1000
0000
0000
0010
,
0000
1000
0010
0000
1000
0000
0000
0001
,
0000
1000
0001
0000
1000
0000
0000
0001
,
0000
0100
0001
0000
0100
0000
0000
0100
,
0000
0000
0100
0000
0010
0000
0000
0100
,
0000
0010
0000
0000
1000
0010
1000
0010
,
1000
0010
1000
0010
1000
0000
0000
1000
,
0000
1000
0001
0000
1000
0001
1000
0001
,
0100
0001
0100
0001
0100
0000
0000
0001
,
0000
0001
0100
0000
0001
0100
0010
1000
,
0100
1000
0100
1000
0100
0000
0000
1000
,
0000
1000
0001
0000
1000
0001
1000
0001
,
0100
0001
0100
0001
0100
0000
0000
0000
,
0001
0000
1100
2000
,
0200
3300
0010
0002
,
0020
0033
0002
0203
,
0002
0303
0001
2000
,
0002
3003
1002
1000
,
2000
3003
1000
0200
,
2000
3300
0010
0002
,
0200
0303
1000
0002
,
0200
0303
1001
0000
,
0000
0000
0000
0000
,
0000
0000
0000
1001
0110
0000
0000
0000
,
0000
0000
0000
0000
,
0000
0000
1100
0000
,
0000
0000
0010
0000
,
0000
0000
0101
0000
,
0010
0000
0000
1000
,
0000
0001
0100
0000
,
0001
0000
0100
0001
,
0000
0001
0100
0000
,
0010
0100
0000
0010
,
0000
0100
0010
0000
,
0100
0000
0010
0100
,
0000
0010
1000
0000
,
0000
0020
0000
0130
,
0000
0010
0100
0000
,
0010
0000
0010
1000
,
0000
0010
1000
0000
,
0001
1000
0001
1000
,
0000
0001
0100
0000
,
0001
0000
0100
0001
,
0000
0000
0000
0010
,
0000
0000
0000
0110
,
0000
0010
0100
0000
,
0010
0000
0010
1000
,
0000
0010
1000
0000
,
0010
1000
0001
1000
,
0000
0001
0100
0000
,
0001
0000
0001
0100
,
0000
0001
0100
0020
,
0000
0130
0000
0010
,
0000
0010
0100
0000
,
0010
0000
0010
1000
,
0000
0010
0100
0000
,
0010
1000
0010
1000
,
0000
0010
0100
0000
,
0010
0000
0010
1000
,
0001
1000
0001
1000
,
0001
0000
1000
0000
0001
1000
0001
0000
;

//---------------dance-single - ----------------
#NOTES:
     dance-single:
     :
     Easy:
     5:
     0.291,0.847,0.202,0.258,0.000:
0000
0000
0000
0000
,
0000
0000
0000
0000
,
0000
0000
0000
0000
,
0000
0000
0000
0000
,
0000
0000
0000
0000
,
0000
0000
0000
0000
,
0000
0000
0000
0000
,
0000
0000
0000
0000
,
2002
0000
0000
0000
,
3000
0000
0000
0000
,
2000
0000
0000
0000
,
0003
0000
0000
0000
,
0002
0000
0000
0000
,
3000
0000
0000
0000
,
2000
0000
0000
0000
,
3003
0010
0000
0000
,
0000
0010
0000
0000
,
0000
0010
0000
1000
,
0000
0010
0000
1000
,
0000
0010
0000
0000
,
0000
1000
0000
0000
,
0000
0001
0000
1000
,
0000
0001
0000
0100
,
0000
0101
0000
0000
,
0000
0101
0000
0000
,
0000
0001
0000
0100
,
0000
0010
0000
1000
,
0000
0010
0000
0000
,
0000
0010
0000
0000
,
0000
0010
0000
0010
,
0000
0010
0000
0000
,
0000
1010
0000
0000
,
0000
0010
0000
1000
,
0000
0010
0000
0000
,
0000
1000
0000
0001
,
0000
1000
0000
0000
,
0000
0001
0000
0100
,
0000
0010
0000
0000
,
0000
0010
0000
0100
,
0000
0010
0000
0000
,
0000
0010
0000
1000
,
0000
0001
0000
0000
,
0000
1000
0000
0001
,
0000
1001
0000
0010
,
0000
1001
0000
0100
,
0000
1001
0001
0001
,
0001
0001
1000
1000
,
1000
1000
0010
0010
,
0010
0010
0100
0100
,
0100
0100
0110
0110
,
0110
0110
1001
1001
,
1001
1001
1100
1100
,
0011
0011
2002
0000
,
0000
3003
0001
1000
,
0001
0100
0002
0000
,
0000
0003
1000
0001
,
1000
0100
2000
0000
,
0000
3000
0010
1000
,
0010
0100
0020
0000
,
0000
0030
0010
1000
,
0100
1000
0002
0000
,
0000
0003
1000
1000
,
1000
1000
2000
0000
,
0000
0000
0001
0001
,
0001
0001
0002
0000
,
0000
3000
0100
0100
,
0100
0100
0200
0000
,
0000
0003
0010
0010
,
0010
0010
0020
0000
,
0330
0000
0020
1000
,
2000
3030
0002
0100
,
0200
0303
2000
0001
,
0002
3003
0002
0100
,
0200
0303
0020
1000
,
2000
3030
0200
1000
,
2000
3300
0020
0001
,
0002
0033
2000
0001
,
0002
3003
1001
0000
,
0000
0000
0000
0000
,
0000
0000
1010
0000
,
0000
0000
0000
0000
,
0000
0000
0101
0000
,
0000
0000
0000
0000
,
0000
0000
0011
0000
,
0000
0000
0000
1000
,
0000
0000
0000
1000
,
0000
0000
0000
0001
,
0000
0000
0000
1000
,
0000
0000
0000
0001
,
0000
0000
0000
0100
,
0000
0000
0000
0010
,
0000
1000
0000
0010
,
0000
0000
0000
0010
,
0000
0000
0000
0010
,
0000
0000
0000
0010
,
0000
1000
0000
0001
,
0000
1000
0000
0001
,
0000
0000
0000
0001
,
0000
0000
0000
1000
,
0000
0000
0000
0000
,
0000
0000
0000
0001
,
0000
1000
0000
0001
,
0000
0100
0000
0010
,
0000
1000
0000
0100
,
0000
1000
0000
0010
,
0000
0100
0000
0010
,
0000
1000
0000
0001
,
1000
0001
1000
0001
,
0000
0000
0000
1001
,
0000
0001
0000
0100
,
0000
0010
0000
1000
,
0000
0100
0000
0010
,
0000
0001
0000
0010
,
0000
0100
0000
1000
,
0000
0010
0000
2000
,
0000
0000
0000
0000
,
0000
0000
0000
3010
;

//---------------dance-single - ----------------
#NOTES:
     dance-single:
     :
     Beginner:
     1:
     0.085,0.141,0.032,0.000,0.000:
0000
0000
0000
0000
,
0000
0000
0000
0000
,
0000
0000
0000
0000
,
0000
0000
0000
0000
,
0000
0000
0000
0000
,
0000
0000
0000
0000
,
0000
0000
0000
0000
,
0000
0000
0000
0000
,
0010
0000
0000
0000
,
0000
0000
0000
0000
,
0001
0000
0000
0000
,
0000
0000
0000
0000
,
1000
0000
0000
0000
,
0000
0000
0000
0000
,
0100
0000
0000
0000
,
0000
0010
0000
0000
,
0000
0000
0000
0000
,
0000
0010
0000
0000
,
0000
0000
0000
0000
,
0000
0001
0000
0000
,
0000
0000
0000
0000
,
0000
0001
0000
0000
,
0000
0000
0000
0000
,
0000
1000
0000
0000
,
0000
0000
0000
0000
,
0000
1000
0000
0000
,
0000
0000
0000
0000
,
0000
0010
0000
0000
,
0000
0010
0000
0000
,
0000
0010
0000
0010
,
0000
0010
0000
0000
,
0000
0110
0000
0000
,
0000
0000
0000
0000
,
0000
0100
0000
0000
,
0000
0000
0000
0000
,
0000
0010
0000
0000
,
0000
0000
0000
0000
,
0000
0001
0000
0000
,
0000
0000
0000
0000
,
0000
1000
0000
0000
,
0000
0000
0000
0000
,
0000
0010
0000
0000
,
0000
0000
0000
0000
,
0000
0100
0000
0000
,
0000
0100
0000
0000
,
0000
0000
0010
0000
,
0000
0000
0001
0000
,
0000
0000
1000
0000
,
0000
0000
1000
0000
,
0000
0000
0010
0000
,
0000
0000
0100
0000
,
0000
0000
0010
0000
,
0000
0000
1001
0000
,
0000
0000
0001
0000
,
0000
0000
0000
0000
,
0000
0000
1000
0000
,
0000
0000
0000
0000
,
0000
0000
0010
0000
,
0000
0000
0000
0000
,
0000
0000
0100
0000
,
0000
0000
0000
0000
,
0000
0000
0001
0000
,
0000
0000
0000
0000
,
0000
0000
1000
0000
,
0000
0000
0000
0000
,
0000
0000
0010
0000
,
0000
0000
0000
0000
,
0000
0000
0100
0000
,
0000
0000
0000
0000
,
0000
0000
0001
0000
,
0000
0000
1000
0000
,
0000
0000
0001
0000
,
0000
0000
0100
0000
,
0000
0000
0010
0000
,
0000
0000
1000
0000
,
0000
0000
0010
0000
,
0000
0000
0100
0000
,
0000
0000
1001
0000
,
0000
0000
0000
0000
,
0000
0000
0001
0000
,
0000
0000
0000
0000
,
0000
0000
1000
0000
,
0000
0000
0000
0000
,
0000
0000
0010
0000
,
0000
0000
0000
0001
,
0000
0000
0000
0000
,
0000
0000
0000
1000
,
0000
0000
0000
0000
,
0000
0000
0000
0001
,
0000
0000
0000
0000
,
0000
0000
0000
0100
,
0000
0000
0000
0100
,
0000
0000
0000
0100
,
0000
0000
0000
0000
,
0000
0000
0000
0010
,
0000
0000
0000
0000
,
0000
0000
0000
1000
,
0000
0000
0000
0000
,
0000
0000
0000
0001
,
0000
0000
0000
0000
,
0000
0000
0000
1000
,
0000
0000
0000
0000
,
0000
0000
0000
0001
,
0000
0000
0000
0000
,
0000
0000
0000
0100
,
0000
0000
0000
0000
,
0000
0000
0000
0010
,
0000
0000
0000
0010
,
0000
0000
0000
0010
,
0000
0000
0000
0000
,
0000
0000
0000
1000
,
0000
0000
0000
0000
,
0000
0000
0000
0001
,
0000
0000
0000
0000
,
0000
0000
0000
1000
,
0000
0000
0000
0000
,
0000
0000
0000
1001
;
