#TITLE:3y3s;
#SUBTITLE:;
#ARTIST:Seiryu;
#TITLETRANSLIT:;
#SUBTITLETRANSLIT:;
#ARTISTTRANSLIT:;
#CREDIT:;
#BANNER:bn.PNG;
#BACKGROUND:bg.PNG;
#LYRICSPATH:;
#CDTITLE:kxlxj.png;
#MUSIC:3y3s.mp3;
#OFFSET:-0.980;
#SAMPLESTART:98.020;
#SAMPLELENGTH:12.000;
#SELECTABLE:YES;
#BPMS:0.000=191.000,9.000=95.500,24.750=191.000,193.000=95.500,209.000=191.000,249.000=382.001,265.000=23.875,266.000=191.011,330.000=95.490;
#STOPS:24.750=1.340
,189.000=2.513
;
#BGCHANGES:;

//---------------dance-single - ----------------
#NOTES:
     dance-single:
     :
     Hard:
     10:
     0.705,0.918,0.056,0.326,0.330: // measure 1
0000
0000
0000
0000
,  // measure 2
0000
0000
0000
0000
,  // measure 3
0000
0000
0000
0000
1000
0100
1000
0100
0000
0010
0001
0010
0001
0000
0010
0000
,  // measure 4
0100
0000
0010
0000
1000
0001
1000
0001
0000
0010
1000
0010
1000
0000
0010
0000
,  // measure 5
1000
0000
0001
0001
0000
1000
0001
1000
0000
0010
1000
0010
1000
0000
0010
0000
,  // measure 6
0100
0000
0001
1000
0000
0000
0000
1000
1000
0000
0000
0001
0001
0000
0000
0000
,  // measure 7
0000
0100
0001
1000
0100
0000
0010
0000
0100
0000
0010
0000
1000
0000
0010
0000
,  // measure 8
1000
0100
0010
0001
0010
0100
0001
1000
,  // measure 9
0001
1000
0001
0010
0100
1000
0100
0010
,  // measure 10
0001
0010
0100
0001
0100
0001
1000
0010
,  // measure 11
1000
0100
0010
0001
0010
0100
1000
0100
,  // measure 12
0001
1000
0001
1000
0010
1000
0010
0100
,  // measure 13
0001
0100
0010
0001
0010
0100
1000
0100
,  // measure 14
0010
1000
0001
0000
1000
0000
0001
0000
,  // measure 15
0100
0000
0010
1000
0010
0100
0001
0100
,  // measure 16
0001
0100
0010
0001
0010
0001
0100
1000
,  // measure 17
0100
1000
0010
1000
0001
1000
0010
1000
,  // measure 18
0001
1000
0100
0001
0100
0001
1000
0100
,  // measure 19
0001
1000
0001
0010
0100
1000
0100
0010
,  // measure 20
0001
0010
0100
0001
0100
0001
0100
0010
,  // measure 21
0100
0010
1000
0001
0010
0100
1000
0100
,  // measure 22
0010
0001
1000
0000
0001
0000
0100
0000
,  // measure 23
0010
0000
0000
0000
1000
0100
0000
0100
0010
0000
0010
0001
0000
0001
0010
0000
,  // measure 24
0100
0000
0010
0000
0100
0010
0000
0001
1000
0000
0001
1000
0000
0001
0100
0000
,  // measure 25
0010
0000
0001
0000
0100
0001
0000
0001
1000
0000
1000
0010
0000
0010
1000
0000
,  // measure 26
0001
0000
1000
0000
0001
1000
0000
0010
0100
0000
0010
0100
0000
0010
0001
0000
,  // measure 27
1000
0010
0100
0010
0100
0000
1000
0100
,  // measure 28
1000
0000
0010
0001
0010
0000
0100
0001
,  // measure 29
0100
0000
0001
1000
0001
1000
0010
1000
,  // measure 30
0001
1000
0200
0310
0002
1003
0200
1300
,  // measure 31
0020
0000
0031
0000
1000
0000
0000
0000
1001
0000
0000
1000
0001
0000
0010
0000
,  // measure 32
0100
1000
0100
0000
0100
0000
0001
0001
,  // measure 33
0101
0000
0000
0000
0110
0000
0000
0000
1100
0000
0000
0001
0010
0000
0100
0000
,  // measure 34
1000
0001
1000
0001
0000
0001
0001
1000
,  // measure 35
1000
0000
0000
0000
1100
0000
0000
0000
0010
0000
0000
0001
1000
0000
0001
0000
,  // measure 36
0010
0100
1000
0100
1000
0000
0010
0001
,  // measure 37
0010
0000
0100
0000
0101
0000
0000
0000
0101
0000
0000
0001
0010
0000
1000
0000
,  // measure 38
0001
0000
1000
0000
0100
0000
0001
0100
0001
0000
0010
0000
0100
0000
1000
0000
,  // measure 39
0100
0010
0100
0001
1000
0000
1000
0000
1000
0000
2000
0000
0000
0000
0001
0000
,  // measure 40
0001
3001
0000
0000
0000
0000
0010
0100
,  // measure 41
0010
0000
0010
0010
0010
0020
0000
0100
,  // measure 42
0100
0130
0000
0000
0000
0000
0001
1000
,  // measure 43
0001
0000
0000
0000
1000
0100
0000
0100
0010
0000
0010
0001
0000
0001
0010
0000
,  // measure 44
0001
0000
0100
0000
1000
0100
0000
0100
0010
0000
0010
0001
0000
0001
0010
0000
,  // measure 45
0001
0000
0100
0000
1000
0100
0000
0100
0010
0000
0010
0001
0000
0001
0010
0000
,  // measure 46
0001
0100
2000
3200
0320
0032
0023
0230
,  // measure 47
2300
3002
2003
3020
2030
3200
0302
0203
,  // measure 48
0302
0023
0230
2300
0000
0001
0001
0001
,  // measure 49
3001
0000
0000
0000
1000
0100
1000
0100
0000
0010
0001
0010
0001
0000
0010
0000
,  // measure 50
0100
0000
1000
0000
0001
1000
0001
1000
0000
0010
1000
0010
1000
0000
0010
0000
,  // measure 51
0100
0000
0001
0001
0000
1000
1000
1000
0000
0001
0100
1000
0001
0000
1000
0000
,  // measure 52
0001
0000
0100
0100
0000
0000
0000
0010
0010
0000
0000
0100
0100
0000
0000
0000
,  // measure 53
0000
1000
0100
0010
0001
0000
1000
0000
0001
0000
1000
0000
0000
0000
0001
0000
,  // measure 54
0100
0001
0200
0000
0001
0000
0010
0000
,  // measure 55
1300
0000
0010
1000
0010
1000
0000
0010
,  // measure 56
1000
0001
0200
0000
1000
0000
0010
0000
,  // measure 57
0001
0301
0000
0001
0001
0001
0000
1000
,  // measure 58
1000
1000
0001
0000
1000
0000
0010
0000
,  // measure 59
0200
2000
3300
0000
0000
0002
0020
0033
,  // measure 60
0000
0200
0002
0303
0000
0000
0000
1000
,  // measure 61
0001
0010
0000
0000
0000
1000
2000
0000
,  // measure 62
0000
0002
0000
3000
0000
0100
0000
0010
,  // measure 63
0000
1003
0001
0010
0100
1000
0100
0010
,  // measure 64
0001
0010
0100
1000
0100
0010
0001
0010
,  // measure 65
0100
1000
0100
0010
0001
0010
0100
1000
,  // measure 66
0100
0010
0001
0010
0100
1000
0100
0010
,  // measure 67
0001
0010
0200
0000
0301
1000
0001
1000
,  // measure 68
0000
0000
0000
0000
1000
0000
0000
0000
0100
0000
0000
0000
0010
0000
0000
0000
0001
0000
0000
0000
0000
0000
0000
0010
0001
0000
0000
0000
0000
0000
0000
1000
,  // measure 69
0100
0000
0000
0000
0000
0000
0000
0100
0010
0000
0000
0000
0000
0000
0000
0000
0001
0000
0000
0000
1000
0000
0000
0000
0001
0000
0000
0000
1000
0000
0000
0000
,  // measure 70
0000
0000
0000
0000
1000
0000
0000
0000
0001
0000
0000
0000
0001
0000
0000
0000
0010
0000
0000
0000
0000
0000
0000
1000
0100
0000
0000
0000
0000
0000
0000
0100
,  // measure 71
0010
0000
0000
0000
0000
0000
0000
0010
0001
0000
0000
0000
0010
0000
0000
0000
0000
0000
0000
0000
0001
0000
0000
0000
0001
0000
0000
0000
0002
0000
0000
0000
,  // measure 72
0000
1000
1000
1000
1000
0000
1000
0000
,  // measure 73
1000
0000
1000
1003
0000
0000
0000
0001
,  // measure 74
0001
0000
0000
1000
1000
0000
0000
0000
,  // measure 75
0000
1000
0100
0010
0010
0100
0010
0100
,  // measure 76
0000
0000
0000
0000
0100
0000
0000
0000
0001
0000
0000
0000
1000
0000
0000
0000
0010
0000
0000
0000
0000
0000
0000
1000
0010
0000
0000
0000
0000
0000
0000
0100
,  // measure 77
0001
0000
0000
0000
0000
0000
0000
0001
1000
0000
0000
0000
0000
0000
0000
0000
0010
0000
0000
0000
0100
0000
0000
0000
0010
0000
0000
0000
0100
0000
0000
0000
,  // measure 78
0000
0000
0000
0000
0100
0000
0000
0000
0010
0000
0000
0000
0010
0000
0000
0000
1000
0000
0000
0000
0000
0000
0000
0100
0001
0000
0000
0000
0000
0000
0000
0001
,  // measure 79
1000
0000
0000
0000
0000
0000
0000
1000
0010
0000
0000
0000
1000
0000
0000
0000
0000
0000
0000
0000
0001
0000
0000
0000
1000
0000
0000
0000
0001
0000
0000
0000
,  // measure 80
0000
0010
1000
0010
1000
0000
0100
0000
,  // measure 81
0010
0000
0001
0002
0000
0000
0000
1000
,  // measure 82
2000
0000
0003
0010
0020
0000
0000
0000
,  // measure 83
3000
0032
0010
0200
0303
0000
0000
0000
;

//---------------dance-single - ----------------
#NOTES:
     dance-single:
     :
     Medium:
     8:
     0.524,0.656,0.143,0.151,0.119: // measure 1
0000
0000
0000
0000
,  // measure 2
0000
0000
0000
0000
,  // measure 3
0000
0000
0000
0000
1000
0000
1000
0100
0000
0010
0001
0010
0001
0000
0010
0000
,  // measure 4
0001
0000
0010
0000
0100
0000
0001
1000
0000
0001
1000
0001
1000
0000
0001
0000
,  // measure 5
1000
0000
0010
1000
0000
0001
0100
0001
0000
1000
0100
1000
0100
0000
1000
0000
,  // measure 6
0100
0000
0010
0001
0000
0000
0000
0000
1000
0000
0000
0000
0001
0000
0000
0000
,  // measure 7
0000
0001
0010
0100
1000
0000
0001
0000
1000
0000
0000
0000
0010
0000
0000
0000
,  // measure 8
0100
0000
1000
0100
1000
0000
0010
0000
,  // measure 9
0001
0000
0100
0001
0100
0000
0010
0000
,  // measure 10
1000
0000
0001
1000
0001
0000
0100
0000
,  // measure 11
1000
1100
0110
0011
,  // measure 12
0001
0100
0001
0000
0100
0000
0110
0000
,  // measure 13
1000
0100
1000
0000
1000
0000
1100
0000
,  // measure 14
0010
2000
0002
0000
0000
0000
0000
0000
,  // measure 15
3003
0000
0001
1000
0001
0000
0010
1000
,  // measure 16
0010
0000
0010
0100
0010
0000
0001
1000
,  // measure 17
0001
0000
1000
0100
1000
0000
0010
0001
,  // measure 18
0010
0000
0100
0001
0100
0000
0010
1000
,  // measure 19
0010
0000
1000
0100
0010
0000
0001
0100
,  // measure 20
0001
0000
0001
1000
0001
0000
0010
1000
,  // measure 21
0010
0110
1000
1100
,  // measure 22
0010
0011
1100
0010
,  // measure 23
0100
0002
0100
0010
,  // measure 24
1000
1000
2003
0000
0001
0000
0100
0000
,  // measure 25
0001
0001
3002
0000
0100
0000
0010
0000
,  // measure 26
1000
1000
2003
0000
0001
0000
0001
0000
,  // measure 27
3001
1000
1001
0000
0010
0100
0010
0000
,  // measure 28
1000
0100
1000
0000
0010
0001
0010
0000
,  // measure 29
0100
1000
0100
0000
0010
0001
0010
0000
,  // measure 30
0100
0002
0200
0000
0000
0000
0000
0000
,  // measure 31
0303
0000
1100
0000
0010
0000
0001
1000
,  // measure 32
0001
1000
0000
0000
0000
0000
0010
0100
,  // measure 33
0010
0000
0000
0000
0000
0000
1000
0100
,  // measure 34
1000
0100
0000
1000
0000
1000
0100
0010
,  // measure 35
0001
0000
0000
0000
0000
0000
0001
0100
,  // measure 36
0001
0100
0000
0000
0000
0000
0001
1000
,  // measure 37
0001
0000
0000
0000
0000
0000
0010
0100
,  // measure 38
0010
0100
0000
1000
0000
0001
1000
0001
,  // measure 39
1000
0000
1000
0100
1000
0100
0000
0010
,  // measure 40
0001
0010
0000
0000
0000
0000
0001
1000
,  // measure 41
0001
0000
0010
0100
0010
0100
0000
1000
,  // measure 42
0100
1000
0000
0000
0000
0000
0010
0001
,  // measure 43
0010
0000
0000
0000
1000
0000
0000
1000
0000
0000
1000
0000
0000
1000
0000
0000
,  // measure 44
0001
0000
1000
0000
0001
0000
0000
0001
0000
0000
0001
0000
0000
0001
0000
0000
,  // measure 45
1000
0100
1000
0100
1000
0100
1000
0100
,  // measure 46
1000
0100
0020
0031
0020
0031
0020
0031
,  // measure 47
0020
0031
0020
0031
0020
0031
0020
0031
,  // measure 48
0020
0031
0000
1000
0000
0001
1000
0001
,  // measure 49
1000
0000
0000
0000
1000
0000
0100
0000
0010
0000
0001
0010
0001
0000
0010
0000
,  // measure 50
0001
0000
0010
0000
0100
0000
1000
0000
0100
0000
1000
0100
1000
0000
0010
0000
,  // measure 51
1000
0000
0001
1000
0000
0001
1000
0001
0000
0001
1000
0001
1000
0000
0010
0000
,  // measure 52
1000
0000
0100
1000
0000
0000
0000
1000
0100
0000
0000
0010
0001
0000
0000
0000
,  // measure 53
0000
0001
0100
0001
0100
0000
0000
0000
0001
0000
0000
0000
0100
0000
0000
0000
,  // measure 54
0010
1000
0001
0100
,  // measure 55
0010
0100
0010
0000
0100
0000
1000
0000
,  // measure 56
0100
0010
0001
0100
,  // measure 57
0001
1000
0001
0000
1000
0000
0100
0000
,  // measure 58
0010
0001
0100
0001
,  // measure 59
1000
0010
1000
0000
0100
0000
1000
0000
,  // measure 60
0100
0010
0001
0100
,  // measure 61
1000
0100
0010
0000
0000
0001
1000
0000
,  // measure 62
0000
1000
0100
0000
0000
0010
0000
0010
,  // measure 63
0000
0010
1000
0000
0000
0000
0100
0000
,  // measure 64
0000
0010
0000
0001
,  // measure 65
0000
1000
0000
0100
,  // measure 66
0000
0010
0001
2000
,  // measure 67
0002
0000
0000
0000
0000
0000
0000
0000
0000
0000
3003
0000
0010
0000
0000
0100
0000
0000
0010
0000
0000
0100
0000
0000
,  // measure 68
0000
1000
0100
1000
0100
0000
1000
0000
,  // measure 69
0100
0000
1100
0000
0010
0001
0010
0001
,  // measure 70
0000
0001
0100
0001
0100
0000
0001
0000
,  // measure 71
0110
0000
0001
1000
0000
0001
1000
0001
,  // measure 72
0000
0010
1000
0010
1000
0000
0100
0000
,  // measure 73
0010
0000
0001
0010
0000
0000
0000
0100
,  // measure 74
1000
0000
0000
1000
0100
0000
0000
0000
,  // measure 75
0000
1000
0100
0010
0001
0010
0001
0010
,  // measure 76
0000
0001
0100
0001
0100
0000
0101
0000
,  // measure 77
1100
0000
0101
0000
0010
0100
0010
0100
,  // measure 78
0000
1000
0100
0010
0001
0000
0011
0000
,  // measure 79
1100
0000
0010
0010
0000
0100
1000
0100
,  // measure 80
0000
0010
0001
0010
0100
0000
0001
0000
,  // measure 81
0100
0000
1000
1000
0000
0000
0000
0001
,  // measure 82
0001
0000
0000
0100
0100
0000
0000
0000
,  // measure 83
0000
0001
1000
0020
0030
0000
0000
0000
;

//---------------dance-single - ----------------
#NOTES:
     dance-single:
     :
     Easy:
     5:
     0.377,0.459,0.247,0.095,0.000: // measure 1
0000
0000
0000
0000
,  // measure 2
0000
0000
0000
0000
,  // measure 3
0000
0000
1000
0000
0001
0000
0100
1000
,  // measure 4
0100
0000
1000
0000
0100
0000
0010
0001
,  // measure 5
0010
0000
0001
0000
1000
0000
0001
1000
,  // measure 6
0001
0100
0010
1000
,  // measure 7
0000
0001
1000
0000
0100
0000
1000
0000
,  // measure 8
0001
1000
0001
0100
,  // measure 9
0001
0010
1000
0010
,  // measure 10
1000
0100
0010
0001
,  // measure 11
0100
0001
0101
0100
,  // measure 12
1000
0100
1100
0010
,  // measure 13
1000
0001
0100
1000
,  // measure 14
0200
0002
0000
0000
,  // measure 15
0303
0001
0001
1000
,  // measure 16
1000
0100
0100
0010
,  // measure 17
0010
1000
0001
0100
,  // measure 18
0010
1000
0100
0010
,  // measure 19
0001
0100
0001
0010
,  // measure 20
1000
0001
1000
0001
,  // measure 21
0100
0101
1000
1100
,  // measure 22
0010
1010
0001
1000
,  // measure 23
0001
1000
0001
0100
,  // measure 24
0001
0100
0001
0000
0100
0000
0010
0000
,  // measure 25
1000
0010
1000
0000
0001
0000
1000
0000
,  // measure 26
0001
0100
0001
0000
1000
0000
0001
0000
,  // measure 27
0010
0100
1000
0000
0001
0000
1000
0000
,  // measure 28
1001
1000
1001
0001
,  // measure 29
0101
1000
0100
0010
,  // measure 30
0001
2000
3002
0103
,  // measure 31
0001
0000
0100
0000
0001
0000
0100
0001
,  // measure 32
0100
0000
0000
1000
,  // measure 33
0001
0000
0000
0000
0000
0000
1000
0100
,  // measure 34
1000
0100
0000
0000
0000
0000
0000
0000
,  // measure 35
0000
0000
0010
0000
0010
0000
0010
1000
,  // measure 36
0010
1000
0000
0000
0000
0000
0001
1000
,  // measure 37
0001
0000
0000
0000
0000
0000
1000
0001
,  // measure 38
1000
0001
0000
0000
0000
0000
0000
0000
,  // measure 39
0000
1000
0001
0100
,  // measure 40
0010
0000
0000
0000
0000
0000
1000
0100
,  // measure 41
1000
1000
0100
0010
,  // measure 42
0001
0000
0000
1000
,  // measure 43
0000
0001
0000
0000
,  // measure 44
0100
1000
0100
0000
0000
0000
0000
0000
,  // measure 45
0010
0001
0010
0000
1000
0000
0010
0000
,  // measure 46
0001
2000
3002
2003
,  // measure 47
3002
2003
3002
2003
,  // measure 48
3002
0003
0000
0000
,  // measure 49
0000
0000
1000
0000
0001
0000
0100
0001
,  // measure 50
0100
0001
0100
0000
0010
0000
1000
0100
,  // measure 51
1000
0100
1000
0000
0100
0000
0010
0001
,  // measure 52
0010
0001
0000
0000
0100
0000
1000
0000
,  // measure 53
0000
0001
0001
0001
,  // measure 54
0001
0001
1000
0001
,  // measure 55
1000
0010
0100
0010
,  // measure 56
0100
0010
1000
0010
,  // measure 57
0100
0001
0100
0001
,  // measure 58
0010
0001
0010
0100
,  // measure 59
1000
0100
0000
0001
,  // measure 60
0000
0100
0000
0000
,  // measure 61
1000
0000
0000
0010
,  // measure 62
0000
0100
0000
0000
0000
1000
0000
0001
,  // measure 63
0000
1000
0100
0000
0000
0000
0000
0000
,  // measure 64
0010
0001
0000
0000
,  // measure 65
0010
0001
0000
0000
,  // measure 66
0000
0000
1000
0001
,  // measure 67
1000
0000
0001
1000
,  // measure 68
0001
0100
0110
0110
,  // measure 69
1001
1001
1000
0100
,  // measure 70
0010
0001
0011
0011
,  // measure 71
1100
1100
1000
0001
,  // measure 72
0100
1000
1010
0101
,  // measure 73
1010
0001
0000
0000
,  // measure 74
1000
0000
0001
0000
,  // measure 75
0000
0000
0110
0010
,  // measure 76
0100
1000
1100
0110
,  // measure 77
0011
0101
0001
1000
,  // measure 78
0010
0100
0110
1001
,  // measure 79
1100
0011
0001
0100
,  // measure 80
1000
0010
1010
0101
,  // measure 81
1100
0000
0010
0001
0000
0000
0000
0010
,  // measure 82
0001
0000
0000
0010
0001
0000
0000
0000
,  // measure 83
0000
0001
0010
0100
0000
0000
0000
0000
;

//---------------dance-single - ----------------
#NOTES:
     dance-single:
     :
     Beginner:
     2:
     0.114,0.162,0.024,0.000,0.000: // measure 1
0000
0000
0000
0000
,  // measure 2
0000
0000
0000
0000
,  // measure 3
0000
1000
0000
0000
,  // measure 4
0000
0001
0000
0000
,  // measure 5
0000
0100
0000
0000
,  // measure 6
0000
0000
0000
0000
,  // measure 7
0000
0010
0000
0000
,  // measure 8
0000
0000
0000
0000
,  // measure 9
0000
1000
0000
0000
,  // measure 10
0000
0000
0000
0000
,  // measure 11
0000
0001
0000
0000
,  // measure 12
0000
0001
0000
0000
,  // measure 13
0000
1000
0000
0000
,  // measure 14
0000
0000
0000
0000
,  // measure 15
0000
0100
0000
0100
,  // measure 16
0000
0100
0000
0100
,  // measure 17
0000
0010
0000
0010
,  // measure 18
0000
0010
0000
0010
,  // measure 19
0000
1000
0000
1000
,  // measure 20
0000
1000
0000
1000
,  // measure 21
0000
0001
0000
0001
,  // measure 22
0001
0001
0000
0000
,  // measure 23
0000
0000
0000
0000
,  // measure 24
1000
0000
0000
0000
,  // measure 25
0001
0000
0000
0000
,  // measure 26
0010
0000
0000
0000
,  // measure 27
0100
0000
0100
0000
,  // measure 28
0100
0000
0100
0000
,  // measure 29
0100
0000
0100
0000
,  // measure 30
0100
0000
0000
0000
,  // measure 31
0000
0000
0000
1000
,  // measure 32
1000
0000
0000
0000
,  // measure 33
0000
0000
0000
0001
,  // measure 34
0001
0000
0000
0000
,  // measure 35
0000
0000
0000
0100
,  // measure 36
0100
0000
0000
0000
,  // measure 37
0000
0000
0000
0010
,  // measure 38
0010
0000
0000
0000
,  // measure 39
0000
1000
1000
1000
,  // measure 40
1000
0000
0000
0000
,  // measure 41
0000
0001
0001
0001
,  // measure 42
0001
0000
0000
0000
,  // measure 43
0000
0110
0000
0000
,  // measure 44
0000
0110
0000
0000
,  // measure 45
0000
1001
0000
0000
,  // measure 46
0000
1000
0000
0001
,  // measure 47
0000
0100
0010
1000
,  // measure 48
0001
0000
0000
0000
,  // measure 49
0000
0100
0000
0000
,  // measure 50
0000
0100
0000
0000
,  // measure 51
0000
0010
0000
0000
,  // measure 52
0000
0000
0000
0000
,  // measure 53
0000
1000
0000
0000
,  // measure 54
0000
0000
0000
0000
,  // measure 55
0000
0001
0000
0000
,  // measure 56
0000
0000
0000
0000
,  // measure 57
0000
0100
0000
0000
,  // measure 58
0000
0010
0000
0000
,  // measure 59
0000
0100
0000
0010
,  // measure 60
0000
0100
0000
0000
,  // measure 61
0000
0000
0000
1000
,  // measure 62
0000
1000
0000
0000
,  // measure 63
0000
0001
0000
0000
,  // measure 64
0000
0000
0000
0000
,  // measure 65
0000
0000
0000
0000
,  // measure 66
0000
0000
0000
0000
,  // measure 67
0000
0000
1000
0000
,  // measure 68
0000
0000
0001
0001
,  // measure 69
0001
0001
0000
0000
,  // measure 70
0000
0000
0100
0100
,  // measure 71
0100
0100
0000
0000
,  // measure 72
0000
0000
0010
0000
,  // measure 73
0010
0000
0000
0000
,  // measure 74
0100
0000
0010
0000
,  // measure 75
0000
0000
1000
0000
,  // measure 76
0000
0000
1000
1000
,  // measure 77
1000
1000
0000
0000
,  // measure 78
0000
0000
0001
0001
,  // measure 79
0001
0000
0000
0000
,  // measure 80
0000
0000
0100
0000
,  // measure 81
0010
0000
0000
0000
,  // measure 82
1000
0000
0001
0000
;
