#TITLE:1-2-3;
#SUBTITLE:;
#ARTIST:Captain Jack;
#TITLETRANSLIT:;
#SUBTITLETRANSLIT:;
#ARTISTTRANSLIT:;
#CREDIT:;
#BANNER:bn.PNG;
#BACKGROUND:bg.PNG;
#LYRICSPATH:;
#CDTITLE:pm3cd.png;
#MUSIC:123.mp3;
#OFFSET:-0.013;
#SAMPLESTART:26.482;
#SAMPLELENGTH:13.314;
#SELECTABLE:YES;
#BPMS:0.000=145.020;
#STOPS:;
#BGCHANGES:;

//---------------dance-single - ----------------
#NOTES:
     dance-single:
     :
     Hard:
     7:
     0.404,0.523,0.357,0.092,0.078:
0000
0000
0000
0000
,
0000
0000
0000
0000
,
0000
0000
0000
0000
,
0000
0000
0000
0000
,
0000
0000
0000
0000
,
0000
0000
0000
0000
,
0000
0000
0000
0000
,
0000
0000
0000
0000
,
0010
0000
0100
0000
0000
1000
0000
0000
0100
0000
0000
0010
0000
0000
0001
0000
,
0000
0000
1000
0000
0000
0001
0000
0000
0100
0000
0000
1000
0000
0000
0010
0000
,
0000
0000
1000
0000
0000
0100
0000
0000
0010
0000
0000
0001
0000
0000
1000
0000
,
0000
0000
0001
0000
0000
0100
0000
0000
1000
0000
0000
0010
0000
0000
0100
0000
,
0000
0000
1000
0000
0000
0001
0000
0000
0100
0000
0000
1000
0000
0000
0010
0000
,
0000
0000
0001
0000
0000
1000
0000
0000
0100
0000
0000
0010
0000
0000
0001
0000
,
0000
0000
1000
0000
0000
0100
0000
0000
0001
0000
0000
1000
0000
0000
0010
0000
,
0000
0000
0100
0000
0000
1000
0000
0000
0010
0000
0000
0100
0000
0000
0001
0000
,
0101
0000
1010
0000
0110
0000
1000
0100
,
0010
0001
0010
0001
0000
0000
0000
0000
,
0101
0000
1010
0000
1100
0000
1000
0100
,
0001
1000
0010
0100
0000
0000
0000
0000
,
0110
0010
0100
0000
0110
0000
1000
0100
,
0010
0001
0000
0002
0000
0000
0003
0000
,
1001
0000
0110
0000
1010
0000
0000
1000
,
0000
1000
0100
0010
0001
0010
0001
0000
,
0200
0000
0000
0000
0000
1000
0000
0310
,
0000
0000
0001
1000
0000
0000
0001
0100
,
0010
0000
0100
0001
1000
0002
0000
0013
,
0000
0000
1000
1000
0000
0000
0000
0000
,
0120
0000
0000
0000
0000
0100
0000
0130
,
0000
0000
1000
0100
0000
0010
0000
0001
,
0000
0010
0100
1000
0100
0010
0000
0001
,
1000
0000
0000
0000
0001
0000
0000
0010
0000
0000
1000
0000
0001
0000
0000
0000
,
1100
1100
1100
0000
,
1000
0100
0010
0001
0000
0000
0010
0000
,
0011
0011
0011
0000
,
0001
0100
0001
1000
0000
0000
0000
0000
,
0110
0110
0110
0000
,
1000
0100
0010
0001
0010
0000
0000
0000
,
1001
0110
1010
0000
,
1000
0100
0010
0001
0010
0000
0000
0000
,
0120
0000
1030
0000
1000
0100
0010
0001
,
0012
0000
0013
0000
0001
0100
0001
1000
,
1020
0000
1030
0000
1000
0100
0010
0001
,
0010
0000
0100
1000
0000
1000
0100
0010
,
0001
0000
0011
0000
0001
0100
0001
1000
,
0010
0000
0110
0000
1000
0100
0010
0001
,
0100
0000
0101
0000
0010
0100
0010
1000
,
0000
0000
0000
0000
,
1001
0000
1010
0000
0101
0000
1000
0100
,
0010
0001
0010
0100
0000
0000
0000
0000
,
1010
0000
0110
0000
0011
0000
0001
1000
,
0001
0100
1000
0100
0000
0000
0000
0000
,
0011
0010
0110
0000
1100
0000
0001
1000
,
0001
0200
0000
0310
0000
0000
0000
0000
,
1000
0000
0100
0000
0010
0000
0000
0001
,
0000
0001
0100
0001
1000
0010
1000
0000
,
1000
0100
0000
0010
0001
0000
0001
0100
,
0000
0100
1000
0000
0010
0000
0001
0000
,
1000
0100
0000
0010
0100
0000
0001
1000
,
0000
0010
0100
0000
1000
0000
0001
0000
,
1000
0100
0000
0001
0100
0000
0010
0001
,
0000
0100
1000
0000
0001
0000
0100
0000
,
1000
0100
0000
0010
0001
0000
0001
0100
,
2000
3200
0301
0000
;

//---------------dance-single - ----------------
#NOTES:
     dance-single:
     :
     Medium:
     5:
     0.337,0.465,0.256,0.201,0.000:
0000
0000
0000
0000
,
0000
0000
0000
0000
,
0000
0000
0000
0000
,
0000
0000
0000
0000
,
0000
0000
0000
0000
,
0000
0000
0000
0000
,
0000
0000
0000
0000
,
0000
0000
0000
0000
,
0002
0000
0000
1003
,
2000
0000
0000
3100
,
0200
0000
0000
0310
,
0020
0000
0000
0031
,
0001
1000
0001
1000
,
0010
0100
0010
0100
,
1000
0100
0010
0002
,
0200
0000
0000
0303
,
1010
0110
0011
0001
,
1000
0000
1000
0100
0000
0000
0000
0000
,
0011
1100
0011
0001
,
0100
0000
1000
0200
0000
0000
0300
0000
,
0110
0001
1001
1000
,
0010
0001
0000
0010
0000
0000
0000
0000
,
1000
0000
0001
0000
0100
0000
0000
0010
,
0000
0100
0000
1000
0100
1000
0100
0000
,
2000
0000
0000
0000
0000
0100
0000
3010
,
0000
0000
0001
0100
0000
0000
0010
0000
,
0100
1000
0001
1000
,
0010
0000
0001
0100
0000
0000
0000
0000
,
0020
0000
0000
0000
0000
1000
0000
1030
,
0000
0000
1000
0100
0000
0000
0010
0000
,
0001
0001
0100
1000
,
0010
1000
0001
0100
,
0110
0010
0110
0000
,
1000
0000
0100
1000
0100
0000
0010
0000
,
0011
0100
1100
0000
,
0010
0001
1000
0100
,
0110
0001
1001
0000
,
0100
1000
0010
0001
,
0101
0010
1010
0010
,
0010
0100
1000
0010
,
0102
0000
0103
0000
1000
0100
1000
0000
,
1020
0000
1030
0000
0100
1000
0100
0000
,
2100
0000
3010
0000
0001
0100
0001
0000
,
0012
0000
0103
0000
0001
0000
1000
0001
,
0200
0310
1000
0100
,
0020
0000
0031
0000
0001
0100
0002
0000
,
0100
0000
0103
0000
0010
1000
0010
2000
,
0000
0000
0000
0000
,
3001
0110
1001
0010
,
1000
0100
1000
0100
0000
0000
0000
0000
,
0011
1100
1010
0001
,
0010
0000
0100
1000
0100
0000
0010
0000
,
0101
1010
1100
0001
,
1000
0100
0000
0010
0000
0000
0000
0000
,
0001
1000
0001
0000
0010
0000
0000
0100
,
0000
1000
0000
0100
0010
0001
0010
0000
,
0001
0100
1000
0100
,
0001
0100
2000
3100
,
1000
0010
0001
0010
,
1000
0010
0002
0013
,
0001
0100
0010
0001
,
0100
0010
0002
0103
,
1000
0010
0100
1000
,
0002
0023
0130
0000
;

//---------------dance-single - ----------------
#NOTES:
     dance-single:
     :
     Easy:
     3:
     0.224,0.349,0.092,0.247,0.000:
0000
0000
0000
0000
,
0000
0000
0000
0000
,
0000
0000
0000
0000
,
0000
0000
0000
0000
,
0000
0000
0000
0000
,
0000
0000
0000
0000
,
0000
0000
0000
0000
,
0000
0000
0000
0000
,
0002
0000
0000
0000
,
2003
0000
0000
0000
,
3200
0000
0000
0000
,
0302
0000
0000
0000
,
0023
0000
0000
0000
,
2030
0000
0000
0000
,
3020
0000
0000
0000
,
0200
0000
0000
0330
,
0100
0100
0100
0000
,
0000
0000
0000
0000
,
0010
0010
0010
0000
,
0000
0000
0000
0000
,
1000
0001
1000
0000
,
0000
0000
0000
0000
,
1000
0100
0010
0000
,
0001
0100
1000
0100
,
0002
0000
0000
0000
,
0000
0103
0000
1000
,
0010
1000
0100
0010
,
0001
0200
0000
0000
,
2300
0000
0000
0000
,
0000
3010
0000
0001
,
0100
1000
0010
1000
,
0200
0000
0000
0300
,
1001
0001
0001
0000
,
1000
0100
0010
0001
,
0101
0101
0101
0000
,
0001
0100
0010
1000
,
1100
1100
1100
0000
,
1000
0001
0100
0010
,
0100
0010
0100
1000
,
0001
0100
0001
0000
,
2000
3100
0100
0010
,
0002
0013
0100
0001
,
0020
1030
0100
1000
,
0010
0000
0000
1000
0000
0000
0001
0000
,
0200
0301
0010
1000
,
0020
1030
0100
1000
,
0020
0031
0200
0002
,
0303
0000
0000
0000
,
2001
0001
3001
1000
,
0100
0010
0000
0000
,
0102
0100
0103
0100
,
0001
0010
0000
0000
,
2100
0100
3100
1000
,
0100
0010
0000
0000
,
0001
1000
0100
0000
,
0010
1000
0100
0001
,
2000
0000
0000
0000
,
0000
0000
0100
0100
,
0002
0000
0000
0000
,
3000
0000
0100
0100
,
0203
0000
0000
0000
,
0000
0000
0010
0010
,
0320
0000
0000
0000
,
0100
0100
0130
0000
;

//---------------dance-single - ----------------
#NOTES:
     dance-single:
     :
     Beginner:
     1:
     0.075,0.116,0.000,0.000,0.000: // measure 1
0000
0000
0000
0000
,  // measure 2
0000
0000
0000
0000
,  // measure 3
0000
0000
0000
0000
,  // measure 4
0000
0000
0000
0000
,  // measure 5
0000
0000
0000
0000
,  // measure 6
0000
0000
0000
0000
,  // measure 7
0000
0000
0000
0000
,  // measure 8
0000
0000
0000
0000
,  // measure 9
1000
0000
0000
0000
,  // measure 10
0000
0000
0000
0000
,  // measure 11
0001
0000
0000
0000
,  // measure 12
0000
0000
0000
0000
,  // measure 13
0010
0000
0000
0000
,  // measure 14
0000
0000
0000
0000
,  // measure 15
0100
0000
0000
0000
,  // measure 16
0000
0000
0000
0000
,  // measure 17
1000
1000
1000
0000
,  // measure 18
0000
0000
0000
0000
,  // measure 19
0001
0001
0001
0000
,  // measure 20
0000
0000
0000
0000
,  // measure 21
0010
0010
0010
0000
,  // measure 22
0000
0000
0000
0000
,  // measure 23
0100
0100
0100
0000
,  // measure 24
0000
0000
0000
0000
,  // measure 25
1000
0000
0000
0000
,  // measure 26
0000
0000
0000
0000
,  // measure 27
0001
0000
0000
0000
,  // measure 28
0000
0000
0000
0000
,  // measure 29
0010
0000
0000
0000
,  // measure 30
0000
0000
0000
0000
,  // measure 31
0010
0000
0000
0000
,  // measure 32
0000
0000
0000
0000
,  // measure 33
1000
1000
1000
0000
,  // measure 34
0000
0000
0000
0000
,  // measure 35
0001
0001
0001
0000
,  // measure 36
0000
0000
0000
0000
,  // measure 37
0010
0010
0010
0000
,  // measure 38
0000
0000
0000
0000
,  // measure 39
0100
0000
0000
0000
,  // measure 40
0100
0000
0000
0000
,  // measure 41
0001
0000
0000
0000
,  // measure 42
0001
0000
0000
0000
,  // measure 43
1000
0000
0000
0000
,  // measure 44
1000
0000
0000
0000
,  // measure 45
0100
0000
0000
0000
,  // measure 46
0100
0000
0000
0000
,  // measure 47
0010
0000
0000
0000
,  // measure 48
0000
0000
0000
0000
,  // measure 49
0100
0100
0100
0000
,  // measure 50
0000
0000
0000
0000
,  // measure 51
0010
0010
0010
0000
,  // measure 52
0000
0000
0000
0000
,  // measure 53
0001
0001
0001
0000
,  // measure 54
0000
0000
0000
0000
,  // measure 55
1000
1000
1000
0000
,  // measure 56
0000
0000
0000
0000
,  // measure 57
0100
0000
0000
0000
,  // measure 58
0000
0000
0000
0000
,  // measure 59
0010
0000
0000
0000
,  // measure 60
0000
0000
0000
0000
,  // measure 61
1000
0000
0000
0000
,  // measure 62
0000
0000
0000
0000
,  // measure 63
0001
0000
0000
0000
,  // measure 64
0010
0010
0010
0000
;
