#TITLE:[MEGAMIX] Taka 1;
#SUBTITLE:;
#ARTIST:Dj Taka;
#TITLETRANSLIT:;
#SUBTITLETRANSLIT:;
#ARTISTTRANSLIT:;
#CREDIT:;
#BANNER:bn.PNG;
#BACKGROUND:bg.PNG;
#LYRICSPATH:;
#CDTITLE:;
#MUSIC:MEGAMIX Taka.mp3;
#OFFSET:-0.020;
#SAMPLESTART:0.400;
#SAMPLELENGTH:12.000;
#SELECTABLE:YES;
#BPMS:0.000=138.000,225.000=154.000,481.000=140.000,546.000=70.000,562.000=140.000,659.000=135.000,735.000=67.500,741.000=135.000,745.000=67.500,751.000=135.000;
#STOPS:225.000=0.020
,481.000=3.000
,594.000=3.000
,659.000=0.060
;
#BGCHANGES:;

//---------------dance-single - ----------------
#NOTES:
     dance-single:
     :
     Hard:
     9:
     0.528,0.647,0.108,0.124,0.374:
0000
0000
0000
0000
,
0000
0000
0000
0000
,
0000
0000
0000
0000
,
0000
0000
0000
0000
,
0000
0000
0000
0000
0001
0000
0000
0100
0000
0000
0010
0000
0000
1000
0000
0000
,
0001
1000
0000
0000
1000
0000
0000
0100
0000
0000
0010
0000
0000
0001
0000
0000
,
0001
0000
0100
0000
0001
0000
0000
0100
0000
0000
0010
0000
0000
1000
0000
0000
,
0001
0000
0000
0000
1000
0000
1000
0001
1000
0000
1000
0000
0010
0100
0010
0000
,
0010
0000
1001
0000
0000
0110
0000
0010
,
0000
0010
0000
0000
0010
0000
0001
0000
0010
0000
0100
0000
1000
0000
0100
0000
,
0010
1000
0001
1000
0000
0001
0000
0100
,
0010
1010
0010
0100
,
1000
0000
0000
0000
0100
0000
0000
0000
0100
0001
0000
0000
0010
0000
0000
0000
,
0100
0000
0000
0000
0001
0000
0000
0000
0001
0100
0000
0000
0010
0000
0000
0000
,
0010
1000
0000
0010
0000
0000
1000
0000
1000
0100
0000
0010
0000
0000
0001
0000
,
0100
0010
0000
0001
1000
0000
0000
1000
0000
0000
0000
0000
1000
0000
0100
0000
,
0010
0000
0001
0000
0010
0000
0000
0000
0001
0000
0000
0010
0000
0000
0001
0000
,
0100
0000
0001
0000
0100
0000
0000
0001
0000
0000
0100
0000
0000
0000
0010
0000
,
0000
0000
0100
0000
1000
0000
0000
0100
0000
0000
1000
0000
0000
0000
0100
0000
,
1000
0000
0100
0000
0010
0000
0000
0000
0000
0001
0000
0100
0000
0000
0010
0000
,
1000
0001
0100
0000
0110
0000
0110
0000
,
0010
0000
0000
0000
0100
0000
0000
0000
1000
0100
0000
0000
0010
0000
0000
0000
,
0101
0000
0000
0010
0000
0000
0001
0000
0010
0100
0000
0001
0000
0000
0010
0000
,
0001
0000
0000
1000
0000
0000
0000
0000
0000
0010
0000
0000
0100
0000
0000
0000
0000
0000
0000
0000
0000
1000
0000
0000
0000
0000
0000
0100
0000
0000
0000
0000
0000
0000
0000
0000
0001
0000
0000
0000
0010
0000
0000
0000
0100
0000
0000
0000
,
1000
0100
0010
0002
0000
0000
0100
0000
0000
0000
0000
0000
,
1003
0001
2000
0000
0000
0000
0000
0000
,
3100
1000
0200
0000
0000
0000
2300
0000
,
3010
0200
0000
0302
,
1003
0000
1001
0000
0001
1000
0001
1000
,
0001
0000
1000
0000
0010
0000
0000
0010
0000
0000
0000
0000
0000
0000
0100
0000
,
1000
0100
0000
0000
0002
0000
0000
0000
2003
0000
0000
0000
3002
0000
0000
0000
,
0203
0320
0000
0230
,
0000
0000
0000
0300
0010
0000
0000
0000
1000
0000
0000
0000
0001
0000
0000
0000
,
0100
0000
0001
0000
1000
0000
0000
0000
0010
0000
0000
0000
1000
0000
1000
0100
,
0000
0010
0001
0000
0010
0000
0000
0000
0000
0000
0000
0000
0001
0000
0001
0100
,
0000
0010
1000
0000
0001
0000
0000
0000
0000
0000
0000
0000
0010
0000
0000
0010
,
0000
0000
0100
0000
1000
0000
0000
0000
0000
0000
0000
0001
0100
0000
0000
0000
,
0000
0000
0000
0000
0110
0000
0000
0000
0000
0000
0000
0010
1000
0000
0000
0000
,
0000
0000
0000
1000
0100
0000
0000
0000
0000
0000
0000
1000
0100
0000
0000
0000
,
0000
0000
0010
1000
0001
0100
0010
1000
,
0001
1000
1001
0000
0000
0101
0000
1000
,
0000
1000
0000
0000
0100
0000
1000
0000
0100
0000
0010
0000
0001
0000
0010
0000
,
0100
0001
1000
0020
0000
1030
0000
0001
,
0100
0220
0000
0000
,
0330
1001
0101
0010
,
0100
0000
0000
0000
1000
0000
0000
1000
0100
0000
0000
0000
0010
0000
0000
0001
,
0100
0000
0000
0010
0000
0000
0001
0000
1000
0001
0000
0010
0000
0000
0100
0000
,
0001
0100
0000
0010
1000
0000
0000
0001
0000
0100
0000
0000
1000
0000
0100
0000
,
0010
0000
0001
0000
0010
0000
0000
0001
0000
0000
1000
0000
0000
0000
1000
0000
,
0100
0000
1000
0000
0100
0000
0000
0000
1000
0000
0000
0100
0000
0000
0010
0000
,
0000
0000
0001
0000
0100
0000
0000
0100
0000
0000
0001
0000
0000
0000
1000
0000
,
0001
0000
0100
0000
0010
0000
0000
0000
0000
0100
0000
1000
0000
0000
1000
0100
,
1000
0000
0100
0000
1000
0000
0000
0000
0011
0000
0000
0000
0010
0100
0000
0000
,
0001
0000
0000
0000
0100
0000
0000
0000
1000
0100
0000
0000
0010
0000
0000
0000
,
0001
0100
0000
0010
0000
0000
0010
0000
0001
1000
0000
0000
0010
0000
0001
0000
,
0010
0000
0000
0100
0000
0000
0000
0000
0000
0001
0000
0000
1000
0000
0000
0000
0000
0000
0000
0000
0000
0010
0000
0000
0000
0000
0000
0100
0000
0000
0000
0000
0000
0000
0000
0000
1000
0000
0000
0000
0100
0000
0000
0000
0010
0000
0000
0000
,
0001
1000
0001
1001
0000
0000
0000
0000
0000
0000
0000
0000
,
0000
0010
0000
0000
,
0000
1100
0000
0000
,
0000
0000
0001
0010
0100
1000
0001
0010
,
0100
1000
0001
0000
0001
0000
0001
0000
,
0001
1001
1000
1000
,
1000
0110
0010
0110
,
0100
0000
1000
0100
0010
0001
1000
0100
,
0010
0000
0001
0000
0010
0000
0000
0001
0000
0000
0010
0000
0100
0000
0000
0000
,
1000
0001
0100
0010
,
1000
0000
0000
0001
0100
0000
0000
0000
0010
0000
0000
0000
1000
0000
0000
0000
,
0100
0000
0000
0100
0010
0000
0000
0001
1000
0000
0000
0010
0100
0000
0000
0001
,
0100
0000
0000
0010
1000
0000
0000
0000
0001
0000
0000
1000
0100
0000
0000
0000
,
0010
0000
0000
0001
0100
0000
0000
0000
0010
0000
0000
0001
1000
0000
0000
0000
,
0010
0000
0000
0100
0010
0000
0000
0000
1000
0000
0000
0000
0100
0000
0000
0010
,
0001
0000
0000
0001
2000
0000
0000
0000
0000
0000
0000
0000
3001
0000
0000
0000
,
0000
0000
0000
0000
0001
0100
0000
0001
0000
0000
0100
0000
0010
0000
0000
1000
,
0000
0000
0001
0000
0100
0000
0000
1000
0000
0000
0100
0000
0010
0000
0000
0001
,
0000
0000
1000
0000
0010
1000
0000
0001
0000
0000
0100
0000
0010
0000
0000
1000
,
0001
0000
0000
0000
0001
0100
0000
0001
0000
0001
1000
0000
0001
0000
0010
0100
,
0000
0001
1000
0000
0010
0000
0000
1000
0000
0000
0100
0000
0010
0000
0000
0001
,
0000
0000
0100
0000
0010
0100
0000
0001
0000
0000
1000
0010
1000
0000
0000
0001
,
0000
0000
0010
0000
0100
0000
0000
1000
0000
0000
0100
0000
1000
0000
0000
0100
,
0000
1000
0100
0010
0001
0010
0100
0001
,
1000
0000
0010
0000
0010
0001
0000
0010
0000
0000
0001
0000
1000
0000
0000
0100
,
0000
0000
0010
0000
0001
0000
0000
0100
0000
0000
0001
0000
1000
0000
0000
0010
,
0000
0000
0100
0000
1000
0100
0000
0010
0000
0000
0001
0000
1000
0000
0000
0100
,
0010
0000
0000
0000
0010
0001
0000
0010
0000
0010
0100
0000
0010
0000
1000
0001
,
0000
0010
0100
0000
1000
0000
0000
0100
0000
0000
0001
0000
1000
0000
0000
0010
,
0000
0000
0001
0000
1000
0001
0000
0010
0000
0000
0100
1000
0100
0000
0000
0010
,
0000
0000
1000
0000
0001
0000
0000
0100
0000
0000
0001
0000
0100
0000
0000
0001
,
0000
2000
0002
0000
0000
0000
0000
0000
,
3003
0000
0001
1000
0001
1000
0010
0100
,
0001
0100
0010
1000
0001
0010
0100
1000
,
0100
0010
0001
1000
0001
0100
0010
1000
,
0001
0100
0001
0010
0100
1000
0100
0010
,
0001
1000
0010
1000
0001
0100
0010
0100
,
0001
1000
0010
1000
0100
0010
0001
0010
,
0100
1000
0100
0010
1000
0001
1000
0010
,
0100
0001
1000
0010
0100
0001
1000
0010
,
0100
1000
0100
2000
0000
3100
0000
1000
,
0100
0010
0001
0020
0000
0031
0000
0001
,
0100
0001
0100
0002
0000
0013
0000
0010
,
0100
0001
1000
0002
0000
1003
0000
1000
,
0100
0010
0001
0020
0000
0031
0000
0001
,
1000
0001
2000
0100
0000
3100
0000
0010
,
0100
0001
0200
0010
0000
0310
0000
0001
,
1000
0001
0010
0100
1000
0100
0010
0001
,
0010
1000
1002
0000
0000
0000
1003
0000
,
1100
0000
0000
0010
0100
0000
0000
0000
0001
0000
0000
0010
0100
0000
0000
0000
,
0001
0000
0000
0001
1000
0000
0000
0000
0000
0000
0000
0000
0000
0000
0000
0000
,
1000
0000
0000
0000
0100
0000
0000
1000
0100
0000
0000
0010
0001
0000
0000
0010
,
0100
0000
0000
1000
0001
0000
0000
0000
0010
0000
0000
0010
0100
0000
0000
0000
,
0010
0000
0000
0010
1000
0000
0000
0000
0001
0000
0000
0001
0100
0000
0000
0010
,
0100
0000
0000
0001
1000
0000
0000
0000
0010
0000
0000
0000
0100
0000
0000
0000
,
1000
0000
0000
1000
0100
0000
0000
0000
0010
0000
0000
0001
0010
0000
0000
0000
,
0010
0000
0001
0100
0001
0000
0010
1000
,
0010
0000
0000
0000
0001
1000
0000
0001
0000
0001
1000
0000
0001
1000
0000
0001
,
0000
0001
1000
0000
0010
0000
0000
0000
0001
0000
0000
0000
1000
0000
0000
0000
,
0100
0000
0000
0000
0010
0100
0000
0001
0000
0010
1000
0000
0001
0100
0000
0010
,
0000
0001
1000
0000
0001
0000
0000
0000
0100
0000
0000
0000
0010
0000
0000
0000
,
1000
0000
0000
0000
0001
0100
0000
0010
0000
0001
1000
0000
0010
0000
0001
1000
,
0000
0010
1000
0000
0001
0000
0000
0000
0100
0000
0000
0000
1000
0000
0000
0000
,
0100
0000
0000
0000
1000
0100
1000
0000
0010
0000
0100
0000
0001
0100
0001
0000
,
0100
0010
1001
0000
1000
0100
1000
0000
,
0001
0001
0000
1000
1000
0000
0001
0001
,
0000
0001
0010
0100
0000
0001
1000
0000
,
0001
0100
0000
0010
1000
0000
0010
0100
,
0000
1000
0001
0100
0000
0001
0010
0000
,
0100
1000
0000
0010
1000
0000
0001
0100
,
0000
1000
0100
0001
0000
0001
0010
0000
,
0010
0100
0000
0100
1000
0000
1000
0001
,
0000
1000
0100
1000
0000
0001
0002
0000
,
1000
1000
0000
1000
1000
0000
1000
1003
,
0000
0001
1000
0001
0000
1000
2000
0000
,
0100
0100
0000
0010
0010
0000
0001
3001
,
0000
0001
0010
0100
0000
0001
0100
0000
,
0010
1000
0000
0100
1000
0000
0010
0001
,
0000
0001
0010
0100
0000
0001
1000
0000
,
0010
0100
0000
1000
0100
0000
0010
0001
,
0000
0001
1000
0001
0101
0000
0000
0000
,
0000
0000
0001
0010
0100
0000
0000
0000
,
0000
0000
0000
0000
0001
0000
0010
0000
0100
0000
0000
0000
0000
1000
0100
0010
,
0001
0000
0010
0000
0100
0000
0001
0000
0000
0000
0001
0000
1000
0000
0010
0000
0100
0000
0000
0000
0001
0100
0001
0100
0001
0000
0000
0000
0000
0000
0010
1000
,
0010
1000
0001
0100
1000
0000
0001
0000
1000
0000
0000
0000
0000
0000
0000
0000
,
0001
0100
0001
0100
0001
0100
0001
0100
,
0001
0010
1100
0000
,
1000
0100
0010
0001
1000
0100
0010
0001
,
0010
0001
0101
0000
,
0001
0000
1000
0000
,
0001
0000
0000
0000
1000
0100
0010
0001
,
0010
0100
0010
1000
0002
0000
1003
0000
,
0200
0000
0310
0000
1001
0000
1000
0100
,
0010
0000
0001
0000
0010
0000
0000
0001
0000
0000
0010
0000
0000
0000
0001
0000
,
0100
0000
0001
0000
0100
0000
0000
0001
0000
0000
0100
0000
0000
0000
0010
0000
,
0100
0000
0001
0000
1000
0000
0000
0001
0000
0000
0100
0000
0000
1000
0000
0000
,
0100
0000
0000
0010
0000
0000
0001
0000
0100
0000
0001
0000
1000
0000
0001
0000
,
1000
0000
0100
0000
0010
0000
0000
0001
0000
0000
0010
0000
1000
0000
0001
0000
,
0100
0000
0001
0000
0010
0000
0100
0000
1000
0000
0001
0000
0000
1000
0100
1000
,
0000
0000
0001
0000
0100
0000
1000
0000
0100
0000
0010
0000
0000
0001
0000
0000
,
0100
0000
0000
1000
0000
0000
0001
0000
0100
0000
0001
0000
0100
0000
0001
0000
,
1000
0000
0010
0000
1000
0000
0000
0010
0000
0000
1000
0000
0000
0000
0010
0000
,
0001
0000
0010
0000
0001
0000
0000
0010
0000
0000
0001
0000
0000
0000
1000
0000
,
0001
0000
0010
0000
0100
0000
0000
0010
0000
0000
0001
0000
0000
0100
0000
0000
,
0001
0000
0000
1000
0000
0000
0010
0000
0001
0000
0010
0000
0100
0000
0010
0000
,
0100
0000
0001
0000
1000
0000
0000
0010
0000
0000
1000
0000
0100
0000
0010
0000
,
0001
0000
0010
0000
1000
0000
0001
0000
0100
0000
0010
0000
0000
0100
0001
0100
,
0000
0000
0010
0000
0001
0000
0100
0000
0001
0000
1000
0000
0000
0010
0000
0000
,
0001
0000
0000
0100
0000
0000
0010
0000
0001
0000
1000
0000
1001
0000
0000
0000
,
0000
1000
0000
0001
,
0010
0000
0000
0000
0100
0000
0000
0000
1000
0000
0000
0000
0001
1000
0001
1000
,
0001
0000
0010
1000
0000
0001
0100
0001
0000
1000
0000
0001
0100
0000
1000
0001
,
0000
0010
0000
0100
0000
0001
1000
0000
0001
0000
1000
0000
0001
0000
0100
0000
,
0002
0000
0103
0001
0200
0000
0310
0100
,
0001
0000
1000
0000
0010
0000
1000
0000
0100
0000
0010
0000
0001
0100
0001
0100
,
0001
0000
0010
0100
0000
0001
1000
0000
0000
0010
0000
0001
0100
0001
0000
0100
,
0001
0000
0100
0001
0000
0010
1000
0010
1000
0000
0100
0000
1000
0000
0100
0000
,
1000
0100
0001
0100
0001
0100
0001
0100
,
1000
0000
0100
0000
0001
0000
0010
0000
1000
0000
0001
0000
1000
0001
1000
0001
,
0000
0100
0000
0010
0000
0000
0000
1000
0000
0100
0000
0010
0000
0001
0000
0001
,
1000
0000
0001
1000
0000
0001
1000
0001
0000
1000
0000
0001
1000
0000
0100
0000
,
1000
0100
0010
0001
0010
0001
1000
0010
,
0100
0000
1000
0000
0100
0000
0010
0000
0001
0000
1000
0000
0001
0000
0001
0100
,
0000
0001
0000
0100
0000
0001
0000
0000
0000
0010
0000
0001
1000
0000
0001
0100
,
0000
0001
0000
0010
1000
0000
0001
0000
0000
1000
0000
1000
0100
0000
1000
0000
,
0100
1000
0100
0010
0001
0010
0100
1000
,
0100
0001
1000
0010
0100
0010
2000
0000
,
0000
0000
3001
0010
0100
0000
0002
0000
,
0000
0000
0000
0000
2003
0000
0000
0000
0000
0000
0000
0100
3100
0000
0000
0000
,
0000
0000
1000
0100
0010
0001
1000
0010
,
0100
0010
2000
0000
0000
0001
0001
0000
,
0000
3001
0000
0001
0002
0000
0000
0000
0203
0000
0000
0000
0310
0000
0000
0000
,
0110
0110
0001
1001
,
1100
0000
1000
0100
0010
0001
0012
0000
,
0103
0000
0001
0100
0010
1000
1002
0000
,
1003
0000
1000
0100
0010
0001
0120
0000
,
0130
0000
0001
0002
1000
1003
1001
0000
,
0100
0000
0010
0100
0001
1000
1001
0000
,
0101
0000
0010
1000
0001
0100
0110
0000
,
0110
0000
0110
0000
0110
0000
0001
0010
,
0100
0000
1000
0000
0001
0010
0100
1000
0200
0000
0000
0000
1300
0100
1000
0100
,
1000
0000
0001
0100
0000
0001
1000
0001
0000
1000
0000
0100
0001
0000
1000
0010
,
0000
0100
0000
0001
0000
0001
1000
0001
1000
0000
0001
0000
0100
0000
0001
0000
,
0100
0001
0100
0010
0100
0010
0001
0010
,
0100
0000
1000
0000
0100
0000
0010
0000
0001
0000
1000
0000
0000
0200
0300
0200
,
0310
0000
1000
0001
0000
1000
0001
1000
0000
0001
0000
0000
0001
0000
0010
0000
,
1000
0100
0000
0010
0000
0100
0001
0100
0001
0000
1000
0000
0001
0000
0010
0000
,
0100
1000
0100
0010
0001
0010
1000
0001
,
1000
0000
0001
0000
0100
0000
0001
0000
0100
0000
0001
0000
0100
0001
0100
0001
,
0100
0000
0010
1000
0000
0001
0100
0000
0010
0000
0001
1000
0000
0010
0000
0000
,
0100
0001
0000
0100
0000
0010
1000
0010
1000
0100
0010
0000
0001
0000
0010
0000
,
0001
0010
0100
1000
0100
1000
0001
0010
,
1000
0001
1000
0100
0001
0100
1000
0000
,
0001
0100
0010
1000
,
0100
0000
0010
0000
0001
0000
0001
0010
,
0100
1000
0100
0010
0001
0010
1000
0001
,
0100
0000
0010
0000
0000
1000
0000
0001
0000
0000
0200
0000
0002
0000
0000
0000
,
0000
0000
0303
0000
;

//---------------dance-single - ----------------
#NOTES:
     dance-single:
     :
     Medium:
     6:
     0.355,0.448,0.171,0.108,0.032: // measure 1
0000
0000
0000
0000
,  // measure 2
0000
0000
0000
0000
,  // measure 3
0000
0000
0000
0000
,  // measure 4
0000
0000
0000
0000
,  // measure 5
0000
0001
0100
1000
,  // measure 6
1000
0001
1000
0100
,  // measure 7
0010
0001
0010
0000
0001
0000
0100
0000
,  // measure 8
0010
2000
0000
0000
,  // measure 9
3000
0000
1001
0000
0000
0101
0000
0000
,  // measure 10
0000
0001
1000
0100
,  // measure 11
0010
0000
0001
0010
0000
0100
0000
1000
,  // measure 12
0000
0002
2000
0000
0000
0000
0000
0000
,  // measure 13
3003
0100
0101
1000
,  // measure 14
0100
0010
0001
0010
,  // measure 15
0001
0100
1000
0010
,  // measure 16
1000
0200
0000
0000
,  // measure 17
0000
1300
0001
0100
,  // measure 18
0010
1000
0100
0010
,  // measure 19
0001
1000
0001
0000
0100
0000
0010
0000
,  // measure 20
1000
0001
0100
1000
,  // measure 21
0010
0000
1001
0100
,  // measure 22
0000
0000
0100
0000
,  // measure 23
0010
0001
0010
0100
,  // measure 24
1000
0010
0001
0000
1000
0000
0002
0000
,  // measure 25
0000
2003
0000
0000
,  // measure 26
0100
3200
0000
0000
,  // measure 27
1000
2300
0000
3002
,  // measure 28
0000
0200
0000
0000
,  // measure 29
0303
0001
1000
0100
,  // measure 30
0010
0001
0000
0000
,  // measure 31
1000
0002
0000
0000
,  // measure 32
0000
2000
0000
0000
,  // measure 33
3003
0110
0000
0000
,  // measure 34
0010
0100
0010
0000
0000
0000
1000
0000
,  // measure 35
0001
0100
0000
1000
,  // measure 36
0010
0001
0000
0001
,  // measure 37
0100
0000
0000
1000
,  // measure 38
0000
0101
0000
0010
,  // measure 39
0000
1001
0100
1000
,  // measure 40
0001
0000
1000
0000
0100
0000
0001
0100
,  // measure 41
0001
0100
0001
0000
0000
1100
0000
0000
,  // measure 42
0000
1000
0001
0100
,  // measure 43
0010
1000
0100
0010
,  // measure 44
0001
0200
0000
0000
,  // measure 45
0300
1001
1000
0000
,  // measure 46
0000
0000
0001
0000
,  // measure 47
1000
0000
0001
0100
,  // measure 48
0010
1000
0000
0001
,  // measure 49
0000
1000
1000
1000
,  // measure 50
0000
0001
0100
0000
,  // measure 51
0010
1000
0001
1000
,  // measure 52
0001
0100
0000
1000
,  // measure 53
0100
0010
0011
0001
,  // measure 54
0000
0001
0100
0010
,  // measure 55
1000
0001
1000
0100
,  // measure 56
0010
0001
0100
1000
,  // measure 57
0001
1001
0000
0000
,  // measure 58
0000
1000
0000
0000
,  // measure 59
0000
0101
0000
0000
,  // measure 60
0000
0001
1000
0001
,  // measure 61
0100
0010
0010
0010
,  // measure 62
0010
0100
0100
0100
,  // measure 63
0100
1000
1000
1000
,  // measure 64
1000
0000
0001
1000
0001
1000
0001
1000
,  // measure 65
0001
2000
0002
0000
0000
3003
0001
0000
,  // measure 66
1000
1100
0010
0011
,  // measure 67
0100
0101
0001
0100
,  // measure 68
0010
1010
1100
0011
,  // measure 69
0101
1000
0001
0101
,  // measure 70
1000
1100
0010
1010
,  // measure 71
1000
1100
0010
0001
,  // measure 72
0100
0002
0000
1003
,  // measure 73
0000
0000
0000
0000
0001
0000
0000
1000
0000
0000
0001
0000
0100
0000
0000
0000
,  // measure 74
0001
0000
0000
0000
0100
0000
0000
0010
0000
0000
0010
0000
0100
0000
0000
0000
,  // measure 75
0010
0000
0000
0000
1000
0000
0000
0001
0000
0000
0010
0000
0100
0000
0000
0000
,  // measure 76
0010
0000
0000
0000
1000
0000
0000
0100
0000
0000
0010
0000
0001
0000
0000
0000
,  // measure 77
0010
0000
0000
0000
0001
0000
0000
0100
0000
0000
0001
0000
0100
0000
0000
0000
,  // measure 78
0010
0000
0000
0000
0001
0000
0000
1000
0000
0000
0001
0000
1000
0000
0000
0000
,  // measure 79
0001
0000
0000
0000
0100
0000
0000
0010
0000
0000
0100
0000
0010
0000
0000
0000
,  // measure 80
1000
0000
0100
1000
0100
0000
0010
0001
,  // measure 81
0010
0000
0000
0000
0001
0000
0000
0100
0000
0000
0010
0000
1000
0000
0000
0000
,  // measure 82
0001
0000
0000
0000
1000
0000
0000
0100
0000
0000
1000
0000
0100
0000
0000
0000
,  // measure 83
0010
0000
0000
0000
0001
0000
0000
1000
0000
0000
0001
0000
0100
0000
0000
0000
,  // measure 84
0010
0000
0000
0000
0001
0000
0000
1000
0000
0000
0001
0000
0100
0000
0000
0010
,  // measure 85
0000
0000
1000
0000
0001
0000
0000
0100
0000
0000
1000
0000
0100
0000
0000
0000
,  // measure 86
1000
0000
0000
0000
0010
0000
0000
0100
0000
0000
0010
0000
1000
0000
0000
0001
,  // measure 87
0000
0000
0000
0000
1000
0000
0000
0100
0000
0000
0010
0000
0001
0000
0000
0010
,  // measure 88
0000
0100
1000
0000
0001
0000
0100
0000
,  // measure 89
0010
0000
1000
0100
1000
0000
0010
0000
,  // measure 90
0100
0000
0001
0100
0001
0000
0100
0000
,  // measure 91
1000
0000
0001
0010
0001
0000
1000
0100
,  // measure 92
1000
0000
0001
1000
0001
0000
0010
0100
,  // measure 93
0010
1000
0100
0002
,  // measure 94
0103
1000
0001
0020
,  // measure 95
0130
0001
1000
0100
,  // measure 96
0010
1000
0002
0000
0103
0000
2000
0000
,  // measure 97
3100
0000
1000
0000
0000
0100
0000
1000
,  // measure 98
0000
0100
1000
0100
0000
0010
0000
0001
,  // measure 99
0000
0100
0001
0100
0000
0010
0000
1000
,  // measure 100
0000
0001
1000
0001
0000
0100
0000
0010
,  // measure 101
1000
0000
0001
0100
0000
1000
0000
1000
,  // measure 102
0100
0010
0001
0010
0000
0001
0000
0001
,  // measure 103
0010
0100
1000
0000
0001
0100
0010
0000
,  // measure 104
0001
1000
1001
0000
1100
0000
0011
0000
,  // measure 105
0110
2002
3003
1100
,  // measure 106
0100
0110
0010
0011
,  // measure 107
0001
0101
0000
0000
,  // measure 108
0010
0110
0110
1001
,  // measure 109
1001
0000
0000
1001
,  // measure 110
0000
1100
0000
0011
,  // measure 111
0000
0110
0000
0000
,  // measure 112
1100
0011
0000
0101
,  // measure 113
0000
0000
0000
0000
1000
0000
0000
0001
0000
0000
0100
0000
0010
0000
0000
0000
,  // measure 114
0100
0000
0000
0000
0001
0000
0000
1000
0000
0000
0001
0000
0100
0000
0000
0000
,  // measure 115
0010
0000
0000
0000
0001
0000
0000
1000
0000
0000
0001
0000
0100
0000
0000
0000
,  // measure 116
0010
0000
0000
0000
1000
0000
0000
0100
0000
0000
0010
0000
0001
0000
0000
0010
,  // measure 117
0000
0001
0010
0000
0100
0000
1000
0000
,  // measure 118
0010
0000
0000
0000
0001
0000
0000
0100
0000
0000
0010
0000
1000
0000
0000
0001
,  // measure 119
0000
0100
1000
0000
0100
0000
0010
0000
,  // measure 120
0001
0000
0001
0100
0001
0100
0010
1000
,  // measure 121
0001
1000
1001
0000
1000
0000
0100
0000
,  // measure 122
0010
0001
0000
0010
0001
0000
0010
0001
,  // measure 123
0000
0001
0010
0000
0100
0000
0001
0000
,  // measure 124
0010
0100
0000
0010
0100
0000
0010
0100
,  // measure 125
0000
0010
0100
0000
0001
0000
1000
0000
,  // measure 126
1000
0100
0000
1000
0100
0000
1000
0100
,  // measure 127
0000
1000
0100
0000
0010
0000
0001
0000
,  // measure 128
0100
0001
0000
0100
0001
0000
0100
0001
,  // measure 129
0000
0100
0001
0000
0010
0000
2000
0000
,  // measure 130
3001
0100
0010
1000
,  // measure 131
0001
0100
0001
0100
0001
0000
1000
0000
,  // measure 132
0001
0010
0100
1000
,  // measure 133
0010
1000
0010
1000
0001
0000
0100
0000
,  // measure 134
0010
1000
0100
0010
,  // measure 135
0001
0100
0010
1000
0001
0000
0100
0000
,  // measure 136
1000
0100
0010
0001
,  // measure 137
0000
1000
0001
0100
0010
0000
0000
0000
,  // measure 138
0000
0000
1000
1000
1000
0000
0000
0000
,  // measure 139
0000
0000
0001
0001
0001
0000
0000
0000
,  // measure 140
1000
0000
0100
0000
0010
0002
0103
0000
,  // measure 141
2000
3100
0010
0001
1000
0000
0000
0000
,  // measure 142
0002
0000
0000
0000
,  // measure 143
1000
1003
1001
0000
,  // measure 144
2000
0000
0000
0000
,  // measure 145
0100
3100
1100
0000
,  // measure 146
0010
0000
0100
0000
,  // measure 147
0001
0000
1000
0100
,  // measure 148
0010
0001
0101
1100
,  // measure 149
0011
0000
1010
0000
1001
0000
1000
0100
,  // measure 150
1000
0000
0100
0000
0010
0000
0001
0100
,  // measure 151
0001
0000
1000
0000
0001
0000
0100
0010
,  // measure 152
0100
0010
1000
0001
,  // measure 153
0100
0000
1000
0000
0100
0000
0010
1000
,  // measure 154
0010
0000
1000
0000
0100
0000
0001
1000
,  // measure 155
0001
0010
0010
0100
,  // measure 156
0010
1000
0001
1000
,  // measure 157
0001
0000
0100
0000
0010
1000
0001
0000
,  // measure 158
0100
1000
0010
0001
,  // measure 159
0100
0000
1000
0100
1000
0000
0001
0000
,  // measure 160
0100
0010
1000
0001
,  // measure 161
0100
0000
0010
1000
0001
0100
0001
0000
,  // measure 162
0010
0000
1000
0000
0001
1000
0010
0000
,  // measure 163
1000
0000
0001
0000
0100
0010
0001
0000
,  // measure 164
0100
1000
0010
0000
0100
1000
0001
0000
,  // measure 165
0100
1000
0010
1001
,  // measure 166
0000
0001
0000
1000
,  // measure 167
0100
0000
0010
0000
0001
0000
1000
0100
,  // measure 168
1000
0000
0001
0100
0001
0000
0010
0001
,  // measure 169
0010
0000
1000
0010
1000
0000
0001
0000
,  // measure 170
0001
1000
1000
0100
,  // measure 171
0100
0000
0010
0000
0010
0000
0001
0100
,  // measure 172
0001
0000
0010
1000
0010
0000
1000
0100
,  // measure 173
1000
0000
0010
0001
0010
0000
1000
0000
,  // measure 174
1000
0001
0001
0001
,  // measure 175
0010
0000
0100
0000
1000
0000
1000
0100
,  // measure 176
1000
0000
0010
0100
0010
0000
0001
0100
,  // measure 177
0001
0000
0010
0001
0010
0000
0001
0000
,  // measure 178
0001
1000
1000
0010
,  // measure 179
0100
0000
0001
0000
1000
0000
0001
1000
,  // measure 180
0100
0000
0001
0000
1000
0000
0001
1000
,  // measure 181
0010
1000
0100
1000
,  // measure 182
0100
0010
0001
0001
,  // measure 183
0010
0100
1000
0020
,  // measure 184
1000
0001
0130
1001
,  // measure 185
0000
0000
0000
1000
,  // measure 186
0000
0002
0013
0200
,  // measure 187
1300
1001
0000
0000
,  // measure 188
0000
0001
0000
2000
,  // measure 189
3100
0020
0031
0100
,  // measure 190
0101
0010
0100
1000
,  // measure 191
1100
0010
1000
0110
,  // measure 192
0110
0001
1000
0100
,  // measure 193
1100
0000
0001
0100
1000
0100
0001
0000
,  // measure 194
0101
0010
0001
0110
,  // measure 195
0100
1000
0010
1010
,  // measure 196
0101
0000
1100
0000
0011
0000
1000
0100
,  // measure 197
1000
0100
1000
0100
0020
0000
0130
0000
,  // measure 198
0001
0000
1000
0100
0001
0000
0010
0000
,  // measure 199
1000
0000
0001
0100
0010
0000
1000
0000
,  // measure 200
0100
0010
0001
0010
,  // measure 201
0100
0000
1000
0000
0010
0000
0000
0001
,  // measure 202
1000
0000
0001
0000
0100
0000
0010
1000
,  // measure 203
0001
0100
1000
2000
,  // measure 204
3100
0020
0031
0002
,  // measure 205
0023
0000
0230
0000
2300
0000
3010
1000
,  // measure 206
0010
0001
0100
0010
,  // measure 207
1000
0100
0010
0000
0001
0000
0100
0000
,  // measure 208
0010
1000
0001
0010
,  // measure 209
0100
0000
1000
0000
0100
0000
0010
0010
,  // measure 210
0010
1000
0001
0100
,  // measure 211
0010
0000
1000
1000
0001
0000
0100
0000
,  // measure 212
0010
1000
0100
0002
,  // measure 213
0000
2000
0000
3003
;
