#TITLE:[MEGAMIX] Kors K 1;
#SUBTITLE:;
#ARTIST:Kors K, Teranoid, & StripE;
#TITLETRANSLIT:;
#SUBTITLETRANSLIT:;
#ARTISTTRANSLIT:;
#CREDIT:;
#BANNER:bn.PNG;
#BACKGROUND:bg.PNG;
#LYRICSPATH:;
#CDTITLE:;
#MUSIC:Kors K MEGAMIX.mp3;
#OFFSET:-0.040;
#SAMPLESTART:144.620;
#SAMPLELENGTH:12.000;
#SELECTABLE:YES;
#BPMS:0.000=132.000,104.000=66.000,120.000=132.000,233.000=66.000,241.000=179.001,560.000=193.380,560.500=181.920,923.000=153.000,988.000=19.125,992.000=153.010,1020.000=76.505,1022.000=153.010,1084.000=306.021,1148.000=153.010;
#STOPS:152.000=1.364
,241.000=0.020
,273.000=1.006
,818.000=0.989
,818.500=0.825
,819.000=0.495
,819.500=0.310
,890.000=0.969
,923.000=2.725
,1050.000=0.392
,1051.000=0.196
,1051.500=0.196
;
#BGCHANGES:;

//---------------dance-single - ----------------
#NOTES:
     dance-single:
     :
     Hard:
     8:
     0.518,0.867,0.139,0.197,0.158:
0000
0000
0000
0000
,
0000
0000
0000
0000
,
0001
0000
0000
1000
0000
0000
0100
1000
,
0000
0000
0100
1000
0000
1000
0100
0010
,
0001
0000
0000
0000
0000
0000
0001
1000
,
0000
0000
0000
0010
,
0010
0000
0000
0100
0000
0000
0010
1000
,
0000
0000
0000
0000
0000
0001
1000
0010
,
0100
0000
0000
0000
,
0002
2003
3020
0130
,
0001
0000
0100
0000
1000
0100
1000
0000
,
0001
0000
0100
0000
0010
1000
0001
0000
,
0100
0000
0001
0000
0010
0100
0001
0000
,
0010
0000
0100
0000
1000
0001
0100
0000
,
1000
0000
0100
1000
0200
1000
0000
1000
,
0000
1000
0000
1000
0000
1000
0000
0000
,
2300
0000
0000
0200
0000
0000
3300
0000
,
0001
0100
0001
1000
0010
0000
0010
0000
,
0200
0000
0310
0000
0001
1000
0001
0000
,
0100
0000
0010
0000
0001
0100
0010
0000
,
0002
0000
1003
0000
1000
0100
1000
0000
,
0010
0000
0100
0000
0001
1000
0010
0000
,
1000
0100
0000
0010
0001
0000
0101
0000
,
0001
0100
0000
0010
1000
0000
0010
0000
,
0010
0000
0010
0000
0000
1000
0001
0000
1000
0000
0001
0100
0001
0000
0100
0000
,
0010
0000
1000
0100
1000
0000
0100
0000
0001
0000
1000
0000
0100
0000
0001
0000
,
1000
0000
0000
0001
0100
0001
0000
0100
0000
1000
0000
0100
0000
0020
0000
0032
,
0000
0000
0000
0200
0000
0000
0000
0000
0000
0000
0000
0000
0000
0000
0303
0000
,
0000
0000
0000
0010
0100
0010
0000
0001
0000
0000
1000
0100
0000
0010
0000
0002
,
0000
0000
0100
0000
0000
0000
2000
0000
0000
0000
3003
0000
0000
0010
0000
0010
,
0200
0000
0300
0010
,
1000
0000
0100
1000
0000
0200
0000
2000
,
0000
0000
0000
0000
,
3300
0000
0000
0000
0000
0002
0000
0000
,
0103
0000
0000
0000
0000
0000
0010
0100
,
0000
0000
0010
1000
0000
0002
0000
0200
,
0000
0000
0000
0003
,
0020
0000
0000
0000
,
0330
0000
0001
1000
0001
0000
0100
0000
,
0010
0000
0001
0100
0001
0000
1000
0000
,
0100
0000
0010
1000
0010
0000
0001
0000
,
1000
0000
0001
0100
1000
0000
0010
1000
,
0001
0000
0110
0000
0000
0010
0100
0020
,
0000
0100
0000
0100
0000
0100
0000
0100
,
0000
0230
0000
0000
0000
0020
0000
0000
,
0330
1001
1100
0011
,
0102
0000
0103
0010
0100
0000
0010
1000
,
0001
1000
0010
0100
0001
1000
0010
1000
,
0020
1030
0002
0103
,
0020
0000
0130
1000
0100
0010
0001
0010
,
0100
1000
0001
0000
0010
0000
0010
0200
,
0000
1000
0000
0000
0010
0010
0000
0010
,
0000
0001
0000
0000
0000
0010
0000
0000
,
2000
0000
0000
0000
,
3300
0000
0011
0000
0000
0100
0000
0000
,
0010
1000
0000
0000
0010
1000
0000
0001
,
1000
0010
0100
0000
0000
0000
0000
0000
,
1000
0100
0000
0000
0000
0000
0000
0000
,
0010
0000
0000
0000
0001
0000
0000
1000
0000
0000
0100
1000
0000
0000
0100
1000
,
0000
0001
0010
0100
1000
0000
0000
0000
0000
0000
0000
0000
0010
0100
0010
1000
,
0000
0010
0202
0000
0000
0000
0000
0000
,
0000
0000
0303
0000
0000
0000
0001
0010
,
0100
0010
1010
0000
0000
0000
0000
0000
,
0000
0001
0100
0000
0000
0000
0000
0000
,
0000
0110
0000
0000
,
0000
0010
1000
0010
0000
0000
0000
0000
,
0000
0100
0001
0000
0000
0100
1000
0000
,
0000
1000
0100
0001
0100
1000
0100
0010
,
0001
0010
1100
0000
1001
0000
0001
1000
,
0001
0100
0002
0000
0103
0000
0010
0100
,
0010
0100
0010
0010
0010
0000
0001
1000
,
0001
1000
0002
0000
1003
0000
1000
0100
,
0001
0100
0010
1000
0010
0000
0010
1000
,
0010
1000
0020
0000
1030
0000
1000
0100
,
0010
0001
0001
0001
0001
0000
0001
1000
,
0001
1000
0020
0000
0130
0000
0010
0000
,
0001
0000
1000
0000
0001
1000
0010
1000
,
0010
0100
0010
0100
0010
0000
1000
0000
,
0001
0000
0100
0000
1000
0100
0001
0010
,
1000
0001
1000
0010
1000
0000
0001
0000
,
2000
0000
3002
0000
0103
0001
1000
0010
,
1000
0001
1000
0010
1000
0000
0100
0000
,
1000
0000
0100
0000
1000
0100
0010
0001
,
0010
0100
0010
1000
0020
0000
0000
0000
,
0200
0000
0330
0000
0001
1000
0010
1000
,
0001
0100
0010
1000
0020
0000
0230
0000
,
0310
0000
0200
0000
0310
1000
0010
1000
,
0001
0100
0010
1000
0002
0000
1000
0000
,
1000
0000
1003
0000
0001
1000
0001
1000
,
0010
1000
0010
0100
0010
0001
0020
0000
,
0100
0000
0100
0030
0001
1000
0010
1000
,
0001
0100
0010
1000
0002
0000
2003
0000
,
3020
0000
0200
0030
0020
0000
0000
0000
,
0000
0000
0000
0000
,
0000
0000
0330
0000
,
0000
0000
0000
0000
,
0000
0000
1001
0000
,
0000
0000
0000
0000
,
0000
0000
0000
0000
,
0000
0000
0000
0000
,
0000
0000
1100
0000
,
0000
0000
0000
0000
,
0000
0101
0000
0010
0110
0000
0000
0000
,
0000
0000
1001
1001
,
1001
0000
0000
0010
0010
0000
0000
0000
,
0000
0100
0000
0100
0100
0000
0000
0000
,
0000
0000
0000
1000
0001
0000
0000
0100
,
0010
0000
0000
1000
0100
0010
0001
0010
,
0100
0010
1000
0010
1000
0000
0001
1000
,
0001
0100
0010
1000
,
0020
0000
0130
0000
1000
0000
0001
0100
,
0001
0010
2000
3100
,
0020
0000
0031
0000
0101
0000
0010
0100
,
0010
1000
0001
0100
,
0010
0000
1000
0000
0001
0000
1000
0001
,
0100
0010
1000
0001
2000
0000
0100
0000
,
0020
0000
3030
0000
0001
1000
0000
0100
,
0000
0010
0000
0001
0000
0010
0000
0100
,
0000
1000
0000
0001
0000
0100
0000
0010
,
0000
1000
0000
0100
0000
0010
0000
0001
,
0000
0010
0100
0000
0010
0000
0010
0100
,
0010
1000
0001
0100
,
1000
0000
0100
0000
1100
0000
1000
0100
,
0010
0001
0010
0100
0002
0000
0000
0000
,
2000
0000
3003
0000
0001
0000
0001
0100
,
0001
0000
0010
1000
0010
0000
0010
0000
,
0100
0000
1000
0000
0001
0000
0001
1000
,
0001
0100
0010
1000
,
1000
0100
0010
0001
0010
0000
0001
0100
,
0001
0010
0010
0100
,
1000
0000
0001
0000
0010
0000
0001
0100
,
1000
0010
1000
0100
,
0020
0000
0031
0001
,
1000
1000
0001
0100
,
0010
1000
0100
0010
,
0001
0000
0100
0000
0010
0100
0001
1000
,
0010
1000
0001
0100
0001
0000
0001
0000
,
0100
0010
1000
0100
,
0010
0001
0010
0100
,
1000
0010
0002
0000
,
2000
3003
1001
0000
,
0000
0000
0000
0000
,
0000
0000
0101
1100
,
0000
0000
0110
0000
,
0000
0000
0000
0001
0100
0000
0010
0000
,
1000
0001
1000
0100
,
0010
0000
0001
0000
0010
0100
0001
1000
,
0010
1000
0010
0200
0002
0000
0000
0000
,
0000
0000
0303
0000
0001
0100
0010
1000
,
0000
0000
0001
1000
0010
1000
0000
1001
,
0000
0000
1000
0100
0010
0001
0000
0011
,
0000
0000
0001
0100
0010
1000
0000
0010
,
0000
0000
1000
0100
0010
0001
0000
0001
,
0000
0000
0001
1000
0010
0100
0000
0010
,
0000
0000
0010
0100
0010
1000
0001
0000
,
0010
1000
0001
0000
1000
0100
0010
0001
,
0010
0100
0010
1000
0000
0001
1000
0000
,
1000
0100
0000
0100
0010
0000
0010
0001
,
0000
0001
0010
0000
0010
0100
0000
0010
,
0100
0000
0010
0100
0000
0001
1000
0000
,
1000
0100
0000
1000
0100
1000
0000
1000
,
0100
0000
0010
0001
0000
0010
0100
0000
,
0001
1000
0000
0010
1000
0000
0001
0100
,
0000
0000
0000
1000
0000
0000
0001
0000
0001
0000
0001
0000
,
1000
0001
0100
0010
0100
1000
0100
0000
,
0010
0100
0010
0000
0001
1000
0010
1000
,
0001
1000
0010
0000
0001
0100
0001
0000
,
0010
1000
0010
0000
0010
0100
0010
0000
,
0001
1000
0010
1000
0001
0100
0001
0000
,
1000
0100
1000
0000
0010
1000
0010
1000
,
0001
1000
0010
0000
0001
0100
0010
0000
,
0010
1000
0010
0000
0010
0100
0010
1000
,
0010
1000
0002
0000
1003
0000
0000
0000
,
1000
0000
1000
0000
,
1000
0000
0101
1100
,
0000
0010
0000
0010
,
0000
0000
0110
0000
,
0000
0000
0010
0000
,
0010
0000
0011
0011
,
0000
0000
0100
0000
,
1000
0000
1001
0000
,
0010
0000
0110
0000
,
1000
0000
1100
0000
,
0010
0000
0011
0000
,
0101
0000
0000
0000
0010
0100
0010
0100
,
0001
1000
0010
1000
0010
1000
0001
0010
,
0100
1000
0100
0010
0001
0100
0010
0100
,
0010
1000
0001
1000
0020
0000
0000
0000
,
0000
1000
1000
1030
0000
0001
1000
0001
,
0000
0010
0100
0010
0000
1000
0100
1000
,
0000
0010
0001
0010
0000
0001
0100
0001
,
0000
0010
1000
0010
0000
0010
0100
0010
,
0000
0001
1000
0010
0000
0001
0100
0001
,
0000
1000
0100
1000
0000
0010
1000
0001
,
0000
0010
1000
0001
0000
0100
1000
0010
,
0000
0001
1000
0010
0000
0010
0100
0010
,
0000
0001
1000
0010
0000
0001
0100
0001
,
0000
0001
1000
0001
0000
0001
0010
0001
,
0000
0001
1000
0001
0000
1000
0100
1000
,
0000
1000
0010
1000
0000
0010
1000
0001
,
0000
0010
1000
0001
0000
0010
0100
0010
,
0000
0010
0100
0010
0000
0010
1000
0010
,
0000
0001
0010
0001
0000
0100
1000
0100
,
0000
1000
0100
0010
0000
0001
1000
0010
,
0000
0100
0010
1000
2000
3002
0203
0310
,
0001
1001
0000
1001
0000
1001
0000
1001
,
0000
1001
0000
1001
0001
0010
0100
1000
,
0100
0010
0001
0010
0100
0010
1000
0001
,
2000
0000
3000
0000
0010
1000
0010
1000
,
0001
0100
0010
1000
0001
0010
1000
0001
,
2000
0000
3000
0000
0001
1000
0010
1000
,
0001
0000
0000
0100
0000
0000
0010
0000
0000
1000
0000
0000
0001
0000
0010
0000
0100
0000
1000
0000
0100
0000
0010
0000
,
0002
0000
0003
0000
1000
0001
1000
0010
,
1000
0100
0010
0001
0010
0100
0010
1000
,
0002
0000
0000
0000
1003
1000
0001
0100
,
0001
1000
0010
1000
0001
1000
0100
0010
,
0200
0000
0310
0000
1000
0100
1000
0100
,
0010
0001
1000
0100
0010
1000
0100
0010
,
0200
0000
0301
0000
0010
0100
1000
0100
,
0010
0000
0000
0001
0000
0000
1000
0000
0000
0100
0000
0000
0010
0000
1000
0000
0001
0000
0100
0000
0001
0000
1000
0000
,
0020
0000
0130
0000
0100
0010
0100
1000
,
0100
0001
1000
0010
1000
0001
1000
0100
,
0020
0000
0100
0000
0030
0000
0000
0001
,
1000
0001
0000
0010
0100
0010
0000
1000
,
0100
1000
0000
0010
0001
0010
0000
0001
,
0100
0001
0000
0010
0100
0010
0000
0001
,
1000
0001
0000
1000
0100
1000
0000
0010
,
0100
0010
0000
0001
1000
0001
0000
0001
,
0100
0001
0000
0010
1000
0010
0000
0001
,
0100
0001
0000
0010
1000
0010
1000
0100
,
0010
0001
0010
0100
0010
1000
1001
0000
,
0001
0000
0000
0001
0100
0000
0010
1000
0000
0010
0000
1000
0000
0010
1000
0000
,
0100
1000
0100
0000
0010
0001
0010
0000
,
0010
0000
0000
0010
0100
0000
0010
0100
0000
0010
0000
1000
0000
0001
1000
0000
,
0010
1000
0000
0010
1000
0000
0010
0000
0001
0000
0100
0001
0100
0000
0010
0000
,
0100
0000
0000
0100
0010
0000
0100
0010
0000
0001
0000
1000
0000
1000
0100
0000
,
0001
0010
0001
0000
0010
0000
0100
0000
1000
0100
1000
0000
0001
0000
1000
0000
,
0100
0000
0000
0001
1000
0001
0000
1000
0000
0001
0000
0010
0000
0100
1000
0000
,
1000
0100
0000
0100
0010
0000
0010
0001
0000
0001
0010
0000
0010
0100
0010
0100
,
0010
0000
0000
0010
0001
0000
1000
0100
0000
1000
0000
0100
0000
1000
0100
0000
,
0001
0100
0001
0000
1000
0010
1000
0000
,
1000
0000
0000
1000
0001
0000
1000
0001
0000
1000
0000
0100
0000
0010
0100
0000
,
1000
0100
0000
1000
0100
0000
1000
0000
0010
0000
0001
0010
0001
0000
1000
0000
,
0001
0000
0000
0001
1000
0000
0001
1000
0000
0010
0000
0100
0000
0100
0001
0000
,
0010
1000
0010
0000
1000
0000
0001
0000
0100
0001
0100
0000
0010
0000
0100
0000
,
0001
0000
0000
0010
0100
0010
0000
0100
0000
0010
0000
1000
0000
0001
0100
0000
,
0001
1000
0001
0000
1000
0000
0001
0100
0001
0000
1000
0001
1000
0000
0010
0000
,
0001
0000
0000
0020
0000
0000
0200
0000
0000
0000
0000
0000
0000
0000
0000
0000
0000
0000
0000
0000
0330
0000
0000
0000
0000
0000
0000
0000
0000
0000
0000
0000
1000
0100
0010
0002
0000
0000
0200
0000
0000
0003
0000
0020
0000
0000
0000
0000
0000
0000
0000
0000
0000
0000
0000
0000
0330
0000
0000
0000
0000
0000
0000
0000
,
1001
1100
0011
0101
,
1010
0000
0110
0000
1001
0000
0100
1000
,
1100
0011
0110
1001
,
1100
0110
1001
1010
,
0001
1000
0010
1000
0001
0010
0001
0010
,
0100
1000
0100
0001
0100
0001
1000
0010
,
1000
0001
1000
0001
1000
0001
1000
0001
1000
0001
1000
0001
1000
0001
1000
0001
,
2002
0000
3003
0000
1000
0100
1000
0100
,
0000
0010
0000
0100
0000
0010
0000
0010
0100
0000
0001
0000
1000
0000
0010
0000
,
0000
0001
0000
0100
0000
0001
0000
0001
0100
0000
0010
0000
1000
0000
0001
0000
,
0000
0010
0000
0100
0000
0010
0000
0010
0100
0000
0010
0100
0000
0010
0100
0010
,
0100
0000
0001
1000
0000
0001
0000
0010
0100
0000
0001
0000
0100
0000
0001
0000
,
0000
1000
0000
0001
0000
1000
0000
1000
0001
0000
0010
0000
0100
0000
1000
0000
,
0000
0010
0000
0001
0000
0010
0000
0010
0001
0000
1000
0000
0100
0000
0010
0000
,
0000
1000
0000
0001
0000
1000
0000
0000
2002
0000
3003
0000
0020
0000
0230
0000
,
0301
0010
0100
1000
0100
0010
1000
0000
,
0001
1000
0010
0100
0001
0100
0001
0100
,
0010
1000
0001
0010
0001
0010
0100
1000
,
0100
0001
1000
0010
1000
0001
0200
0000
,
0310
1000
0010
0001
0010
0100
1000
0001
,
1000
0010
1000
0100
1000
0100
0001
0010
,
1000
0001
0100
0010
1000
0100
0010
0001
,
0010
0100
0010
1000
0010
0100
0001
0000
,
1000
0010
0100
0001
,
0000
1000
0000
0100
0000
0010
0000
0001
,
0010
0100
0001
1000
,
0000
0001
0000
1000
0000
0010
0000
0010
,
0100
0010
1000
0001
,
0000
1000
0000
0100
0000
0010
0000
0001
,
0010
0000
0001
0010
0000
0010
0100
0010
,
0100
0000
0001
1000
0000
0010
0000
0001
,
1000
0010
1000
0001
,
0000
1000
0000
0100
0000
0010
0000
0001
,
1000
0001
0100
0010
,
0000
1000
0000
0100
0000
1000
0100
1000
,
0100
0010
0100
0001
,
0000
0010
0000
0100
0000
0001
0000
0010
,
1000
0000
0001
1000
0000
0010
0100
1000
,
0100
0000
0010
0001
0000
0010
0001
0000
,
2002
3003
0000
0000
;

//---------------dance-single - ----------------
#NOTES:
     dance-single:
     :
     Medium:
     6:
     0.383,0.578,0.141,0.248,0.007: // measure 1
0000
0000
0000
0000
,  // measure 2
0000
0000
0000
0000
,  // measure 3
0001
0000
0000
0001
0000
0000
0001
0100
,  // measure 4
0000
0000
0000
0000
0000
0001
0010
0100
,  // measure 5
1000
0000
0000
0000
0000
0000
0100
1000
,  // measure 6
0000
0000
0000
1000
,  // measure 7
0100
0000
0000
0100
0000
0000
0100
0010
,  // measure 8
0000
0000
0000
0000
0000
0010
0100
1000
,  // measure 9
0001
0000
0000
0000
,  // measure 10
1001
0000
0000
0000
,  // measure 11
0001
0100
0010
1000
,  // measure 12
0001
1000
0001
0100
,  // measure 13
0010
1000
0100
1000
,  // measure 14
0100
0010
0001
0010
,  // measure 15
0100
0000
0000
1000
0001
2000
0000
0100
,  // measure 16
0000
0100
0000
0100
0000
0100
0000
0200
,  // measure 17
0000
3000
0000
0300
,  // measure 18
1000
0001
0100
0010
,  // measure 19
0100
0010
1000
1001
,  // measure 20
0001
0100
1000
1100
,  // measure 21
1000
0100
0010
0001
,  // measure 22
0100
0000
0010
0000
1000
0001
1000
0000
,  // measure 23
0001
0000
0100
0000
0010
1000
0010
0000
,  // measure 24
1000
0100
0010
0001
,  // measure 25
0002
0000
0103
0010
,  // measure 26
0200
0010
0010
0301
,  // measure 27
2002
3003
0002
0003
,  // measure 28
2000
3000
0010
0100
,  // measure 29
0001
0000
1000
0000
,  // measure 30
0100
0000
0000
0000
0010
0000
0000
0001
,  // measure 31
2000
0000
0000
0000
3000
0000
0000
0001
,  // measure 32
0000
0100
0000
1000
0000
0100
0000
0010
,  // measure 33
0000
0001
0000
0010
0000
0100
0000
1000
,  // measure 34
0000
0001
0000
1000
0000
0002
0000
0000
,  // measure 35
2000
0000
0000
0000
3003
0000
0010
0100
,  // measure 36
0000
0000
0010
0100
0000
0010
0000
2000
,  // measure 37
0000
0000
0000
0000
0000
0000
0000
0002
,  // measure 38
0000
0000
0000
0000
,  // measure 39
3003
0000
0010
0000
0100
0000
0010
0100
,  // measure 40
0010
0000
1000
0000
0001
0000
0100
0001
,  // measure 41
0100
0000
0020
0000
1030
0000
0100
1000
,  // measure 42
0100
0000
0010
0000
0001
0000
0100
0010
,  // measure 43
0100
0000
0110
0000
0000
0001
1000
0002
,  // measure 44
0000
1000
0000
1000
0000
1000
0000
1000
,  // measure 45
0000
2000
0000
0000
0000
0003
0000
0000
,  // measure 46
0000
0000
0010
0000
0010
0000
3010
0100
,  // measure 47
0010
0000
0001
0000
1000
0000
0100
2000
,  // measure 48
0000
0100
0000
0010
0000
0001
0000
0010
,  // measure 49
0000
0200
0000
0000
0000
0000
0000
0000
,  // measure 50
0000
0000
0000
0000
,  // measure 51
3300
0000
0000
0000
0000
0001
0100
0001
,  // measure 52
0000
0100
0000
0000
0010
0100
0000
0010
,  // measure 53
0000
0020
0000
0000
0000
0100
0000
0000
,  // measure 54
0200
0000
0000
0000
,  // measure 55
0330
0000
0001
0000
0000
0001
0000
0000
,  // measure 56
0001
0010
0000
0000
0000
0000
0000
0001
,  // measure 57
0010
0100
1000
0000
0000
0000
0000
0000
,  // measure 58
1000
0100
0000
0000
0000
0000
0000
0000
,  // measure 59
1000
0000
0000
0000
1000
0000
0000
0100
0000
0000
0010
0001
0000
0000
0000
0000
,  // measure 60
0000
0001
0010
0100
1000
0000
0000
0000
0000
0000
0000
0000
0010
0000
0100
0000
,  // measure 61
1000
0001
2002
0000
0000
0000
3003
0000
,  // measure 62
0000
0000
0000
1000
,  // measure 63
0001
0101
0000
0000
,  // measure 64
0000
0010
0100
0000
0000
0000
0000
0000
,  // measure 65
0000
1001
0000
0000
,  // measure 66
0000
1000
0001
1000
0000
0000
0000
0000
,  // measure 67
0000
0010
0100
0000
0000
0010
0100
0000
,  // measure 68
0000
0010
0100
0000
0100
0000
0100
0000
,  // measure 69
0100
0000
0001
1000
,  // measure 70
0001
0200
0310
0001
,  // measure 71
1000
0000
0001
0100
0001
0000
0010
0000
,  // measure 72
1000
0020
0130
2000
,  // measure 73
0000
0000
3100
1000
,  // measure 74
0100
1000
0200
0000
0310
0000
0001
0000
,  // measure 75
1000
0000
0001
0100
0001
0000
0100
0000
,  // measure 76
0010
0020
0130
0002
,  // measure 77
0000
0003
1000
0001
,  // measure 78
0100
0010
0100
0000
0010
0000
1000
0000
,  // measure 79
0001
0000
0100
0001
0100
0000
0010
0000
,  // measure 80
1000
0100
1000
0000
0100
0000
1000
0000
,  // measure 81
0002
0000
0203
0000
0310
0000
0100
0010
,  // measure 82
0100
0010
0110
0001
,  // measure 83
1000
0000
0001
1000
0001
0000
0100
0000
,  // measure 84
1000
0100
1000
0000
2000
0000
0000
0000
,  // measure 85
0020
3030
0001
0100
,  // measure 86
1000
0001
0100
0020
,  // measure 87
0230
0320
1030
0001
,  // measure 88
0100
0000
0001
1000
0002
0000
1003
0000
,  // measure 89
0002
0103
0010
0100
,  // measure 90
1000
0000
0001
0000
0010
0100
0020
0000
,  // measure 91
1030
0001
1000
0100
,  // measure 92
0010
0001
0002
0103
,  // measure 93
2000
3100
0010
0000
,  // measure 94
0100
0000
1000
0000
,  // measure 95
0001
0000
1000
0000
,  // measure 96
0100
0000
0020
0000
,  // measure 97
0000
0000
0031
0000
,  // measure 98
0100
0000
0010
0000
,  // measure 99
1000
0000
0001
0000
,  // measure 100
1000
0000
0001
0001
,  // measure 101
0002
0000
1003
0000
,  // measure 102
0000
0000
0000
0000
,  // measure 103
0000
1000
0000
0001
1000
0000
0000
0000
,  // measure 104
0000
0000
0010
0010
,  // measure 105
0010
0000
0100
0000
,  // measure 106
0000
0000
0000
0010
0100
0000
0000
0000
,  // measure 107
0000
0000
0000
0001
1000
0000
0000
1000
,  // measure 108
0100
0000
0000
0010
0001
0000
0001
0000
,  // measure 109
0010
0000
0100
0000
0000
0000
0001
1000
,  // measure 110
0001
1000
0001
0100
,  // measure 111
0020
0000
0130
0000
0010
0000
0001
0100
,  // measure 112
0001
0010
2000
3100
,  // measure 113
0020
0000
0031
0000
0100
0000
0010
0100
,  // measure 114
0010
1000
0001
0100
,  // measure 115
0010
0000
1000
0000
0100
0000
0010
0001
,  // measure 116
0010
0001
0010
0100
2000
0000
0100
0000
,  // measure 117
0200
0000
3300
0000
0010
0000
0100
0010
,  // measure 118
0100
0010
1000
0001
,  // measure 119
2000
0000
3000
0000
0001
0000
1000
0001
,  // measure 120
1000
0001
0100
0010
,  // measure 121
2000
3000
0001
1000
,  // measure 122
0100
0010
0001
0010
,  // measure 123
0100
1000
0100
0010
,  // measure 124
0001
1000
0002
0000
,  // measure 125
0200
0303
0001
0000
,  // measure 126
1000
0000
0100
0000
,  // measure 127
0010
0000
0001
0000
,  // measure 128
0100
0000
0010
1000
,  // measure 129
0001
1000
0001
0000
,  // measure 130
0100
0000
0010
0000
,  // measure 131
1000
0000
0100
0000
,  // measure 132
1000
0000
0001
0100
,  // measure 133
0010
0000
1000
0000
,  // measure 134
0001
0000
0001
0000
,  // measure 135
1000
0000
0001
0000
,  // measure 136
0100
0000
0000
0000
0010
0100
0010
0100
,  // measure 137
0010
0100
0010
0100
0010
0000
0000
0000
,  // measure 138
0010
0000
1000
0000
,  // measure 139
0001
0000
1000
0000
,  // measure 140
0100
0000
0002
0000
,  // measure 141
0200
0303
1001
0000
,  // measure 142
0000
0000
0000
0000
,  // measure 143
0000
0000
0000
0010
0100
0000
0010
0000
,  // measure 144
0000
0000
1000
0000
,  // measure 145
0000
0000
0000
0001
0100
0000
0010
0000
,  // measure 146
1000
0001
0010
0100
,  // measure 147
1000
0000
0010
0000
0001
0010
1000
0001
,  // measure 148
1000
0010
0100
0002
2000
0000
0000
0000
,  // measure 149
3003
0000
0000
0000
0001
0100
0000
0010
,  // measure 150
0000
0000
0010
0000
0100
0010
0000
0100
,  // measure 151
0000
0000
0010
0000
1000
0001
0000
1000
,  // measure 152
0000
0000
0001
0000
0100
0010
0000
0010
,  // measure 153
0000
0000
1000
0000
0100
1000
0000
0100
,  // measure 154
0000
0000
1000
0000
0100
1000
0000
0100
,  // measure 155
0000
0000
0010
0000
0001
0010
0000
0001
,  // measure 156
0000
0000
0001
0010
0001
0010
0000
0010
,  // measure 157
0000
0000
0010
0200
0020
0000
0000
0000
,  // measure 158
0000
0000
0000
0000
,  // measure 159
0330
0000
0002
0000
,  // measure 160
0000
0000
0000
0000
,  // measure 161
1000
0000
2000
0000
,  // measure 162
0000
0000
0000
0000
,  // measure 163
0003
0000
0020
0000
,  // measure 164
0000
3030
0202
0000
,  // measure 165
0000
0000
0303
0000
0001
0100
0001
0000
,  // measure 166
0010
1000
0001
0010
,  // measure 167
0100
1000
0001
0000
0100
1000
0001
0000
,  // measure 168
0001
1000
0010
0100
,  // measure 169
0001
0100
1000
0000
0010
0000
1000
0000
,  // measure 170
0010
0001
0010
0000
1000
0000
0001
0000
,  // measure 171
0100
0010
1000
0000
0001
0000
0100
0000
,  // measure 172
0001
1000
0010
0100
,  // measure 173
0010
1000
0002
0000
0103
0000
0000
0000
,  // measure 174
0000
0000
0000
0000
,  // measure 175
0000
0000
0110
1001
,  // measure 176
0000
0000
0000
0000
,  // measure 177
0000
0000
1100
0000
,  // measure 178
0000
0000
0000
0000
,  // measure 179
0000
0000
0011
0101
,  // measure 180
0000
0000
0000
0000
,  // measure 181
0000
0000
0110
0000
,  // measure 182
0000
0000
0110
0000
,  // measure 183
0000
0000
0110
0000
,  // measure 184
0000
0000
0110
0000
,  // measure 185
0110
0000
1001
1001
,  // measure 186
1100
1100
0011
0011
,  // measure 187
0101
0000
0101
0000
1000
0100
0010
0001
,  // measure 188
1000
0100
0010
0001
0020
0000
0000
0000
,  // measure 189
0000
0000
0030
0000
0000
0001
0100
0000
,  // measure 190
0000
0010
0100
0000
0000
1000
0100
0000
,  // measure 191
0000
0010
0001
0000
0000
0010
0100
0000
,  // measure 192
0000
1000
0001
0000
0000
0100
0010
0000
,  // measure 193
0000
1000
0100
1000
0000
0010
0100
0000
,  // measure 194
0000
0001
1000
0000
0000
0010
1000
0000
,  // measure 195
0000
0001
0100
0000
0000
1000
0100
0000
,  // measure 196
0000
0010
0001
0000
0000
0010
0100
0000
,  // measure 197
0000
0010
0100
0010
0100
0000
0100
0000
,  // measure 198
1000
1000
0001
0001
,  // measure 199
0100
0000
0010
1000
0001
0000
1000
0000
,  // measure 200
0001
0100
1000
0010
,  // measure 201
0001
0000
0001
0100
0110
0000
0010
0000
,  // measure 202
0100
1000
1000
0001
,  // measure 203
0100
1000
1100
0010
,  // measure 204
0001
0100
1000
0100
,  // measure 205
0010
0000
0001
0000
1001
1000
1000
1000
,  // measure 206
1000
0100
0000
0100
0000
0100
0000
0100
,  // measure 207
0000
0100
0000
0100
0010
0000
0001
0000
,  // measure 208
0100
1000
0010
0100
,  // measure 209
0001
1000
0001
1000
0001
0000
0100
0000
,  // measure 210
1000
0100
0010
0001
,  // measure 211
0100
0001
0100
0000
0010
0000
1000
0000
,  // measure 212
0001
0100
0010
1000
,  // measure 213
0001
1000
0001
1000
0001
0000
0100
0000
,  // measure 214
0010
1000
0010
1000
,  // measure 215
0001
0001
0001
0000
1000
0100
1000
0100
,  // measure 216
1000
0100
1000
0100
1000
0100
1000
0100
,  // measure 217
2000
0000
3000
0000
0010
0001
0010
0001
,  // measure 218
0010
0001
0010
0001
0010
0001
0010
0001
,  // measure 219
0020
0000
0030
0000
0001
1000
0001
1000
,  // measure 220
0001
1000
0001
1000
0001
1000
0001
1000
,  // measure 221
0002
0000
0003
0000
0100
0010
0100
0010
,  // measure 222
0100
0010
0100
0010
0001
0010
0100
1000
,  // measure 223
0100
0010
0002
0000
1003
0000
0000
0001
,  // measure 224
0100
0000
0000
0010
0100
0000
0000
1000
,  // measure 225
0100
0000
0000
0010
0001
0000
0000
0100
,  // measure 226
0010
0000
0000
0001
1000
0000
0000
1000
,  // measure 227
0100
0000
0000
0010
0001
0010
0000
0100
,  // measure 228
0001
0000
0000
0010
0100
0000
0000
1000
,  // measure 229
0100
0000
0000
0010
0001
0000
0010
0100
,  // measure 230
0010
0000
0001
1000
0001
0000
0010
1000
,  // measure 231
0010
0000
0001
0010
0100
1000
1100
0000
,  // measure 232
0002
0000
0103
0000
0010
1000
0001
0000
,  // measure 233
2000
3100
0020
0031
,  // measure 234
0120
0000
0130
0000
0010
1000
0001
0000
,  // measure 235
2000
3100
0020
0031
,  // measure 236
0102
0000
0103
0000
0010
1000
0001
0000
,  // measure 237
1000
0100
0002
0000
0100
0000
1003
0000
,  // measure 238
1020
0000
0130
0000
0001
1000
0010
0000
,  // measure 239
0011
0000
0000
0110
0000
0000
1100
0000
0000
0011
0000
0000
0001
0000
1000
0000
,  // measure 240
0002
0000
0000
0203
0000
0000
0020
0000
,  // measure 241
0000
0000
0000
0000
0330
0000
0010
1000
,  // measure 242
0010
0000
0001
0000
0001
0100
1000
0000
,  // measure 243
0010
0000
1000
0000
0001
1000
0010
0000
,  // measure 244
2000
0100
0010
0010
,  // measure 245
3010
0100
0010
1000
0001
1000
0010
0000
,  // measure 246
0102
0103
2100
3100
,  // measure 247
1000
0100
0020
0000
0031
0200
0010
0000
,  // measure 248
0320
0000
0000
0000
0200
0000
0000
0330
,  // measure 249
1001
1001
0101
0101
,  // measure 250
1010
1010
1100
1100
,  // measure 251
0011
0011
0101
0101
,  // measure 252
1100
1010
0011
0101
,  // measure 253
1000
0001
1000
0000
1000
0000
1100
0000
,  // measure 254
0010
0001
0010
0000
0100
0000
0001
0000
,  // measure 255
0001
0010
0100
1000
0001
0010
0100
1000
,  // measure 256
0002
0000
2000
3003
0001
1000
0001
0000
,  // measure 257
0200
0000
0310
0000
1000
0100
1000
0000
,  // measure 258
0020
0000
0130
0000
0001
1000
0010
0000
,  // measure 259
0200
0310
2000
0100
,  // measure 260
0010
0000
3001
0000
0001
0100
0001
0000
,  // measure 261
0200
0000
0310
0000
0010
1000
0001
0000
,  // measure 262
0200
0000
1300
0000
0010
1000
0002
0000
,  // measure 263
0103
0000
0010
0000
1001
0000
0110
0110
,  // measure 264
0010
0100
0020
0000
0130
0000
1000
0000
,  // measure 265
0100
1000
0200
0000
1000
0000
0310
0000
,  // measure 266
0001
0100
0002
0000
0100
0000
0013
0000
,  // measure 267
0010
0100
0020
0000
0100
0000
1030
0000
,  // measure 268
0001
1000
0002
0000
0100
0000
0013
0000
,  // measure 269
0010
0100
0020
0000
0100
0000
0130
0000
,  // measure 270
1000
0100
2000
0000
0100
0000
3001
0000
,  // measure 271
0010
0100
0010
0000
1000
0001
0000
0000
,  // measure 272
1000
0001
1000
0000
,  // measure 273
0200
0000
1300
0000
,  // measure 274
0010
0001
0010
0000
,  // measure 275
0200
0000
0310
0000
,  // measure 276
0001
1000
0002
0000
,  // measure 277
0103
0000
0010
0000
,  // measure 278
0010
0100
0001
1000
,  // measure 279
0010
1000
0001
0100
,  // measure 280
0001
0100
0002
0000
,  // measure 281
0100
0000
0013
0000
,  // measure 282
1000
0100
2000
0000
,  // measure 283
0100
0000
3010
0000
,  // measure 284
0001
0100
0020
0000
,  // measure 285
0100
0000
0130
0000
,  // measure 286
1000
0000
0100
0000
,  // measure 287
0010
0000
0001
0000
,  // measure 288
2002
3003
0000
0000
;
