#TITLE:[MEGAMIX] Eurobeat;
#SUBTITLE:;
#ARTIST:DJ Euro;
#TITLETRANSLIT:;
#SUBTITLETRANSLIT:;
#ARTISTTRANSLIT:;
#CREDIT:;
#BANNER:bn.PNG;
#BACKGROUND:bg.PNG;
#LYRICSPATH:;
#CDTITLE:;
#MUSIC:MEGAMIX Eurobeat.mp3;
#OFFSET:1.020;
#SAMPLESTART:15.120;
#SAMPLELENGTH:15.000;
#SELECTABLE:YES;
#BPMS:0.000=163.000,207.000=152.000,447.000=154.000,644.750=156.440,645.000=156.440;
#STOPS:107.000=0.020
,495.000=1.149
,508.000=1.169
,551.000=0.370
,612.000=1.149
;
#BGCHANGES:;

//---------------dance-single - ----------------
#NOTES:
     dance-single:
     :
     Hard:
     9:
     0.593,0.856,0.353,0.228,0.179:
0000
0000
0000
0000
,
0000
0000
0000
0000
,
0000
0000
0000
0000
,
1100
0000
1000
0100
1000
0000
0010
0000
,
0001
1000
0001
0100
0010
0001
0010
0001
,
0100
0001
1000
0010
1000
0010
1000
0010
,
1000
0100
0010
0001
,
0001
1000
0010
1000
0001
0000
1000
0000
,
1000
0100
0010
0001
0010
0100
0001
0100
,
0010
1000
0010
1000
0100
0010
0001
0010
,
1000
0001
0000
1000
0000
0100
0000
0001
1000
0000
0000
0000
0000
0000
0000
0000
,
1000
0000
1000
0000
1000
0000
1000
0100
,
0001
0100
0000
0100
0000
0001
0010
0100
,
1000
0100
0010
0001
0010
1000
0001
1000
,
0001
0000
1000
0000
0001
0000
0100
0000
0010
0000
0001
0000
,
0011
0000
1100
0000
0110
0000
0001
1000
,
0001
1000
0000
0001
0000
1000
0100
0010
,
0001
0000
0001
0000
0001
0100
0001
1000
,
0010
0000
0100
0000
1000
0000
0001
0000
1000
0000
0000
0000
,
1000
0100
1000
0000
0001
0100
0001
0000
,
0010
0001
0010
0000
1000
0010
1000
0010
,
0000
1000
0100
0010
0001
0010
0000
0001
,
0000
0001
1000
0001
0100
0001
0000
0000
,
0010
0100
0110
0000
1000
0100
1100
0000
,
0010
0001
0011
0000
0001
0100
0010
1000
,
0000
2000
0000
0000
0000
0001
0000
0001
,
0000
0002
0000
0000
0000
0000
3003
0000
,
0001
0100
0001
0100
0010
1000
0010
1000
,
0100
0010
0001
0010
0100
0000
0000
0000
,
0001
1000
0010
1000
0001
1000
0010
0001
,
0010
0100
1000
0100
0001
0000
0000
0000
,
0001
1000
0010
1000
0001
1000
0010
1000
,
0001
0010
0100
1000
0100
0000
0000
0000
,
1000
0100
0010
0001
0010
0000
0000
0000
,
1001
0101
1010
0110
,
0010
0100
0001
1000
0010
0100
0001
1000
,
0010
1000
0100
0010
0001
0000
0011
0000
,
0001
0100
0001
0100
0010
1000
0010
1000
,
0001
0100
0010
1000
0001
0000
1001
0000
,
1000
0100
1000
0100
0010
0001
0010
0001
,
1000
0100
0010
0001
0010
0000
0101
0000
,
0001
1000
0010
1000
0010
0000
0000
1000
,
0000
1000
0100
0010
0001
0000
0002
0200
,
0000
0000
0000
0303
,
0001
1000
0010
0000
1000
0000
0100
0000
,
1000
0100
0010
0001
0010
0100
0010
1000
,
0001
1000
0001
0100
0001
0100
0010
2000
,
0000
3001
0100
0010
0100
0000
0020
2000
,
0000
0000
0000
3030
,
1000
0100
0010
0001
0010
0100
0010
1000
,
0001
0100
0010
1000
0001
1000
0010
1000
,
0001
1000
0000
0001
0000
0010
0000
1000
0100
0000
0000
0000
1100
0000
0000
0000
,
0110
0000
0010
0100
0010
0000
0000
0000
0110
0000
1000
0100
1000
0000
0000
0000
,
0010
0000
0000
0001
0000
0000
0100
0000
0000
0000
0000
0000
0001
0000
1000
0000
,
0001
1000
0001
0000
1000
0000
0001
0100
,
0001
0100
0010
1000
0010
1000
0001
1000
,
0010
1000
0002
0000
0103
0000
1000
0100
,
1000
0000
0010
0001
0010
0000
0001
0100
,
0010
1000
0010
0000
1000
0100
0010
0001
,
0010
0100
1000
0001
1000
0001
0100
0001
,
1000
0000
0001
0000
2000
0000
0000
0000
3001
0000
0000
0000
0001
0100
0001
0100
,
0001
0000
0100
0000
1000
0100
1000
0100
1000
0000
0001
0000
1000
0000
0100
0000
,
0010
0000
0001
0000
0010
0000
0100
0000
0010
0000
1000
0000
0001
0100
0001
0100
,
0000
1000
0100
0010
0001
0010
0100
1000
0100
0010
0001
0010
1000
0000
0001
0000
,
1000
0000
0001
0000
1000
0000
0001
0000
0100
0000
0010
0000
0010
0100
0010
0100
,
0000
1000
0100
1000
0100
1000
0100
1000
0100
1000
0100
1000
0100
0000
1000
0000
,
0010
0000
0001
0000
0010
0000
0100
0000
0010
0000
1000
0000
0001
0100
0001
0100
,
0000
0010
1000
0010
1000
0010
1000
0010
1000
0010
1000
0010
1000
0000
0100
0000
,
0010
0000
0001
0000
0010
0000
0100
0000
0010
0000
1000
0000
0001
1000
0001
1000
,
0000
0010
0001
0010
0001
0010
0001
0010
0100
1000
0100
1000
0100
0000
0000
0000
,
1100
0000
0001
1000
0001
1000
0000
1100
,
0000
0011
0000
0001
0100
0001
0000
0110
,
0000
0001
0000
1000
0000
0100
0000
0010
,
0000
0000
0001
0000
0100
0010
0100
0000
0010
0000
1000
0000
1001
0000
0000
0000
,
1100
0000
0001
1000
0001
1000
0000
0101
,
0000
1100
0000
0010
1000
0010
0000
1000
,
0000
0010
0000
0001
0000
0000
0002
0000
,
0000
0103
0000
0000
0110
0000
2000
0000
,
0000
0200
0000
3300
1100
0000
1000
0000
,
0010
0000
0010
0100
0000
0000
0010
0000
0000
0000
0000
0000
1000
0000
0100
0000
,
0010
0001
0010
0100
0010
0000
0000
0001
,
1000
0001
0100
0001
1000
1001
0000
1001
,
0000
0000
1100
0110
0011
0000
1001
0000
,
0001
0000
0001
1000
0000
0000
0001
0000
0000
0000
0000
0000
1000
0000
0100
0000
,
0001
0010
0001
0010
0001
0000
0000
0001
,
0100
0001
1000
0010
1000
1010
0000
0011
,
0000
0000
1010
0011
1001
0000
0001
0000
,
1000
0000
0001
0100
0000
0000
0010
0000
0000
0000
0000
0000
1000
0000
0100
0000
,
0010
0001
0010
1000
0001
0000
0000
0001
,
1000
0001
0100
0001
0100
0101
0000
1100
,
0000
0000
0101
1100
0101
0000
0110
0000
,
0010
0000
0000
0100
0000
0000
1000
0000
0000
0000
0000
0000
1000
0000
0100
0000
,
0010
0001
0010
0100
0010
0000
0000
0001
,
1000
0001
0100
0001
1000
1001
0000
1001
,
0000
0000
0000
0000
1001
0000
0110
0000
1001
0000
0000
0000
1000
0000
0000
1000
,
0100
0000
0000
0000
0010
0001
0010
0001
0010
0000
0001
0100
0001
0000
1000
0000
,
0001
1000
0002
0000
0103
0000
1000
0100
,
1000
0000
0010
0001
0010
0000
0001
0100
,
0001
1000
0020
0000
1030
0000
0002
0000
,
0000
0000
0000
0000
0003
0000
0001
1000
,
0001
0100
0002
0000
0103
0010
0100
0001
,
1000
0010
1000
0010
1000
0010
0100
0001
,
0100
0010
0200
0000
0310
0000
0002
0000
,
0000
0000
0000
0000
0003
0000
1000
0001
,
1000
0001
2000
0000
3100
0000
1000
0100
,
1000
0000
0010
0001
0010
0000
0001
0100
,
0001
1000
0020
0000
1030
0000
1000
0100
,
1000
0000
0010
0001
0010
0000
0001
0100
,
0001
1000
0002
0000
1003
0000
1000
0100
,
0010
0000
0001
0100
0010
0000
0001
1000
,
0010
0000
0100
0000
0020
0000
0000
0000
0130
0000
0000
0000
1000
0100
1000
0100
,
1000
0000
0100
0000
0001
0010
0001
0010
0001
0000
0001
0000
1001
0000
0101
0000
,
0010
0000
1000
0100
0000
0010
0000
0001
0000
1000
0000
0000
1001
0000
0101
0000
,
0001
0000
1000
0100
0000
0010
0000
0001
0000
0100
0000
0000
0000
0000
0000
0000
,
0000
0000
0000
0000
,
0000
0000
0000
0000
1000
0100
0000
0010
0000
0001
0100
0001
0100
0000
0010
0000
,
1000
0000
0001
0000
0010
0000
0000
0001
0000
0000
0010
0000
0100
0000
1000
0000
,
0100
0000
0010
0000
0001
0000
0000
1000
0000
0000
0001
0000
1000
0000
0001
0000
,
0100
0000
0010
1000
0001
0000
1000
0001
,
1000
0001
0100
0001
0100
0001
0001
1000
,
0010
0000
1000
0000
0010
0000
0000
1000
0000
0000
0001
0000
1000
0000
0100
0000
,
1000
0000
0100
0000
1000
0000
0000
0100
0000
0000
0010
0000
0001
0000
0100
0000
,
0001
0000
0010
1000
0010
0000
0001
0001
,
1000
1000
0001
0001
0100
0100
0000
0000
,
1100
1100
0101
0101
,
0001
1000
0001
1000
0001
0000
0100
0000
,
0010
1000
0001
1000
0010
1000
0100
0001
,
1001
0110
0110
0110
,
0110
0000
0001
1000
0001
1000
0001
0000
,
0100
0000
1000
0100
0001
0100
0001
1000
,
0001
1000
0001
0100
0010
1000
0001
1000
,
0010
1000
0001
1000
0010
2000
0000
0000
,
3000
0000
1000
0100
1000
0100
0010
0001
,
0010
0001
1000
0100
0010
0002
0000
0000
,
0003
0000
0001
0100
0001
0100
0010
1000
,
0010
1000
0001
0100
0010
2000
0000
0000
,
3000
0000
1001
1001
1001
1001
1001
1001
,
1001
1001
1001
1001
1001
1001
1001
0000
,
0010
0000
1000
0000
0010
0000
0010
1000
0000
1000
0000
0100
0000
0010
0000
0000
,
0001
0000
1000
0000
0001
0000
0001
0100
0000
0001
0000
1000
0000
0010
0000
0000
,
0000
0000
1000
0000
0000
0000
0100
0000
1000
0000
0000
0100
0000
0000
0010
0000
,
0001
0000
0001
0100
0001
1000
0001
1000
,
0001
0000
1000
0000
0100
0000
1000
0100
0000
0010
0000
0001
0000
0010
0000
0000
,
0001
0000
1000
0000
0001
0000
0001
0100
0000
0001
0000
1000
0000
0010
0000
0000
,
0000
0000
1000
0000
0000
0000
0100
0000
1000
0000
0000
0100
0000
0000
0010
0000
,
0001
0000
0001
1000
0001
1000
0001
1000
,
0101
0000
0100
0000
0010
0000
0010
1000
0000
0001
0000
1000
0000
0010
0000
0000
,
1100
0000
0100
0000
1000
0000
0100
1000
0000
0100
0000
0010
0000
0001
0000
0000
,
0000
0000
1000
0000
0000
0000
0100
0000
1000
0000
0000
0100
0000
0000
0010
0000
,
0001
0000
0001
1000
0001
1000
0001
1000
,
0101
0000
0001
0000
0100
0000
0001
0100
0000
0001
0000
0100
0000
0010
0000
0000
,
1010
0000
1000
0000
0100
0000
0010
0001
0000
0010
0000
0100
0000
0001
0000
0000
,
0000
0000
0001
0000
0000
0000
1000
0000
1100
0000
0000
0110
0000
0000
0011
0000
,
1001
0000
0000
0000
1000
0000
0100
0000
1000
0000
0100
0000
1000
0000
0000
1000
,
0000
0000
1000
0000
1000
0000
0100
0000
0010
0000
0001
0000
0010
0000
0000
0001
,
0000
1000
0100
0010
0100
0000
0010
1000
,
0010
0000
1000
1000
0001
0001
0100
0100
,
0010
0000
0010
0000
1000
0000
0100
0000
0010
0000
0001
0000
0010
0000
0000
0001
,
0000
0000
0010
0000
0100
0000
0010
0000
0100
0000
0010
0000
1000
0000
0000
0001
,
0000
1000
0100
1000
0100
0000
0010
0001
,
0010
0000
0001
0001
1000
1000
0001
0001
,
0100
0010
0120
0000
0000
0200
0000
0000
,
0000
0330
0000
1001
,
1100
0000
0012
0000
0000
0010
0000
0000
,
0010
0020
0033
1100
,
0002
0200
0000
0000
0000
0000
0000
0000
,
0000
0000
0000
0000
0000
0303
0000
0001
,
0000
1000
0100
0000
1000
0100
0000
0010
,
0000
0001
0010
0000
0001
0010
0000
0001
,
0100
0001
1000
0000
0001
0100
0001
0000
,
0100
0000
1000
0000
0100
0000
0010
0001
,
0010
0100
0001
0000
0010
0200
0000
0310
,
1000
0000
0001
0000
1000
0200
0000
0000
,
1300
0000
1000
0100
0000
0010
0000
0001
,
0000
1000
0000
0001
0000
0100
0010
0000
,
1000
0000
0100
0000
1000
0100
0000
0010
,
0200
0002
0000
0303
,
0101
2002
0000
3003
,
1100
0220
0000
0330
,
0001
2002
3003
1000
,
0100
0000
0010
0001
0100
0000
0001
0100
,
0001
1000
0001
0100
,
0110
0120
0100
0100
,
0130
0000
1010
0000
0001
0010
0000
0100
,
1000
0000
0100
0000
1000
0000
0001
1000
,
0010
1100
0020
0130
,
0001
1000
0010
0000
0101
0000
1100
0000
,
0011
0000
0001
0000
1000
0100
0000
0010
,
0001
0000
0001
0000
1000
0000
0001
0100
,
0010
1000
0002
0000
1000
0000
1000
0000
,
1000
0100
0100
0100
,
0100
0010
0010
0010
,
0010
0100
0010
1000
,
0010
0000
1003
0100
1000
0100
0000
0000
,
0000
0000
0010
0001
0010
0001
0000
0000
,
0000
0000
0001
0100
0001
0100
0000
0000
,
0000
0000
0010
1000
0010
1000
0000
0001
,
0001
0001
2002
0000
3003
0202
0000
0303
,
0000
0000
0000
0000
0000
0000
2200
3300
,
0220
0330
0022
0000
0033
0202
0000
0303
,
2200
3300
0220
0000
0330
0000
0110
0000
,
1100
2002
0000
0000
0000
0000
0000
0000
,
0000
0000
0000
0000
0000
0000
0000
0000
3003
0000
0000
0000
1000
0000
0001
0100
,
0001
1000
2200
0000
3300
0022
0000
0000
,
0000
0033
0000
0101
,
1010
0000
0220
0000
0330
2002
0000
3003
,
1100
0022
0033
0101
,
1010
0202
0000
0000
0000
0000
0000
0000
,
0000
0000
0000
0000
0303
0000
0000
1000
,
0000
0001
1000
0000
1000
0100
0000
0010
,
0000
0001
0100
0000
0001
1000
0000
0001
,
1000
0001
0100
0000
0010
0100
0000
0000
,
0000
0000
0000
0000
0000
0000
1000
0100
,
1000
0100
1000
0000
1000
0100
0000
0010
,
0002
0000
0103
0000
0001
2000
0000
3001
,
0200
0000
0301
0100
0000
0010
0000
1000
,
0000
0100
0000
0010
0000
0000
0001
0000
,
1000
0000
0002
0000
0000
0100
0000
0000
,
0010
2000
0000
0000
,
0000
3003
0000
0000
;

//---------------dance-single - ----------------
#NOTES:
     dance-single:
     :
     Medium:
     6:
     0.385,0.507,0.220,0.165,0.003: // measure 1
0000
0000
0000
0000
,  // measure 2
0000
0000
0000
0000
,  // measure 3
0000
0000
0000
0000
,  // measure 4
0001
0000
0001
0000
0100
0000
0010
0100
,  // measure 5
0010
1000
0100
0010
,  // measure 6
0001
0000
1000
0001
0100
0000
0010
0000
,  // measure 7
1000
1000
0001
0001
,  // measure 8
1000
0000
0001
0100
0001
0000
0100
0000
,  // measure 9
0010
0010
0100
0100
,  // measure 10
0010
0000
1000
0001
0100
0000
0010
0000
,  // measure 11
1000
0100
0010
0000
,  // measure 12
0001
1000
0100
0001
,  // measure 13
0100
0010
0000
0100
0000
0000
1000
0000
,  // measure 14
0100
0000
0010
0000
0001
0000
0100
0010
,  // measure 15
0100
0100
0010
0010
,  // measure 16
1001
0101
1100
0010
,  // measure 17
1000
0001
0100
0000
0001
0000
1000
0001
,  // measure 18
0100
0010
1000
0010
,  // measure 19
1000
1000
1000
0000
,  // measure 20
0001
0100
0001
0000
1000
0100
1000
0000
,  // measure 21
0010
0100
0010
0000
0010
0100
0010
0000
,  // measure 22
1000
0100
0010
0000
,  // measure 23
0001
0100
0010
0000
,  // measure 24
0001
1000
0001
0000
1000
0100
1000
0000
,  // measure 25
0010
0001
0010
0000
0001
0100
0001
0100
,  // measure 26
0000
0100
0000
0000
0000
0010
0000
2000
,  // measure 27
0000
0002
0000
0000
3003
0000
0000
0000
,  // measure 28
0010
0010
0100
0100
,  // measure 29
1000
0100
0001
0100
0001
0000
0000
0000
,  // measure 30
0001
0001
1000
1000
,  // measure 31
0010
1000
0010
0100
0001
0000
0000
0000
,  // measure 32
1000
1000
0001
0001
,  // measure 33
0010
0100
0010
0100
0001
0000
0000
0000
,  // measure 34
0001
1000
0001
1000
0001
0000
0000
0000
,  // measure 35
1100
1100
1100
1100
,  // measure 36
0001
1000
0100
0010
,  // measure 37
0001
0100
0001
0100
0001
0000
0000
0000
,  // measure 38
0001
1000
0001
0100
,  // measure 39
0010
1000
0010
1000
0010
0000
0000
0000
,  // measure 40
1000
1000
0001
0001
,  // measure 41
0100
0010
0100
0010
0100
0000
0000
0000
,  // measure 42
0010
0000
1000
0000
0100
0000
0000
0010
,  // measure 43
0000
0001
0100
0010
1000
0000
0002
0200
,  // measure 44
0000
0000
0000
0303
,  // measure 45
0001
0000
1000
0001
1000
0000
0100
0000
,  // measure 46
1000
0100
0010
0001
,  // measure 47
0100
0000
0001
0000
1000
0000
0010
0100
,  // measure 48
0000
0010
1000
0010
1000
0000
0002
0200
,  // measure 49
0000
0000
0000
0303
,  // measure 50
0001
1000
0001
0100
,  // measure 51
0010
1000
0100
0010
,  // measure 52
0001
1000
0010
1001
,  // measure 53
0001
1000
0100
0010
,  // measure 54
1000
0000
0000
0001
0000
0000
0100
0000
0000
0000
0000
0000
0010
0000
0100
0000
,  // measure 55
0010
0000
2000
0000
3100
0000
1000
1000
,  // measure 56
1000
0001
0100
0010
,  // measure 57
0001
0100
0001
0000
0101
0000
0001
1000
,  // measure 58
0001
0000
0200
0000
0310
0000
1000
0100
,  // measure 59
1000
0000
0020
0000
0130
0000
0001
1000
,  // measure 60
0001
0000
1000
0000
0100
0000
0010
0001
,  // measure 61
0010
0000
0200
0000
0310
0000
1000
0100
,  // measure 62
1000
0000
0001
0100
0001
0000
1000
0000
,  // measure 63
0001
0100
0010
1000
,  // measure 64
1000
0001
0001
1000
,  // measure 65
0100
0000
0010
0000
0001
0000
0100
0001
,  // measure 66
0100
0010
1010
1000
,  // measure 67
0100
0000
0010
0000
0001
0000
0100
0001
,  // measure 68
0100
0010
0110
1000
,  // measure 69
0001
0000
1000
0000
0100
0000
1000
0100
,  // measure 70
1000
1000
1100
0010
,  // measure 71
0100
0000
0010
0100
0010
0100
0000
0100
,  // measure 72
0000
0100
0000
1000
0001
1000
0000
1000
,  // measure 73
0000
0100
0000
0010
0000
0001
0000
0010
,  // measure 74
0000
0100
0000
0000
0000
0000
1001
0000
,  // measure 75
0110
0000
0010
0100
0001
1000
0000
1000
,  // measure 76
0000
1000
0000
1000
0001
1000
0000
0001
,  // measure 77
0000
0100
0000
0010
0000
0000
0110
0000
,  // measure 78
0000
0110
0000
0000
0000
0000
1100
0000
,  // measure 79
0000
0011
0000
0000
0000
0000
0001
0000
,  // measure 80
1000
1001
0000
0010
,  // measure 81
0100
0000
1000
0100
1000
0000
0000
0000
,  // measure 82
1000
0000
0100
0000
0010
0000
0000
0001
,  // measure 83
0000
0000
0010
0100
0010
0000
0110
0000
,  // measure 84
1000
0100
0000
1000
,  // measure 85
0001
0100
0010
0000
,  // measure 86
1000
0000
0100
0000
0010
0001
0000
1000
,  // measure 87
0000
0000
0001
0001
0001
0000
0001
0000
,  // measure 88
1000
0101
0000
0010
,  // measure 89
0100
0000
1000
0001
1000
0000
0000
0000
,  // measure 90
1000
0000
0100
0000
0000
0010
0000
0001
,  // measure 91
0000
0000
1000
1000
1000
0000
1001
0000
,  // measure 92
0001
0100
0000
0010
,  // measure 93
0100
0000
1000
0100
1000
0000
0000
0000
,  // measure 94
1000
0000
0100
0000
1000
0100
0000
0010
,  // measure 95
0000
0000
1001
1001
1001
0000
0101
0000
,  // measure 96
1010
0000
0110
0010
0100
0000
1000
0000
,  // measure 97
0100
0000
0020
0000
0130
0010
1000
0000
,  // measure 98
0001
0000
1000
0000
0100
0000
0010
0001
,  // measure 99
0010
0100
0010
2000
,  // measure 100
0000
0000
0000
0000
3000
0000
0010
1000
,  // measure 101
0010
0000
0100
0000
0110
0000
0001
1000
,  // measure 102
0001
0000
0100
0001
0100
0000
0010
0100
,  // measure 103
0010
1000
0001
0200
,  // measure 104
0000
0000
0000
0000
0300
0000
0010
1000
,  // measure 105
0010
0000
1000
0000
0100
1000
0100
0000
,  // measure 106
0100
0000
0010
0000
0010
0000
0001
0100
,  // measure 107
0001
1000
0001
0200
,  // measure 108
0000
0000
0020
0000
0330
0000
0001
1000
,  // measure 109
0001
0100
0001
0020
,  // measure 110
1030
0000
0200
0000
1300
0000
0100
1000
,  // measure 111
0100
0010
1000
0002
,  // measure 112
0000
0200
0303
1100
,  // measure 113
0010
0000
0001
0100
0010
0000
1001
0000
,  // measure 114
0010
0000
0100
0001
1000
0000
0000
0000
,  // measure 115
0000
0000
0000
0000
,  // measure 116
0000
0000
0000
0000
0000
0000
1000
0100
,  // measure 117
1000
0000
0100
0000
0010
0000
0001
0010
,  // measure 118
0001
0010
0100
0002
,  // measure 119
0003
2000
3000
0010
,  // measure 120
0010
0000
0100
0000
0100
0000
0010
1000
,  // measure 121
0010
0000
2000
0000
3100
0000
0010
0001
,  // measure 122
0010
0200
0301
1000
,  // measure 123
1000
0000
0001
0000
0001
0000
1000
0100
,  // measure 124
0010
0001
1000
0100
0010
0001
0000
0000
,  // measure 125
0001
0001
1000
1000
,  // measure 126
0001
0100
0010
0000
,  // measure 127
0010
0010
0100
1000
,  // measure 128
1001
0001
0001
1000
,  // measure 129
1000
0000
1000
0100
1000
0000
0100
0000
,  // measure 130
0010
0001
0001
1000
,  // measure 131
1000
0001
0100
0010
,  // measure 132
1000
0000
0001
0100
0020
2000
0000
0000
,  // measure 133
3030
1000
0100
0010
,  // measure 134
0001
0000
1000
0100
0010
0002
0000
0000
,  // measure 135
0003
0001
1000
0001
,  // measure 136
0100
0000
0010
0100
0002
2000
0000
0000
,  // measure 137
3003
0000
0001
1000
0001
1000
0001
1000
,  // measure 138
0001
1000
0001
1000
0001
1000
0001
0000
,  // measure 139
0001
1000
0100
1100
,  // measure 140
1000
0100
0010
0011
,  // measure 141
0000
0001
0100
0010
,  // measure 142
1000
0000
0000
0000
,  // measure 143
1001
0001
0100
0010
,  // measure 144
1010
1000
0100
0010
,  // measure 145
0000
0001
1000
0100
,  // measure 146
0010
0000
0000
0000
,  // measure 147
0101
0010
1000
0100
,  // measure 148
1100
1000
0100
0010
,  // measure 149
0000
0001
1000
0100
,  // measure 150
0001
0000
0000
0000
,  // measure 151
1001
0001
0100
0010
,  // measure 152
1000
0100
0010
0001
,  // measure 153
0000
0000
0001
0000
0000
0000
0000
0000
1000
0000
0000
0001
0000
0000
0100
0000
,  // measure 154
0010
0000
1000
0100
1000
0000
0200
0000
,  // measure 155
1300
0000
0010
0100
0010
0000
0200
0000
,  // measure 156
0310
0001
0001
1000
,  // measure 157
1000
0000
0001
0100
0001
0100
0001
0100
,  // measure 158
0001
0100
0001
0000
0001
0000
1000
0000
,  // measure 159
2000
3100
0010
0100
,  // measure 160
0100
0000
0010
1000
0010
0000
0001
0100
,  // measure 161
0001
1001
1001
0110
,  // measure 162
0110
0000
1001
0000
0000
0010
0000
0000
,  // measure 163
0000
0000
0000
1000
,  // measure 164
0100
0000
0010
0000
0000
0001
0000
0000
,  // measure 165
0100
0110
0000
0010
,  // measure 166
2000
0200
0000
0000
0000
0000
0000
0000
,  // measure 167
0000
0000
3300
0000
,  // measure 168
0000
0110
0000
0000
,  // measure 169
0000
0110
0000
0000
,  // measure 170
0000
0000
2000
0000
0000
3100
0000
0000
,  // measure 171
0000
0000
0000
0001
,  // measure 172
0100
0000
0010
0000
0000
0010
0000
0000
,  // measure 173
0100
0000
0100
0000
0000
1000
0000
0000
,  // measure 174
0100
0000
0010
0000
0000
0001
0000
0000
,  // measure 175
0000
0000
0000
1000
,  // measure 176
0100
0000
0010
0000
0000
0001
0000
0000
,  // measure 177
0200
0020
0000
0330
,  // measure 178
0101
2200
0000
3300
,  // measure 179
0110
2002
0000
3003
,  // measure 180
0001
0101
0000
0010
,  // measure 181
1000
0200
0000
1300
,  // measure 182
0020
0200
0000
0000
0000
0330
0000
0000
,  // measure 183
0001
0101
1000
1100
,  // measure 184
0000
0000
0020
0000
0000
0130
0000
0000
,  // measure 185
1000
0200
0000
1000
,  // measure 186
1000
1300
1000
0001
,  // measure 187
0001
0100
0100
0010
,  // measure 188
0010
1000
1000
0001
,  // measure 189
0001
0100
0100
0010
,  // measure 190
0010
1000
0001
0100
,  // measure 191
0010
1000
0100
0010
,  // measure 192
0001
0100
1000
0010
,  // measure 193
0100
1000
0010
1000
,  // measure 194
0100
0002
0000
0003
,  // measure 195
0000
2000
0000
3000
,  // measure 196
0000
0020
0000
0030
,  // measure 197
0000
0200
0000
0300
,  // measure 198
0000
0000
0110
0000
0000
0110
0000
0000
,  // measure 199
0000
0000
0000
1100
,  // measure 200
0110
0000
0011
0000
0000
0101
0000
0000
,  // measure 201
0110
1001
0000
1100
,  // measure 202
1001
2002
0000
0000
0000
0000
3003
0000
,  // measure 203
0000
0000
0000
0000
,  // measure 204
0000
0000
1001
0000
0000
0110
0000
0000
,  // measure 205
0000
0000
0000
1100
,  // measure 206
0101
0000
1010
0000
0000
0011
0000
0000
,  // measure 207
1010
1001
0000
1100
,  // measure 208
0101
0202
0000
0000
0000
0000
0000
0000
,  // measure 209
0000
0000
0000
0000
0303
0000
0000
0001
,  // measure 210
0000
1000
0100
0000
1000
0100
0000
0010
,  // measure 211
0000
0010
0001
0000
0010
0001
0000
0001
,  // measure 212
0100
0000
0001
0000
0000
0001
0000
0000
,  // measure 213
0000
0000
0000
1000
,  // measure 214
0001
0000
0100
0000
0000
0010
0000
0000
,  // measure 215
1000
0000
0100
0000
0000
0010
0000
0000
,  // measure 216
0001
0000
0100
0020
0000
0200
0000
0000
,  // measure 217
0330
0000
0000
0001
,  // measure 218
1000
0000
0200
0000
0000
1300
0000
0000
,  // measure 219
0010
0002
0000
0000
,  // measure 220
0000
0003
0000
0000
;
