#TITLE:[MEGAMIX] D-crew;
#SUBTITLE:;
#ARTIST:D-crew;
#TITLETRANSLIT:;
#SUBTITLETRANSLIT:;
#ARTISTTRANSLIT:;
#CREDIT:;
#BANNER:bn.PNG;
#BACKGROUND:bg.PNG;
#LYRICSPATH:;
#CDTITLE:;
#MUSIC:D-Crew MEGAMIX.mp3;
#OFFSET:-0.140;
#SAMPLESTART:0.080;
#SAMPLELENGTH:12.000;
#SELECTABLE:YES;
#BPMS:0.000=171.000,340.000=144.000,344.000=171.001,480.000=190.001,801.500=158.001,977.000=180.001,1104.500=230.001,1105.000=185.001,1233.000=92.501,1239.000=185.001,1243.000=92.501,1249.000=185.001,1327.000=370.002,1344.000=92.502,1352.000=185.003;
#STOPS:480.000=1.180
,1289.000=0.322
,1290.000=0.320
,1295.000=0.320
,1296.000=0.320
,1317.000=0.324
,1318.000=0.320
,1327.000=0.162
,1327.500=0.162
,1328.000=0.081
,1328.500=0.160
,1329.000=0.160
,1329.500=0.080
,1330.000=0.160
,1330.500=0.160
,1331.000=0.080
,1331.500=0.160
,1332.000=0.160
,1332.500=0.080
,1333.000=0.160
,1333.500=0.160
,1334.000=0.080
,1334.500=0.160
,1335.000=0.160
,1335.500=0.080
;
#BGCHANGES:;

//---------------dance-single - ----------------
#NOTES:
     dance-single:
     :
     Hard:
     9:
     0.573,0.831,0.257,0.237,0.161: // measure 1
0000
0000
0000
0000
,  // measure 2
0000
0000
0000
0000
,  // measure 3
0000
0000
0000
0000
,  // measure 4
0000
0000
0000
0000
,  // measure 5
2000
0000
0000
0000
,  // measure 6
3001
0000
0000
0000
,  // measure 7
0001
1000
0100
0010
,  // measure 8
0001
0000
0100
0000
0001
0000
0100
0000
0010
1000
0010
1000
0010
0000
0001
0000
,  // measure 9
2000
0000
0000
0000
0000
0100
0000
0000
,  // measure 10
3010
0000
0000
0001
0000
0100
0000
0000
,  // measure 11
0002
0000
0000
0000
0000
0010
0000
0000
,  // measure 12
0103
0000
0000
0010
0000
0100
0000
0000
,  // measure 13
0020
0000
0000
0000
0000
0100
0000
0000
,  // measure 14
1030
0000
0000
0001
0000
1000
0000
0000
,  // measure 15
1100
0010
0011
0100
,  // measure 16
0110
0010
0110
0000
,  // measure 17
0000
0000
2000
0000
0000
0100
0000
0100
,  // measure 18
0000
0100
0000
0200
0000
0000
3300
0000
,  // measure 19
0000
0000
0020
0000
0000
0001
0000
0001
,  // measure 20
0000
0001
0001
0031
,  // measure 21
0000
0000
0200
0000
0000
0001
0000
0001
,  // measure 22
0000
0001
0000
0002
0000
0000
0303
0000
,  // measure 23
0000
0000
0020
0000
0000
0100
0000
0100
,  // measure 24
0000
0100
0100
0130
,  // measure 25
0000
0000
2000
0000
0000
0100
0000
0010
,  // measure 26
0000
0001
0000
0002
0000
0000
0000
0000
,  // measure 27
3003
0000
0001
0001
0001
0001
0000
0001
,  // measure 28
0000
2000
0100
3010
,  // measure 29
0000
0000
0002
0000
0000
0100
0000
0010
,  // measure 30
0000
0100
0000
0020
0000
0000
0033
0000
,  // measure 31
0000
0000
0010
0000
0100
0020
0000
0100
,  // measure 32
0000
0130
1000
0010
,  // measure 33
2000
3100
0020
0031
,  // measure 34
0200
0301
0020
0130
,  // measure 35
2000
3100
0020
0130
,  // measure 36
1002
0000
2003
0000
,  // measure 37
3002
0103
0020
1030
,  // measure 38
0200
1300
0020
0031
,  // measure 39
0200
0310
2000
3001
,  // measure 40
1000
0000
0100
1000
0000
0000
0100
0000
,  // measure 41
2000
0000
0100
0000
0100
0000
0100
3000
,  // measure 42
0200
0010
0010
0010
,  // measure 43
0320
0001
0001
0001
,  // measure 44
0001
0000
0001
0000
0001
0030
0001
0100
,  // measure 45
0020
0100
0100
0100
,  // measure 46
0230
0000
0010
0000
0010
0000
0310
2000
,  // measure 47
0001
0001
0001
0001
,  // measure 48
0001
0001
0001
3001
,  // measure 49
1002
1003
2001
3001
,  // measure 50
1002
1003
2001
3001
,  // measure 51
0120
0130
0210
0310
,  // measure 52
1001
0000
0110
0000
,  // measure 53
2200
0000
0000
0300
,  // measure 54
0020
0000
0000
0000
0030
0000
0001
0002
,  // measure 55
0000
0000
0000
0000
,  // measure 56
0000
0000
0000
3003
,  // measure 57
0120
0000
0000
0000
,  // measure 58
0000
0000
0000
0000
,  // measure 59
0230
0000
0000
0000
,  // measure 60
0000
0000
0000
0000
0000
0001
0000
0001
,  // measure 61
0302
0000
0000
0000
,  // measure 62
1000
0000
0000
0000
,  // measure 63
2003
0000
0001
0000
,  // measure 64
3001
1000
0001
1000
0010
1000
0001
0100
,  // measure 65
0001
0000
0000
0000
0000
0020
0000
0000
,  // measure 66
0001
0000
0000
0001
0000
0031
0000
0000
,  // measure 67
1200
0000
0000
0000
0000
1000
0000
0000
,  // measure 68
1000
0000
0000
1000
0000
1300
0000
0000
,  // measure 69
0120
0000
0000
0000
0000
0100
0000
0000
,  // measure 70
0100
0000
0000
0100
0000
0130
0000
0000
,  // measure 71
0110
0010
0110
1000
,  // measure 72
1100
0010
0011
0100
,  // measure 73
1001
0000
0000
0000
,  // measure 74
2000
3000
2000
3000
0000
0000
0000
0000
,  // measure 75
0101
0000
0000
0000
0000
0000
0020
0030
,  // measure 76
0020
0030
0000
0000
0000
0000
0000
0000
,  // measure 77
1100
0000
0010
0000
,  // measure 78
0011
0000
0100
0000
,  // measure 79
0110
1001
1100
0011
,  // measure 80
0001
0000
1000
0000
0010
0000
0000
0001
1000
0000
0100
0000
0010
0000
0001
0000
,  // measure 81
0010
0100
0001
1000
0010
0100
0010
1000
,  // measure 82
0101
0000
1100
0011
,  // measure 83
0001
1000
0010
1000
0001
0100
0010
0000
,  // measure 84
0001
0000
1000
0000
0010
0000
0000
0001
0100
0000
0010
0000
1000
0000
0001
0000
,  // measure 85
0000
0000
1000
0000
0100
0000
0000
0010
0001
0000
0010
0000
1000
0000
0001
0000
,  // measure 86
1001
0000
0000
0000
,  // measure 87
1000
0100
1000
0100
0010
0100
0001
0000
,  // measure 88
0001
1000
0010
1000
0001
0100
0010
0000
,  // measure 89
0001
1000
0010
1000
0001
0001
0000
0001
,  // measure 90
0100
0010
1000
0001
0100
0010
1000
1000
,  // measure 91
0001
0100
0010
1000
0010
1000
0010
0000
,  // measure 92
1000
0100
0010
0001
0010
0100
0001
0000
,  // measure 93
0001
1000
0010
0100
0001
1000
0000
0001
,  // measure 94
0010
0100
1000
0100
0010
0001
0010
0100
,  // measure 95
1000
0100
1000
0000
0100
1000
0000
0000
,  // measure 96
0010
0100
0000
0010
0100
0000
0001
1000
,  // measure 97
0001
0100
0010
0000
0010
0100
0000
0100
,  // measure 98
1000
0000
1000
0100
0010
0000
0001
1000
,  // measure 99
0001
0100
0010
0000
0010
0100
0000
1000
,  // measure 100
0100
0010
0000
0001
0100
0000
0001
1000
,  // measure 101
0001
0100
0010
0000
0010
0100
0000
0100
,  // measure 102
1000
0000
1000
0100
0000
0010
0100
0001
,  // measure 103
1000
0000
0000
0100
0000
0000
0010
0000
0000
0001
0000
0000
0001
0000
0100
0000
,  // measure 104
0001
0000
0000
0100
0000
0000
0010
0000
0000
1000
0000
0000
0001
0000
1000
0000
,  // measure 105
0001
0000
0000
0010
0000
0000
0100
0000
0000
1000
0000
0000
0100
0000
1000
0000
,  // measure 106
0100
0000
0000
0010
0000
0000
0100
0000
0000
0001
0000
0000
1000
0000
0010
0000
,  // measure 107
0100
0010
0100
0001
1000
0100
0010
0001
,  // measure 108
0010
0100
1000
0100
0001
1000
0010
1000
,  // measure 109
0001
0100
0010
1000
0100
0010
0001
0010
,  // measure 110
0100
0010
1000
0001
0100
0010
1000
0001
,  // measure 111
0100
0001
0000
0010
1000
0000
0010
0100
,  // measure 112
0000
0001
1000
0001
1000
0010
0100
0001
,  // measure 113
0100
1000
0000
1000
0100
0000
1000
0100
,  // measure 114
0010
0001
0010
1000
0001
1000
0010
1000
,  // measure 115
0001
0100
0000
0001
0100
0000
0010
1000
,  // measure 116
0000
1000
0100
0001
1000
0010
1000
0001
,  // measure 117
0100
1000
0000
1000
0100
0000
0001
0010
,  // measure 118
0100
1000
0100
0010
0001
1000
0001
0100
,  // measure 119
0010
0000
1000
0000
0001
0000
0000
1000
0100
0000
0010
0000
0001
0000
0010
0000
,  // measure 120
0000
0000
0001
0000
0100
0000
0000
0010
0100
0000
0001
0000
1000
0000
0010
0000
,  // measure 121
0110
0000
0010
0100
0010
0100
0000
0001
,  // measure 122
0100
0000
1000
0100
1000
0100
0000
0010
,  // measure 123
0100
0000
0001
1000
0001
1000
0000
0010
,  // measure 124
1000
0000
0001
0100
0001
0100
0000
0010
,  // measure 125
0000
0010
0100
0010
0100
0010
0000
1000
,  // measure 126
0100
0000
0010
0000
0001
0100
0000
0010
,  // measure 127
1000
1001
0010
0110
,  // measure 128
1000
1100
0010
0011
,  // measure 129
0100
0000
0001
0100
0001
0000
0010
1000
,  // measure 130
0010
0000
0001
1000
0001
0000
1000
0100
,  // measure 131
1000
0000
0010
0001
0010
0000
0010
0100
,  // measure 132
0010
0000
0001
1000
0001
0000
0010
1000
,  // measure 133
0010
0120
0000
0130
,  // measure 134
0000
0210
0000
0310
,  // measure 135
0000
1100
0000
0011
,  // measure 136
0000
0202
0000
0000
,  // measure 137
0303
0000
0001
1000
0010
0100
1000
0000
,  // measure 138
0100
0000
1000
0100
1000
0100
0000
1000
,  // measure 139
0100
0000
0010
0000
0100
0000
0001
0100
,  // measure 140
0001
0000
0010
0000
1000
0000
0001
1000
,  // measure 141
0010
1000
0001
0000
0100
0000
1000
0100
,  // measure 142
0010
0001
0010
0000
0100
0000
0001
1000
,  // measure 143
0001
1000
0010
0000
0100
0000
0001
0100
,  // measure 144
0001
0000
0010
0000
1000
0000
0001
0100
,  // measure 145
1000
0000
0000
0000
0001
0000
0000
1000
0000
0000
0100
0000
1000
0000
0000
0100
,  // measure 146
0000
0000
0010
0000
0001
0000
0000
0010
0000
0000
0100
0000
0001
0000
0000
1000
,  // measure 147
0000
0000
0100
0000
1000
0000
0000
0100
0000
0000
0010
0000
0001
0000
0000
1000
,  // measure 148
0000
0000
0001
0000
0100
0000
0000
0010
0000
0000
1000
0000
0001
0000
0000
0100
,  // measure 149
0000
0000
1000
0000
0010
0000
0000
0100
0000
0000
0001
0000
0100
0000
0000
0001
,  // measure 150
0000
0000
1000
0000
0010
0000
0000
1000
0000
0000
0001
0000
0010
0000
0000
0100
,  // measure 151
0000
0000
0001
0000
0100
0000
0000
0001
0000
0000
1000
0000
0010
0000
0000
0100
,  // measure 152
0000
2000
0002
0000
0000
0000
0000
0000
,  // measure 153
3003
0000
0000
0000
0001
0000
0000
0100
0000
0000
0010
0000
0000
0000
0100
0000
,  // measure 154
0000
1000
0000
0000
0100
0000
0000
0010
0000
0000
0001
0000
0000
0000
0001
0000
,  // measure 155
0000
1000
0000
0000
0010
0000
0000
0100
0000
0000
0001
0000
0000
0000
1000
0000
,  // measure 156
0000
0100
0000
0000
0010
0000
0000
0001
0000
0000
0001
0000
0100
0000
0000
0010
,  // measure 157
0000
0000
1000
0000
0001
0000
0000
0100
0000
0000
1000
0000
0000
0000
0100
0000
,  // measure 158
0000
1000
0000
0000
0100
0000
0000
1000
0000
0000
0100
0000
0000
0000
0010
0000
,  // measure 159
0000
1000
0000
0000
0001
0000
0000
0100
0000
0000
1000
0000
0000
0000
0100
0000
,  // measure 160
0000
1000
0000
0000
0100
0000
0000
0010
0000
0000
0001
0000
1000
0000
0000
0001
,  // measure 161
0000
0000
0100
0000
0010
0000
0000
1000
0000
0000
0001
0000
0000
0000
0100
0000
,  // measure 162
0000
1000
0000
0000
0100
0000
0000
0010
0000
0000
0001
0000
0000
0000
0001
0000
,  // measure 163
0000
0100
0000
0000
0010
0000
0000
1000
0000
0000
0001
0000
0000
0000
0100
0000
,  // measure 164
0000
1000
0000
0000
0100
0000
0000
0010
0000
0000
0001
0000
0100
0000
0000
0010
,  // measure 165
0000
0000
1000
0000
0001
0000
0000
0100
0000
0000
0010
0000
0000
0000
0001
0000
,  // measure 166
1000
0000
0000
0000
0100
0000
0000
1000
0000
0000
0100
0000
1000
0000
0100
0000
,  // measure 167
0010
0000
0001
0000
0010
0000
0000
0100
0000
0000
0001
0000
0000
0000
0010
0000
,  // measure 168
1000
0002
0200
0000
0000
0000
0000
0000
,  // measure 169
0000
0303
0000
0000
0011
0000
0000
0000
0100
0000
0000
0000
1000
0000
0000
0000
,  // measure 170
0100
1100
0010
0100
,  // measure 171
0010
1001
0100
1100
,  // measure 172
0010
0011
0100
0010
,  // measure 173
0001
1000
1010
0000
0001
0000
0100
0000
,  // measure 174
1000
1100
0010
0100
,  // measure 175
0010
0011
0100
0101
,  // measure 176
0010
1010
0010
0110
,  // measure 177
0010
0000
0001
0000
1000
0100
0000
0010
,  // measure 178
0001
0011
0000
0000
,  // measure 179
0100
2000
0000
0100
,  // measure 180
0000
0002
0000
3003
,  // measure 181
0000
0022
0000
0030
,  // measure 182
0010
0010
0000
0000
,  // measure 183
0100
1000
0000
1000
,  // measure 184
0000
0000
2003
0000
0000
3000
0020
0000
,  // measure 185
0000
0000
0000
0000
1030
0000
0000
0001
0000
0000
0100
0000
0010
0000
0000
0010
,  // measure 186
0000
0000
0100
0000
0010
0000
0000
0100
0000
0000
0001
0000
1000
0000
0000
0100
,  // measure 187
0000
0000
0010
0000
0001
0000
0000
0010
0000
0000
0001
0000
1000
0000
0000
0010
,  // measure 188
0000
0000
0100
0000
0001
0000
0000
1000
0000
0000
0010
0000
0100
0000
0000
1000
,  // measure 189
0000
0000
0001
0000
0001
0000
0000
1000
0000
0000
0010
0000
0100
0000
0000
0100
,  // measure 190
0000
0000
0010
0000
0100
0000
0000
0010
0000
0000
1000
0000
0001
0000
0000
0010
,  // measure 191
0000
0000
0100
0000
1000
0000
0000
0100
0000
0000
1000
0000
0001
0000
0000
0100
,  // measure 192
0000
0010
2000
0000
0000
0000
3002
0000
,  // measure 193
0000
0000
0103
0001
0100
0001
0010
1000
,  // measure 194
0010
1000
0001
0010
0100
1000
0100
0010
,  // measure 195
0001
0010
0100
1000
0001
1000
0010
1000
,  // measure 196
0001
0100
0001
0010
0100
1000
0100
0010
,  // measure 197
0001
0010
0200
0000
0010
0000
0010
0000
,  // measure 198
0010
0302
1000
1000
,  // measure 199
1003
1100
0000
0011
,  // measure 200
0000
0220
0000
0000
,  // measure 201
0330
1001
0000
0000
,  // measure 202
0000
0000
0000
0000
,  // measure 203
0000
1000
0101
0000
,  // measure 204
0000
0000
0000
0000
0001
0000
0000
0000
0010
0000
0000
0000
0100
0000
0000
0001
,  // measure 205
1000
0100
0010
0000
0011
0000
0000
0000
,  // measure 206
0000
0100
1100
0000
,  // measure 207
0000
0010
0100
1000
,  // measure 208
0100
0010
0001
0200
,  // measure 209
0320
0000
1030
0001
1000
0001
1000
0001
,  // measure 210
1000
0001
0100
0001
0100
0001
0100
0001
,  // measure 211
0100
0001
0100
0010
0100
0010
0100
0010
,  // measure 212
0100
0010
1000
0010
1000
0010
1000
0010
,  // measure 213
1000
0010
0001
0010
0100
1000
0100
0010
,  // measure 214
0001
0010
1000
0001
1000
0001
1000
0001
,  // measure 215
1000
0001
0100
0001
0100
0001
0100
0001
,  // measure 216
0100
0001
0100
0001
0100
0001
0100
0001
,  // measure 217
0100
0001
0100
0001
0100
0001
0100
0001
,  // measure 218
0100
0001
0010
0100
1000
0100
0010
0001
,  // measure 219
0010
0100
1000
0000
0100
1000
0000
0100
,  // measure 220
0000
1000
0100
0000
0010
0001
0000
0100
,  // measure 221
0000
0010
0100
0000
1000
0001
1000
0000
,  // measure 222
0100
1100
0010
0011
,  // measure 223
0000
0000
0001
0000
0001
0100
0000
0010
,  // measure 224
0000
0000
0010
0000
0010
0100
0000
0100
,  // measure 225
0000
1000
0100
0000
0010
0001
0010
0000
,  // measure 226
0100
1000
0100
0000
1000
0001
0100
0000
,  // measure 227
0000
0000
0110
0000
0010
0100
0000
0010
,  // measure 228
0000
0000
1000
0000
1000
0100
0000
0010
,  // measure 229
0000
0001
0100
0000
0010
0100
0010
0000
,  // measure 230
1000
0001
1000
0000
0100
0000
1100
0000
,  // measure 231
0000
0000
1000
0000
1000
0100
0000
0010
,  // measure 232
0000
0000
0001
0000
0001
0100
0000
0010
,  // measure 233
0000
0010
0100
0000
1000
0000
0100
0000
,  // measure 234
0001
0010
1000
0100
,  // measure 235
1000
0000
0100
0000
1000
0100
0000
0010
,  // measure 236
0000
0000
0001
0000
0100
0010
0000
0010
,  // measure 237
0000
0010
0100
0000
1000
0001
1000
0000
,  // measure 238
0010
0100
0110
1001
,  // measure 239
0000
0000
1100
0000
0100
1000
0000
0100
,  // measure 240
0000
0000
0011
0000
0001
0010
0000
0100
,  // measure 241
0000
0010
0100
0000
0110
0000
0010
0000
,  // measure 242
0100
1000
0100
0010
,  // measure 243
0001
0011
0000
1100
,  // measure 244
0000
1001
0000
0000
,  // measure 245
0000
0000
1000
0000
0001
0000
0001
0100
,  // measure 246
0001
0000
0000
0000
0001
0000
0000
1000
0000
0000
0100
0000
1000
0000
0000
0100
,  // measure 247
0000
0010
0002
0000
0000
0100
0000
0000
,  // measure 248
0000
0013
0000
0200
,  // measure 249
0000
0000
1000
0000
0000
1000
0000
0000
,  // measure 250
0000
1300
0000
0020
,  // measure 251
0000
0000
0100
0000
0000
0100
0000
0000
,  // measure 252
0000
0130
0000
0001
,  // measure 253
0000
1000
0100
0010
,  // measure 254
0001
0002
0103
2000
,  // measure 255
3100
0020
1030
0002
,  // measure 256
0103
0020
0031
0200
,  // measure 257
1300
0020
0130
0002
,  // measure 258
0203
0320
0130
0020
,  // measure 259
1030
0002
0103
2000
,  // measure 260
3100
0020
0031
0200
,  // measure 261
0310
2000
3001
0200
,  // measure 262
0310
0000
0000
1000
0000
0000
0100
0000
0000
0001
0000
0001
,  // measure 263
0010
0000
0010
0100
0000
0000
1000
0000
0000
0001
0000
0001
,  // measure 264
0100
0000
0010
0100
0000
0000
0001
0000
0000
0100
0000
1000
,  // measure 265
0100
0000
1000
0100
0000
0000
0010
0000
0000
0100
0000
0010
,  // measure 266
0100
0000
0010
0100
0000
0000
0010
0000
0000
1000
0000
0001
,  // measure 267
0100
0000
0010
1000
0000
0000
0001
0000
0000
0010
0000
0010
,  // measure 268
0100
0000
0000
0010
0000
0000
0010
0000
0000
0100
0000
0001
,  // measure 269
0100
0000
0000
0000
0010
0000
1000
0000
0000
0100
0000
0000
0010
0000
0000
0001
0000
0000
0010
0000
0000
0100
0000
0000
,  // measure 270
0001
1000
0010
1000
0001
1000
0001
0010
,  // measure 271
0100
1000
0100
0010
0001
0010
0100
0001
,  // measure 272
0100
0010
1000
0001
0100
1000
0100
0010
,  // measure 273
0001
0010
0100
1000
0010
1000
0010
1000
,  // measure 274
0001
0100
0001
0100
0010
0001
0010
0100
,  // measure 275
1000
0100
0010
1000
0001
0000
0010
1000
,  // measure 276
0002
0000
0103
0010
2000
0000
3001
0100
,  // measure 277
0010
0001
1000
0000
1000
0000
0001
0000
,  // measure 278
0001
0100
0100
0010
,  // measure 279
0010
1000
1000
0001
,  // measure 280
0001
0100
0100
0010
,  // measure 281
0110
0110
0010
0010
,  // measure 282
0100
0100
1000
0001
,  // measure 283
0100
0101
1000
0100
,  // measure 284
1000
0000
1000
0100
0010
0001
0010
0100
,  // measure 285
0001
1000
0001
1000
0001
0000
0010
0000
0100
0000
1000
0000
0010
0000
1000
0000
,  // measure 286
0001
1000
0010
1000
0001
1000
0001
0010
,  // measure 287
0100
1000
0100
0010
0001
1000
0010
0100
,  // measure 288
0001
0100
0010
1000
0001
1000
0010
1000
,  // measure 289
0010
1000
0001
0100
0001
0100
0010
0001
,  // measure 290
0010
0100
1000
0100
0010
1000
0001
0100
,  // measure 291
0010
1000
1001
0000
0001
0001
0001
0000
,  // measure 292
1001
0000
0010
0000
0110
0000
0010
0010
,  // measure 293
0010
0000
1000
0100
0001
0000
0001
1000
,  // measure 294
0010
0000
0001
1000
0010
0000
0001
1000
,  // measure 295
0001
0000
1000
0100
0001
0000
1100
0000
,  // measure 296
0010
0011
0100
0110
,  // measure 297
0010
0000
0110
0000
1001
0000
1000
1000
,  // measure 298
1000
0000
1001
0000
0110
0000
0001
0001
,  // measure 299
0001
0110
1000
1100
,  // measure 300
0011
0110
1010
0011
,  // measure 301
1100
0000
1000
0100
0010
0001
1000
0001
,  // measure 302
0100
0010
1000
0001
1000
0010
1000
0001
,  // measure 303
0010
0100
1000
0100
0010
0001
0010
0100
,  // measure 304
0001
1000
0010
1000
0001
1000
0010
0100
,  // measure 305
1000
0100
0010
0001
0010
1000
0001
0100
,  // measure 306
0001
0100
0010
1000
0001
0100
0010
1000
,  // measure 307
0001
0100
0010
1000
0010
1000
0001
0100
,  // measure 308
0010
1000
0001
0100
0010
0000
0110
0110
,  // measure 309
0110
0000
0000
0000
0000
0000
0000
0000
0001
0000
0000
1000
0000
0000
0100
0000
1000
0000
0000
0100
0000
0000
0010
0000
0001
0000
0000
0010
0000
0000
0100
0000
,  // measure 310
0001
0000
0000
1000
0000
0000
0100
0000
1000
0000
0000
0100
0000
0000
0010
0000
1000
0000
0000
0001
0000
0000
0100
0000
0210
0000
0000
0000
0000
0000
0000
0000
,  // measure 311
1000
0000
0000
0000
0000
0000
0000
0000
0001
0000
0000
0000
0001
0000
0000
0000
0300
0000
0000
0000
0000
0000
0000
0000
1001
0000
0000
0001
0000
0000
0010
0000
,  // measure 312
0100
0000
0000
1000
0000
0000
0100
0000
1000
0000
0000
0100
0000
0000
1000
0000
0100
0000
0000
0010
0000
0000
0001
0000
1000
0000
0000
0010
0000
0000
0100
0000
,  // measure 313
0001
0000
0000
1000
0000
0000
0010
0000
0001
0000
0000
0000
0100
0000
0000
0000
0001
0000
0000
0000
0100
0000
0000
0000
0001
0000
0000
0000
0010
0000
1000
0000
,  // measure 314
0010
0000
0001
0100
0001
0000
0000
0010
0000
0000
0100
0000
1000
0000
0000
0100
,  // measure 315
0000
0000
1000
0000
0100
0000
0000
0010
0000
0000
0001
0000
0100
0000
0000
0001
,  // measure 316
0000
0000
0100
0000
0010
0000
0000
1000
0000
0000
0001
0000
0010
0000
0000
1000
,  // measure 317
0000
0000
0001
0000
0100
0000
0000
0010
0000
0000
0100
0000
0010
0000
0000
1000
,  // measure 318
0000
0000
0001
0000
0100
0000
0000
0110
0000
0000
0010
0000
0100
0000
0000
0110
,  // measure 319
0000
0000
1000
0000
0100
0000
0000
1100
0000
0000
0010
0000
0100
0000
0000
0101
,  // measure 320
0000
0000
0010
0000
1000
0000
0000
1001
0000
0000
0010
0000
0100
0000
0000
1100
,  // measure 321
0000
0000
0010
0000
0001
0100
0001
0100
0001
0100
0001
0100
0001
0100
0001
0100
,  // measure 322
0001
0100
0001
0100
0001
0000
0000
1000
0000
0000
0100
0000
1000
0000
0000
0100
,  // measure 323
0000
0000
0010
0000
0022
0000
0000
0000
0003
0000
0000
0000
0031
0000
0000
0100
,  // measure 324
0000
0000
0010
0000
1000
0000
0000
0001
0000
0000
0100
0000
2200
0000
0000
0000
,  // measure 325
3000
0000
0000
0000
1300
0000
0000
0100
0000
0000
0010
0000
0001
0000
0000
0100
,  // measure 326
0000
0000
0010
0000
0100
0000
0000
1000
0000
0000
0001
0000
0010
0000
0000
0100
,  // measure 327
0000
0000
1000
0000
0001
0000
0100
0000
0010
2000
0010
0000
0000
0000
3001
0000
,  // measure 328
0000
1000
0200
0000
2000
0000
0000
0000
,  // measure 329
3300
0000
0000
0000
0010
0000
0000
0001
0000
0000
0100
0000
1000
0000
0000
0100
,  // measure 330
0000
0000
0010
0000
0220
0000
0000
0000
0300
0000
0000
0000
0130
0000
0000
1000
,  // measure 331
0000
0000
0001
0000
0010
0000
0000
0100
0000
0000
1000
0000
0100
0000
0000
0110
,  // measure 332
0000
0000
0001
0000
0011
0000
0000
1100
0000
0000
0100
0000
0001
0000
1000
0000
,  // measure 333
0100
0010
0001
1000
0001
0100
0010
1000
,  // measure 334
0100
0010
0001
1000
0001
0100
0001
1000
,  // measure 335
0001
0010
0100
1000
,  // measure 336
0001
0000
0010
0000
0100
1000
0100
1000
,  // measure 337
0100
1000
0100
0000
0001
0000
0100
0000
,  // measure 338
0001
0000
0100
0000
1000
0000
0100
0000
0001
0010
0100
1000
0100
0010
0001
1000
,  // measure 339
0100
1000
1100
0000
0010
0100
0110
0000
,  // measure 340
0001
0010
0011
0000
0001
0100
0101
0000
,  // measure 341
0010
0100
0110
0000
0001
1000
1001
0000
,  // measure 342
1000
0100
1000
0000
2000
0000
0000
0000
,  // measure 343
3100
0100
0100
0000
0010
0010
0010
0000
,  // measure 344
0001
0001
0001
0000
1000
1000
1000
0000
,  // measure 345
1001
0000
0110
0110
0110
0000
1100
0000
,  // measure 346
1000
0000
1000
0100
0001
0000
0010
0000
,  // measure 347
2002
0000
0000
0000
,  // measure 348
0000
0000
0000
0000
,  // measure 349
3003
0000
0000
0000
;

//---------------dance-single - ----------------
#NOTES:
     dance-single:
     :
     Medium:
     6:
     0.453,0.650,0.365,0.181,0.015: // measure 1
0000
0000
0000
0000
,  // measure 2
0000
0000
0000
0000
,  // measure 3
0000
0000
0000
0000
,  // measure 4
0000
0000
0000
0000
,  // measure 5
1000
0000
0000
0000
,  // measure 6
0001
0000
0000
0000
,  // measure 7
0100
0000
0010
0000
,  // measure 8
1000
0000
0100
0000
0001
0100
0000
0010
,  // measure 9
0100
0000
0000
0000
0000
0010
0000
0000
,  // measure 10
0010
0000
0000
0100
0000
0100
0000
0000
,  // measure 11
1000
0000
0000
0000
0000
0001
0000
0000
,  // measure 12
0100
0000
0000
0010
0000
1000
0000
0000
,  // measure 13
0100
0000
0000
0000
0000
1000
0000
0000
,  // measure 14
0001
0000
0000
0100
0000
0010
0000
0000
,  // measure 15
0010
0010
0100
0100
,  // measure 16
0001
0001
1000
1000
,  // measure 17
0000
0000
0002
0000
0000
1000
0000
1000
,  // measure 18
0000
1000
0000
2000
0000
0000
3003
0000
,  // measure 19
0000
0000
2000
0000
0000
0100
0000
0100
,  // measure 20
0000
0010
0010
3010
,  // measure 21
0000
0000
0002
0000
0000
0100
0000
0100
,  // measure 22
0000
0100
0000
0103
0000
0000
0000
0000
,  // measure 23
0000
0000
0020
0000
0000
0100
0000
0130
,  // measure 24
0000
0010
0100
1000
,  // measure 25
0000
0000
0002
0000
0000
1000
0000
1000
,  // measure 26
0000
1000
0000
2000
0000
0000
3003
0000
,  // measure 27
0000
0000
0001
0100
0001
0100
0000
0002
,  // measure 28
0000
0100
0100
0103
,  // measure 29
0000
0000
0020
0000
0000
0100
0000
0100
,  // measure 30
0000
0100
0000
0100
0000
0000
0030
0000
,  // measure 31
0000
0000
1000
0000
0001
0200
0000
0310
,  // measure 32
0000
0001
1000
0100
,  // measure 33
0010
0000
0000
0000
,  // measure 34
0002
0000
2003
0000
,  // measure 35
3002
0000
0203
0000
,  // measure 36
0310
0000
0010
0000
,  // measure 37
0020
0000
0000
0000
,  // measure 38
0030
0000
0000
0000
0001
0000
1000
0001
,  // measure 39
2000
0000
0000
0100
,  // measure 40
3100
0000
0000
0010
0000
0000
0001
0000
,  // measure 41
0002
0010
0010
0013
,  // measure 42
0200
1000
1000
1000
,  // measure 43
2000
0000
0000
0000
,  // measure 44
3300
0000
0002
0003
,  // measure 45
0020
0100
0100
0130
,  // measure 46
0200
0000
0010
0000
0010
0000
0310
2000
,  // measure 47
0002
0000
0000
0000
,  // measure 48
0000
0000
3003
0000
,  // measure 49
0002
0000
2003
0000
,  // measure 50
3002
0000
0203
0000
,  // measure 51
0320
0000
0000
0000
,  // measure 52
1000
0000
1000
0000
,  // measure 53
2030
0000
0000
0000
,  // measure 54
3002
0000
0000
0000
0000
0000
0203
0002
,  // measure 55
0000
0000
0000
0000
,  // measure 56
0000
0000
0000
0303
,  // measure 57
2002
0000
0000
0000
,  // measure 58
0000
0000
0000
0000
,  // measure 59
3000
0000
0000
0000
,  // measure 60
0000
0000
0000
0000
0000
1000
0003
1000
,  // measure 61
0002
0000
0000
0000
,  // measure 62
0103
0000
0000
0000
,  // measure 63
0110
0000
0010
0000
,  // measure 64
2000
0000
3002
0000
,  // measure 65
0103
0000
0000
0000
0000
0110
0000
0000
,  // measure 66
0010
0000
0000
1000
0000
1000
0000
0000
,  // measure 67
1001
0000
0000
0000
0000
0001
0000
0000
,  // measure 68
0100
0000
0000
0110
0000
0110
0000
0000
,  // measure 69
0010
0000
0000
0000
0000
1000
0000
0000
,  // measure 70
0001
0000
0000
1000
0000
1000
0000
0000
,  // measure 71
0001
0001
1000
1000
,  // measure 72
0100
0100
0010
0010
,  // measure 73
0011
0000
0000
0000
,  // measure 74
1000
1000
0000
0000
,  // measure 75
0010
0000
0000
0100
,  // measure 76
0100
0000
0000
0000
,  // measure 77
1001
0000
1000
0000
,  // measure 78
0101
0000
0010
0000
,  // measure 79
0011
1100
0110
1001
,  // measure 80
0001
1000
0001
0000
0001
0100
0001
0100
,  // measure 81
0001
0000
0100
0000
1000
0100
0001
0000
,  // measure 82
1001
0000
1001
1001
,  // measure 83
0001
1000
0001
1000
0010
1000
0001
0000
,  // measure 84
0101
1000
0100
1000
,  // measure 85
0000
1000
0100
0000
0010
0100
0001
1000
,  // measure 86
0001
0000
0000
0000
,  // measure 87
0001
0000
1000
0000
0100
0000
1000
0100
,  // measure 88
1000
0000
0100
0000
0010
0000
0001
0010
,  // measure 89
0100
0000
0001
0000
1000
0001
0000
1000
,  // measure 90
0001
0000
0100
0000
0010
0000
0001
0001
,  // measure 91
0001
0000
1000
0000
0001
0100
0001
0000
,  // measure 92
0010
0000
1000
0000
0100
1000
0100
0000
,  // measure 93
1000
0000
0100
0000
0010
0001
0000
0001
,  // measure 94
0100
0000
1000
0000
0010
0000
0001
1000
,  // measure 95
0001
0000
0100
0000
0000
0100
0000
0000
,  // measure 96
0000
0010
0000
0000
0010
0000
0000
0000
,  // measure 97
0000
0000
1000
0000
0000
0001
0000
0000
,  // measure 98
0100
0000
0000
0000
0000
0000
0010
0100
,  // measure 99
0010
0000
0100
0000
0000
0100
0000
0000
,  // measure 100
0000
1000
0000
0000
0001
0000
0000
0000
,  // measure 101
0100
0000
0010
0000
0000
0010
0000
0000
,  // measure 102
0010
0000
0000
0000
0100
0000
0010
0100
,  // measure 103
0010
0000
0010
0000
0010
0000
1000
0001
,  // measure 104
1000
1000
0100
0010
,  // measure 105
0001
0000
0100
0010
0000
0010
0100
0000
,  // measure 106
0001
1000
0001
0100
,  // measure 107
0001
0100
0000
0010
1000
0000
1000
0100
,  // measure 108
0000
0010
0001
0000
0001
0100
0001
0100
,  // measure 109
0001
0100
0000
0010
0100
0000
1000
0001
,  // measure 110
0000
0100
0010
0000
1000
0100
1000
0000
,  // measure 111
1000
0001
0100
0010
,  // measure 112
1000
0000
0100
0000
0010
0001
0010
0001
,  // measure 113
0010
0100
0001
1000
,  // measure 114
0001
0100
1000
0100
0001
0010
1000
0001
,  // measure 115
1000
0001
0100
0010
,  // measure 116
1000
0000
0100
0000
0001
0100
0001
0000
,  // measure 117
1000
0100
0010
0001
,  // measure 118
0100
1000
0100
0010
,  // measure 119
0001
1000
1001
0000
0001
0000
0100
0000
,  // measure 120
0000
0010
0100
0000
0010
0000
1000
0000
,  // measure 121
1001
0000
1000
0000
0100
0000
0000
0010
,  // measure 122
0100
0000
0001
0000
1000
0000
0000
0001
,  // measure 123
0100
0000
0010
0000
1000
0000
0000
0100
,  // measure 124
1000
0000
0100
0000
0010
0000
0000
0001
,  // measure 125
0000
0100
0001
0000
0010
0100
0000
0001
,  // measure 126
1000
0000
0001
0000
0100
0000
0000
1000
,  // measure 127
0100
0010
0100
0001
,  // measure 128
1000
0100
0010
0100
,  // measure 129
0010
0000
0001
1000
0001
0000
0100
1000
,  // measure 130
0100
0000
0010
0001
0010
0000
0100
0001
,  // measure 131
0100
0000
0010
1000
0010
0000
0001
1000
,  // measure 132
0001
0000
1000
0100
1000
0000
0010
0001
,  // measure 133
0010
0202
0000
0303
,  // measure 134
0110
0220
0000
0330
,  // measure 135
1000
1100
0000
0110
,  // measure 136
0000
0022
0000
0000
,  // measure 137
0033
0001
0001
1000
,  // measure 138
1000
0001
0001
0010
,  // measure 139
0010
0100
0100
1000
,  // measure 140
1000
0001
0001
0100
,  // measure 141
0100
0010
0010
1000
,  // measure 142
1000
0001
0001
1000
,  // measure 143
1000
0100
0100
0010
,  // measure 144
0010
0001
0001
0010
,  // measure 145
0010
0110
0010
0110
,  // measure 146
0100
0110
0100
0110
,  // measure 147
0010
1001
0001
1001
,  // measure 148
1000
1001
0001
1001
,  // measure 149
0100
1100
0000
0010
,  // measure 150
0000
0011
0000
0100
,  // measure 151
0000
0101
0000
1100
,  // measure 152
0000
2002
0000
0000
,  // measure 153
3003
0110
0110
0110
,  // measure 154
0110
1001
1001
1001
,  // measure 155
1001
1100
1100
1100
,  // measure 156
1100
0011
0011
0011
,  // measure 157
0011
0101
0101
0101
,  // measure 158
0101
0110
0110
0110
,  // measure 159
0110
1001
1001
1001
,  // measure 160
1001
1100
1100
1100
,  // measure 161
1100
1010
1010
1010
,  // measure 162
1010
0110
0110
0110
,  // measure 163
0110
0011
0011
0011
,  // measure 164
0011
0101
0101
1100
,  // measure 165
1100
1001
1001
1001
,  // measure 166
0001
0000
0100
0000
0010
0000
0001
1000
,  // measure 167
0010
1000
0001
0000
1000
0000
0100
0000
,  // measure 168
1000
0002
0200
0000
0000
0000
0000
0000
,  // measure 169
0303
0101
0000
0000
,  // measure 170
1100
0101
0000
0000
,  // measure 171
0010
0110
0000
0110
,  // measure 172
0000
0110
0000
0000
,  // measure 173
0000
2000
0000
0000
,  // measure 174
0100
3001
0000
0000
,  // measure 175
0010
0011
0000
1100
,  // measure 176
0000
0110
0000
1001
,  // measure 177
0000
1100
0000
0000
,  // measure 178
0001
0001
0000
0000
,  // measure 179
0001
0200
0000
0010
,  // measure 180
0000
0002
0000
0000
,  // measure 181
0303
1001
0000
0000
,  // measure 182
0010
0100
0010
0000
0000
0000
0000
0000
,  // measure 183
1000
2000
0000
3100
,  // measure 184
0000
0020
0000
0031
,  // measure 185
0000
1000
1000
0001
,  // measure 186
0001
0100
0010
1000
,  // measure 187
0001
0100
1000
0100
,  // measure 188
0010
0001
0100
0010
,  // measure 189
0001
1000
0001
0000
0100
0000
1000
0000
,  // measure 190
0100
0001
0010
0100
,  // measure 191
2000
3100
0010
0001
,  // measure 192
0100
0002
0103
2000
,  // measure 193
3100
0000
0001
0100
0001
0000
0010
1000
,  // measure 194
0010
0000
0010
0100
0010
0000
0001
1000
,  // measure 195
0001
0000
1000
0100
1000
0000
0010
0001
,  // measure 196
0010
0000
0100
0001
0100
0000
0010
1000
,  // measure 197
0010
1001
0010
0100
,  // measure 198
1000
0100
1000
0000
0010
0000
0100
0000
,  // measure 199
0001
0100
0002
0000
0103
0000
2000
0000
,  // measure 200
3100
0000
0020
0000
1030
0000
0001
0010
,  // measure 201
0100
1000
0001
0000
1000
0000
0100
0000
,  // measure 202
0010
0001
0100
1000
,  // measure 203
0010
0001
1001
0000
,  // measure 204
0000
0001
1000
0100
,  // measure 205
0010
0001
0011
0000
,  // measure 206
0000
0001
0101
0000
,  // measure 207
0000
0010
0110
1000
,  // measure 208
1100
0010
0110
0002
,  // measure 209
2003
0002
0000
0000
,  // measure 210
3000
0200
0000
0000
,  // measure 211
0003
0020
0000
0000
,  // measure 212
0300
2000
0000
0000
,  // measure 213
0030
0002
0000
0000
,  // measure 214
3000
0200
0000
0000
,  // measure 215
0003
0020
0000
0000
,  // measure 216
0000
0000
0000
0000
,  // measure 217
0000
0000
0000
0000
,  // measure 218
0330
0000
0001
1000
0001
0001
1000
0001
,  // measure 219
1000
1000
0001
0000
0010
0000
0100
0000
,  // measure 220
1000
0000
0100
1000
0100
0000
0010
0000
,  // measure 221
0100
0001
1000
0010
,  // measure 222
0100
0101
0101
0101
,  // measure 223
0000
0001
1000
0001
,  // measure 224
0100
0010
1000
0100
,  // measure 225
0010
0100
0001
0000
1000
0000
0001
0000
,  // measure 226
0001
0100
0001
0000
0001
0000
0001
0000
,  // measure 227
0000
0001
1000
0100
,  // measure 228
0010
0001
0010
0100
,  // measure 229
1000
0001
1000
0000
0010
0000
0100
0000
,  // measure 230
0010
0100
0010
0000
0010
0000
0010
0000
,  // measure 231
0000
1001
0001
1000
,  // measure 232
0100
0010
0001
0100
,  // measure 233
1000
0001
1000
0010
,  // measure 234
0100
0010
0100
1000
,  // measure 235
0001
1000
0001
0000
1000
0000
0100
0000
,  // measure 236
0010
0001
0100
1000
,  // measure 237
0010
0000
1000
0000
0001
0100
1000
0000
,  // measure 238
1000
0100
0001
0000
0010
0000
0110
0000
,  // measure 239
0000
0110
0010
0100
,  // measure 240
1000
1001
0001
0010
,  // measure 241
0100
1100
0100
0010
,  // measure 242
0001
0100
1000
0100
,  // measure 243
0010
0101
0000
1100
,  // measure 244
0000
0110
0000
0000
,  // measure 245
0000
0000
0001
0000
1000
0000
0100
1000
,  // measure 246
0100
1000
0000
0001
,  // measure 247
0000
0000
0110
0000
0000
0010
0000
0000
,  // measure 248
0000
0110
0000
0000
,  // measure 249
0000
0000
1000
0000
0000
0100
0000
0000
,  // measure 250
0000
0011
0000
0000
,  // measure 251
0000
0000
0001
0000
0000
0100
0000
0000
,  // measure 252
0000
0010
0000
1000
,  // measure 253
0000
0001
1000
0100
,  // measure 254
0010
0002
0100
0100
,  // measure 255
0103
2000
0100
0100
,  // measure 256
3100
0020
0100
0100
,  // measure 257
0130
0200
0010
0010
,  // measure 258
0310
0002
1000
1000
,  // measure 259
1003
2000
0100
0100
,  // measure 260
3100
0020
0001
0001
,  // measure 261
0031
0002
0100
0100
,  // measure 262
0103
0001
1000
0001
,  // measure 263
1000
1001
1001
1000
,  // measure 264
0100
1100
1100
0100
,  // measure 265
0010
0011
0011
0001
,  // measure 266
0100
0110
0110
0010
,  // measure 267
1000
1001
1001
0001
,  // measure 268
0100
1000
0100
0001
,  // measure 269
0010
0000
0001
0100
0001
0000
1000
0000
,  // measure 270
0100
0000
0010
0100
0010
0000
1000
0000
,  // measure 271
0001
0000
1000
0100
1000
0000
0010
0000
,  // measure 272
1000
0000
0001
0100
0001
0000
0010
0000
,  // measure 273
1000
0000
0001
1000
0001
0000
0100
0000
,  // measure 274
1000
0000
0010
0100
0010
0000
1000
0000
,  // measure 275
0001
0000
0100
0001
0100
0000
0010
0000
,  // measure 276
1000
0000
0001
1000
0001
0000
0100
0000
,  // measure 277
0010
1001
0000
0010
,  // measure 278
0000
0010
0000
0010
,  // measure 279
0000
0010
0000
0010
,  // measure 280
0000
0010
0000
0010
,  // measure 281
0100
0110
0000
0010
,  // measure 282
0000
0010
0000
0010
,  // measure 283
0000
1001
0000
0001
,  // measure 284
1000
0000
0100
1000
0100
1000
0100
1000
,  // measure 285
0100
1000
0001
0100
0001
0000
0010
1000
,  // measure 286
0010
0000
0001
1000
0001
0000
0010
0100
,  // measure 287
0010
0000
1000
0100
1000
0000
0011
0000
,  // measure 288
1100
0110
1001
1100
,  // measure 289
0011
0000
0101
0000
0001
0000
0001
0100
,  // measure 290
0001
0000
1010
0000
0010
0000
0010
1000
,  // measure 291
0010
0000
1000
0000
0001
0001
0001
0000
,  // measure 292
1000
0000
0001
0000
0100
0000
0001
1000
,  // measure 293
0010
0000
1010
0000
0001
0000
0100
1000
,  // measure 294
0000
0000
0100
0000
1000
0000
0001
1000
,  // measure 295
0010
0100
0001
1001
,  // measure 296
1001
1001
0110
0110
,  // measure 297
0110
0000
0001
0000
0100
0000
0010
1000
,  // measure 298
0010
0000
1000
0000
1100
0000
1000
0100
,  // measure 299
1000
0010
0100
0101
,  // measure 300
1100
0101
1010
0001
,  // measure 301
0110
0000
0001
0100
0001
0100
0010
1000
,  // measure 302
0010
1000
0001
1000
0001
1000
0001
0100
,  // measure 303
0001
0100
0001
0000
1000
0000
1100
0000
,  // measure 304
0010
0011
0100
0110
,  // measure 305
0001
0000
0001
1000
0001
1000
0010
1000
,  // measure 306
0010
1000
0010
0100
0010
0100
0001
1000
,  // measure 307
0001
1000
0001
0000
0001
0001
0001
0000
,  // measure 308
1000
0000
0001
0000
0100
0000
0001
1000
,  // measure 309
0010
1002
1000
1000
,  // measure 310
1000
0000
1000
0000
1000
1003
1001
0000
,  // measure 311
0010
0000
0200
0010
0000
0300
1001
0000
,  // measure 312
0002
1003
1000
1100
,  // measure 313
0011
0000
1000
0100
0010
0001
0010
0100
,  // measure 314
0010
1000
0001
0100
0001
0000
0010
1000
,  // measure 315
0010
0000
0010
0100
0010
0000
0001
1000
,  // measure 316
0001
0000
1000
0100
1000
0000
0010
0001
,  // measure 317
0010
0000
0100
0001
0100
0000
0010
1000
,  // measure 318
0010
1001
0010
0110
,  // measure 319
1000
1100
0010
0011
,  // measure 320
0100
0110
1100
0011
,  // measure 321
0110
2002
0000
0000
,  // measure 322
3003
0000
0000
0000
0001
0000
0000
1000
0000
0000
0100
0000
0010
0000
0000
0001
,  // measure 323
0000
0000
0010
0000
1000
0000
0000
0000
0001
0000
0000
0000
0100
0000
0000
0010
,  // measure 324
0000
0000
1000
0000
0001
0000
0000
0100
0000
0000
0010
0000
1000
0000
0000
0000
,  // measure 325
0001
0000
0000
0000
0010
0000
0000
0100
0000
0000
1000
0000
0100
0000
0000
1000
,  // measure 326
0000
0000
0001
0000
1000
0000
0000
0001
0000
0000
0010
0000
0100
0000
0000
1000
,  // measure 327
0000
0001
1000
0100
0010
0002
0000
0010
,  // measure 328
0000
0010
0013
0000
2000
0000
0000
0000
,  // measure 329
3000
0000
0000
0000
1000
0000
0000
0100
0000
0000
0010
0000
0001
0000
0000
0010
,  // measure 330
0000
0000
0100
0000
0001
0000
0000
0000
1000
0000
0000
0000
0010
0000
0000
0100
,  // measure 331
0000
0000
1000
0000
0100
0000
0000
0010
0000
0000
0001
0000
0010
0000
0000
0100
,  // measure 332
0000
0000
1000
0000
0001
0000
0000
0100
0000
0000
0010
0000
1000
0000
0001
0000
,  // measure 333
1000
0001
1000
0001
1000
0001
1000
0001
,  // measure 334
1000
0001
1000
0001
1000
0001
1000
0001
,  // measure 335
1000
0100
0010
0001
,  // measure 336
0010
0100
0010
1000
,  // measure 337
0001
0001
0001
0000
1000
0000
1000
0000
,  // measure 338
1000
0100
0010
0001
0001
1000
0010
0100
,  // measure 339
0001
0100
0001
0000
0010
1000
0010
0000
,  // measure 340
0010
0100
0010
0000
0001
1000
0001
0000
,  // measure 341
1000
0100
1000
0000
0010
0001
0010
0000
,  // measure 342
0001
0100
0001
0000
2002
0000
3003
0000
,  // measure 343
0010
0100
0010
0000
1000
0100
1000
0000
,  // measure 344
0010
0001
0010
0000
0100
0010
0100
0000
,  // measure 345
0110
0000
0010
0010
0010
0000
0100
0000
,  // measure 346
1000
0100
0010
0001
,  // measure 347
2002
0000
0000
0000
,  // measure 348
0000
0000
0000
0000
,  // measure 349
3003
0000
0000
0000
;
