#TITLE:little prince;
#SUBTITLE:;
#ARTIST:Eel;
#TITLETRANSLIT:;
#SUBTITLETRANSLIT:;
#ARTISTTRANSLIT:;
#CREDIT:;
#BANNER:bn.png;
#BACKGROUND:bg.png;
#LYRICSPATH:;
#CDTITLE:;
#MUSIC:little prince.mp3;
#OFFSET:-0.017;
#SAMPLESTART:32.720;
#SAMPLELENGTH:12.000;
#SELECTABLE:YES;
#BPMS:0.000=98.940,20.000=197.880,24.000=98.940,56.000=198.000,104.000=98.940,130.000=197.880;
#STOPS:106.000=0.303
,106.500=0.303
,109.000=0.303
,109.500=0.303
,112.000=0.303
,112.500=0.303
,115.000=0.303
,115.500=0.303
,119.000=0.303
,122.500=0.303
,126.000=0.303
,129.500=0.303
,160.000=0.314
,189.000=0.910
;
#BGCHANGES:;

//---------------dance-single - ----------------
#NOTES:
     dance-single:
     :
     Hard:
     9:
     0.565,0.722,0.421,0.179,0.139:
0000
0000
0000
0000
,
0000
0000
0000
0000
,
0000
0000
0000
0000
,
0000
0000
0000
0000
0002
0000
0103
0010
,
1000
0000
1000
0100
0010
0100
1000
0001
,
0010
0001
0100
0000
0010
1000
1001
0000
,
1000
0000
0000
0001
0000
0010
0001
0000
0101
0000
0000
0000
1001
0000
0000
0000
,
1100
0000
0000
1000
0000
1000
0010
0000
0110
0000
0000
0000
0110
0000
0100
0000
,
1001
0000
0000
0001
0000
0001
0100
0000
0110
0000
0000
0000
1001
0000
0100
0000
,
0010
0000
0000
0100
0000
0010
1000
0000
0001
0010
0000
0001
0100
0000
0001
1000
,
0001
0000
0100
0000
0010
0000
1000
0000
1000
0010
0100
0001
0100
0000
0000
0000
,
0010
1000
0011
0001
1010
0010
1001
0000
,
1000
0000
0001
0000
0100
0000
0001
0000
0002
0000
0010
0013
0000
0000
0000
0000
,
0001
0100
0010
0000
0100
0010
1000
0000
1000
0100
0001
0000
0001
0100
1000
0000
,
0010
1000
0100
0000
0100
1000
0010
0000
,
0010
1000
0001
0000
0001
0010
0001
0000
,
0001
0100
0010
0000
0010
1000
0001
0000
,
0001
0100
0010
0000
0010
0010
1000
0001
,
0012
0010
0100
0013
,
2100
0010
0100
3010
,
0120
1030
2100
3010
,
0102
0013
0022
0033
,
0120
1000
0100
1030
,
0210
0001
0010
0301
,
1002
0103
2001
3100
,
0120
0000
1030
0100
0020
0000
0032
0000
,
0103
0000
0000
0010
0000
0010
1000
0000
0001
0000
1000
0000
0001
0000
0000
0100
,
0000
0010
1000
0000
0001
0000
0010
0000
0001
0000
0000
0100
0000
0010
1000
0000
,
0001
0000
1100
0000
1000
0000
0000
0001
0000
0010
0001
0000
0010
0000
1001
0000
,
0001
0000
0100
0000
0010
0000
1000
0000
0100
1000
0010
0100
0101
0000
0001
0000
,
0100
0110
0010
1001
0001
1100
1100
1000
,
0010
0000
0100
0000
0001
0000
0100
0000
0110
0000
0010
1000
0001
0000
0001
0010
,
0001
0000
0001
0100
1000
0000
0110
0000
0120
0000
0000
0000
1000
0000
0000
0000
,
0130
0000
0000
0000
,
0000
0000
0210
0001
,
0310
0000
0000
0000
,
0000
0000
0101
0000
,
0000
0000
0000
0000
,
0000
0000
1010
0000
,
0000
0000
0000
0000
,
0000
0000
1000
0010
0100
0001
0010
0001
,
0100
0010
1000
0000
1000
0000
1010
0000
,
0000
0000
1000
0001
0100
0001
0010
0001
,
0100
0010
1000
0000
1000
0000
1001
0000
,
0000
0000
0101
0000
0000
1010
0000
1000
,
0100
1100
0100
1001
,
0001
0000
0001
0100
0010
0000
0010
1000
,
0001
0000
0000
0000
1000
0100
1000
0000
,
0100
1000
0100
0000
1000
0100
0010
0000
,
0100
0010
0001
0000
0001
0010
0001
0000
,
0010
0001
0010
0000
0001
0100
0001
0000
,
0001
0100
0010
1000
0100
1000
0010
0000
,
0010
1000
0001
0000
0001
0010
0001
0000
,
0002
0000
0003
0000
0010
1000
0100
0000
,
0100
1000
0010
0000
0010
1000
0001
1000
,
0100
1000
0001
0010
0100
0010
0100
0010
,
0100
0010
0100
0010
0100
1000
0010
0100
,
0001
0010
0100
0010
0001
0001
0001
0001
,
0001
0010
0001
0010
0001
0100
0010
0000
,
0100
0010
1000
0000
1000
0100
1000
0010
,
1000
0001
0010
0100
0010
1000
0010
0100
,
0010
0001
0010
0100
1000
0001
1001
0000
,
0001
1000
1001
0000
0001
0100
0101
0000
,
0010
0010
0010
0010
0010
1000
0001
0010
,
0001
0100
0010
1000
0100
0010
0001
2000
,
0000
3100
1000
0010
0100
0010
1001
0000
,
0001
0100
0101
0000
0001
0010
0001
1000
,
0100
0010
0000
0000
0000
0000
0000
0000
;

//---------------dance-single - ----------------
#NOTES:
     dance-single:
     :
     Medium:
     7:
     0.406,0.542,0.332,0.009,0.045:
0000
0000
0000
0000
,
0000
0000
0000
0000
,
0000
0000
0000
0000
,
0000
0000
0000
0000
0000
0000
0010
0001
,
0010
0000
0100
1000
0100
0010
1000
0010
,
0100
0100
0010
1001
,
0001
0000
0000
0001
0000
0000
0001
0000
0001
0000
0000
0000
1001
0000
0000
0000
,
1000
0000
0000
1000
0000
0000
1000
0000
1000
0000
0000
0000
1001
0000
0000
0000
,
0010
0000
0000
0010
0000
0000
0010
0000
0110
0000
0000
0000
0110
0000
0000
0000
,
0100
0000
0000
0100
0000
0000
0100
0000
0100
0000
0000
0000
0110
0000
0000
0000
,
0001
0100
0010
1000
0100
0100
0100
0000
,
1000
0100
0010
0001
0010
0100
1000
0000
,
0001
1000
0001
0100
0100
0010
1000
0000
,
1000
0000
0001
0000
0100
0001
0100
0000
0010
0000
1000
0000
0100
1000
0100
0000
,
1000
1000
0001
0001
,
0100
0100
0010
0010
,
1000
0001
1000
0001
,
0100
0000
0010
0000
1000
0100
1000
0001
,
0011
0011
0011
0000
,
1100
1100
1100
0000
,
0110
0110
0110
0110
,
0110
0110
0110
0000
,
1001
1001
1001
0000
,
0110
0110
0110
0000
,
0110
1001
0110
1001
,
0110
1001
0110
1001
,
1000
0000
0000
0001
0000
0000
1000
0000
0100
0000
1000
0000
0010
0000
0000
0100
,
0000
0000
0010
0000
1000
0000
0001
0000
0010
0000
0000
0010
0000
0000
0010
0000
,
0010
0000
0100
0000
0100
0000
0000
1000
0000
0000
0010
0000
0100
0000
0010
0000
,
1000
0001
0100
0001
0010
0010
0010
0100
,
1000
0100
0010
0001
0010
0100
0100
1000
,
0100
0010
0100
1000
0010
0100
0001
0010
,
0001
0010
0100
0010
1000
0000
1000
0000
,
1000
0000
0000
0000
,
0000
0000
0001
0001
,
0001
0000
0000
0000
,
0000
0000
0010
0000
,
0000
0000
0000
0000
,
0000
0000
0010
0000
,
0000
0000
0000
0000
,
0000
1000
0001
0100
,
0001
0000
0100
0010
1000
0001
0010
0000
,
0000
0100
0100
0010
,
1000
0001
0010
0100
,
0000
1000
0000
0001
,
0100
0110
0000
0110
,
0000
0010
1000
0001
,
0100
0010
1000
1000
,
0001
0001
0100
0010
,
1000
0100
1000
0010
,
0100
0001
0010
0100
,
0001
1000
0001
1000
0001
0000
0001
0000
,
0100
0100
0010
1000
,
0002
0000
1003
1000
,
0001
0000
0100
0000
0010
0100
0010
0100
,
0010
0100
0010
0000
1000
0000
1000
0000
,
0001
0000
0001
0000
1000
0001
1000
0000
,
0001
0100
0001
0000
0100
0000
0100
0000
,
0100
0100
0010
1000
,
0001
0000
0010
0000
0001
0100
0010
0000
,
0000
0000
0000
0000
0010
1000
0001
1000
,
0000
0000
1000
0000
,
1100
0000
1100
0000
,
1000
1000
0001
0001
0100
0000
0010
0000
,
1000
0000
0001
0000
0010
0001
0100
0010
,
0000
0000
0000
0000
0100
0010
1000
0000
,
1000
0001
0010
0000
0001
0100
0010
1000
,
0100
0010
0000
0000
0000
0000
0000
0000
;

//---------------dance-double - ----------------
#NOTES:
     dance-double:
     :
     Challenge:
     9:
     0.539,0.692,0.439,0.233,0.094:
00000000
00000000
00000000
00000000
,
00000000
00000000
00000000
00000000
,
00000000
00000000
00000000
00000000
,
00000000
00000000
00000000
00000000
00000000
00000000
00010000
01000000
,
00100000
00000000
00100000
10000000
01000000
00100000
00010000
00100000
,
00001000
00010000
00000100
00001000
00000010
00000100
00000202
00000303
,
00000001
00000000
00000000
00000100
00000000
00000000
00000010
00000000
00001010
00000000
00000000
00000000
00001100
00000000
00000000
00000000
,
00000100
00000000
00000000
00010000
00000000
00000000
00001000
00000000
01010000
00000000
00000000
00000000
10100000
00000000
00100000
00000000
,
01000000
00000000
00000000
00100000
00000000
00000000
10000000
00000000
10010000
00000000
00000000
00000000
00100000
00000000
00001000
00000000
,
00010000
00000000
00000000
00001100
00000000
00000000
00010000
00000000
00101000
00000000
00000000
00000000
00010100
00000000
00000100
00000000
,
00000110
00000000
00000100
00000000
00000010
00000000
00000001
00000000
00000001
00000010
00000100
00001000
00000100
00000000
00000000
00000000
,
00000100
00010000
00001000
00010000
00000100
00010000
00000010
00000000
,
00000110
00000000
00001001
00000000
00000001
00000000
00000010
00000000
00000001
00000000
00000100
00000010
00001000
00000000
00000000
00000000
,
00000100
00010000
00001000
00000000
00001000
00100000
00010000
00000000
00010000
01000000
00001000
00000000
00001000
00100000
00010000
00000000
,
01000000
10000000
00100000
00000000
00100000
10000000
00010000
00000000
,
00010000
00100000
01000000
00000000
01000000
00001000
00010000
00000000
,
00010000
00000100
00001000
00000000
00001000
00000010
00000100
00000000
,
00000100
00000001
00000010
00000000
00000010
00000010
00000100
00000100
,
00000110
00001100
00022000
00033000
,
00110000
01100000
22000000
33000000
,
11000000
01100000
00110000
01010000
,
00110000
00101000
00022000
00033000
,
00011000
00010100
00101000
00000000
,
00101000
00010100
00010010
00000000
,
00000020
00020030
00032000
00203000
,
00320000
02030000
03200000
20300000
,
31000000
00000000
00000000
10000000
00000000
00000000
00100000
00000000
01100000
00000000
01010000
00000000
00010000
00000000
00000000
00100000
,
00000000
00000000
00001000
00000000
00011000
00000000
00000110
00000000
00000001
00000000
00000000
00000100
00000000
00000000
00000010
00000000
,
00001010
00000000
00011000
00000000
00001000
00000000
00000000
00100000
00000000
00000000
01000000
00000000
10000000
00000000
10010000
00000000
,
10000000
00000000
00010000
00000000
00100000
00000000
00001000
00000000
00010000
00000100
00001000
00000010
00000100
00000000
00000010
00000000
,
00010000
00000100
00010000
00001000
00010000
00011000
00001000
00100000
,
01000000
00000000
10000000
00000000
01000000
00000000
00100000
00010000
01000000
00000000
01000000
00001000
00100000
00000000
00010000
01000000
,
00001000
00000000
00001000
00010000
00000100
00000000
00000100
00000000
00000010
00000000
00000000
00000000
00000010
00000000
00000000
00000000
,
00000010
00000000
00000000
00000000
,
00000000
00000000
00000100
00000100
,
00000100
00000000
00000000
00000000
,
00000000
00000000
00011000
00000000
,
00000000
00000000
00000000
00000000
,
00000000
00000000
00011000
00000000
,
00000000
00000000
00000000
00000000
,
00000000
00000000
01000000
00100000
10000000
01000000
00100000
01000000
,
10000000
00010000
00100000
01000000
01000000
10000000
11000000
00000000
,
10000000
00110000
10000000
01010000
,
01000000
01001000
00001000
00011000
,
00000000
00000000
00010000
00000000
00000100
00001000
00000010
00000000
,
00000010
00001000
00000020
00000000
00000100
00000000
00000100
00000000
,
00000130
00000000
00000010
00001000
00000100
00000000
00000100
00010000
,
00001000
00000000
00011000
00000000
00001000
00010000
00000100
00000000
,
00000100
00010000
00001000
00000000
00001000
00010000
00000100
00000000
,
00000100
00010000
00001000
00000000
00001000
00100000
00010000
00000000
,
00100000
00001000
00010000
00000000
00010000
00001000
00100000
00000000
,
00100000
01000000
10000000
01000000
00100000
00010000
01000000
00000000
,
00100000
10000000
01000000
00000000
01000000
10000000
00100000
00000000
,
00100000
10000000
01000000
00000000
01000000
00100000
10000000
00000000
,
10000000
01000000
00100000
00000000
00100000
00001000
00010000
00000100
,
00001000
00000010
00000100
00000000
00000001
00000010
00000100
00000000
,
00000100
00001000
00000010
00000000
00000010
00001000
00000001
00000010
,
00000100
00000010
00000001
00000100
00000110
00000000
00000110
00000000
,
00000010
00001000
00000100
00000000
00000100
00010000
00001000
00000000
,
00001000
00100000
00010000
00000000
00020000
00000000
02030000
00000000
,
03200000
00000000
20300000
00000000
31000000
10000000
00100000
01000000
,
00200000
00000000
20300000
00000000
31000000
00100000
00010000
00000000
,
00100000
00001000
00010000
00000000
00010000
00000100
00001000
00000000
,
00001000
00001000
00000010
00000010
00000200
00000000
00000310
00000000
,
00000020
00000000
00001030
00000000
00001000
00000001
00000010
00000200
,
00000000
00000000
00000310
00000000
00000010
00000001
00000100
00000000
,
00000100
00000010
00001000
00000000
00000010
00001000
00000100
00010000
,
00001000
01000000
00000000
00000000
00000000
00000000
00000000
00000000
;

//---------------dance-single - ----------------
#NOTES:
     dance-single:
     :
     Easy:
     5:
     0.336,0.391,0.233,0.018,0.000:
0000
0000
0000
0000
,
0000
0000
0000
0000
,
0000
0000
0000
0000
,
0000
0000
0000
0000
,
0001
1000
0010
0010
,
1000
0010
0100
0001
,
0010
0100
1100
0101
,
0010
0010
1001
0101
,
0001
0100
1100
0110
,
1010
0010
0101
0010
,
1000
0000
0001
0000
0100
0001
0100
0000
,
0010
1000
0100
0010
,
0100
0000
1000
0000
0010
0100
0010
0000
,
1000
1001
0001
1001
,
0010
0100
0010
1000
,
0010
0100
0010
1000
,
0010
0100
0010
1000
,
0010
0100
0202
0303
,
0001
0001
0001
0000
,
1000
1000
1000
0000
,
0010
0010
0100
0100
,
0110
1001
0110
0000
,
0001
0001
0001
0000
,
0010
0010
0010
0000
,
0100
1000
0010
0100
,
0110
0010
1001
0110
,
0001
0000
0100
0000
0010
1000
0100
0000
,
0010
0000
0001
0100
0010
0000
0100
0000
,
0010
1000
0100
0000
0010
0000
0001
0010
,
0100
0000
1000
0000
0100
1000
0010
0100
,
0000
0001
0000
0100
0010
1000
0001
0000
,
1000
0000
0100
1000
0010
0100
0000
0100
,
0000
0110
0000
0000
0010
0000
0010
0000
,
0010
0000
0000
0000
,
0000
0000
0100
0100
,
0100
0000
0000
0000
,
0000
0000
1001
0000
,
0000
0000
0000
0000
,
0000
0000
1010
0000
,
0000
0000
0000
0000
,
0000
0001
1000
0010
,
0100
0010
0010
0010
,
0000
0010
1000
0001
,
0010
0100
0100
0100
,
0000
1000
0001
0100
,
0001
1000
0100
1000
,
0000
0001
0100
1000
,
0100
0001
0001
0001
,
1000
1000
0010
0010
,
0100
0100
0010
1000
,
0010
0100
0001
1000
,
0001
1000
0001
0000
0100
0000
0100
0000
,
0010
0010
1000
1000
,
0001
0000
0000
0000
1000
0001
1000
0000
,
0001
0100
0010
0010
,
0010
0000
0010
0000
0100
0010
0100
0000
,
0010
1000
0001
0010
,
0100
0000
0010
0000
0001
0010
0001
0000
,
1000
0100
1000
0000
0010
0000
0010
0000
,
0010
0010
0100
0010
,
1000
0001
0010
0100
,
1000
0100
1100
0000
,
0101
0000
0110
0000
,
1001
1001
1001
0001
,
0100
0000
0010
0000
1000
0000
0100
1000
,
0000
0100
1000
0000
0100
0000
0010
0000
,
0001
0100
0001
0100
,
0010
1000
0000
0000
0000
0000
0000
0000
;

//---------------dance-single - ----------------
#NOTES:
     dance-single:
     :
     Beginner:
     3:
     0.199,0.330,0.018,0.000,0.000: // measure 1
0000
0000
0000
0000
,  // measure 2
0000
0000
0000
0000
,  // measure 3
0000
0000
0000
0000
,  // measure 4
0000
0000
0000
0000
,  // measure 5
0000
0000
0000
0000
,  // measure 6
0000
0000
0000
0000
,  // measure 7
0010
0000
0100
0100
,  // measure 8
0010
0000
1000
1000
,  // measure 9
1000
0000
0001
0001
,  // measure 10
0100
0000
0010
0010
,  // measure 11
0100
0100
0100
0000
,  // measure 12
0010
0010
0010
1000
,  // measure 13
0001
0001
0001
0001
,  // measure 14
1000
0000
0001
0000
,  // measure 15
0100
0000
0100
0000
,  // measure 16
0100
0000
0010
0000
,  // measure 17
0100
0000
0100
0000
,  // measure 18
0100
0000
0110
0000
,  // measure 19
0010
0010
0010
0000
,  // measure 20
0010
0010
0010
0000
,  // measure 21
0010
0000
0010
0000
,  // measure 22
0010
0010
0010
0000
,  // measure 23
1000
1000
1000
0000
,  // measure 24
1000
1000
1000
0000
,  // measure 25
1000
0000
1000
0000
,  // measure 26
1000
1000
1001
0000
,  // measure 27
0010
0010
0010
0100
,  // measure 28
0100
0100
0010
0010
,  // measure 29
0010
1000
1000
1000
,  // measure 30
0001
0000
0001
0000
0001
0001
0001
1000
,  // measure 31
0000
1000
0000
1000
1000
1000
0010
0000
,  // measure 32
0010
0000
0010
0010
0010
0100
0000
0100
,  // measure 33
0000
0100
0100
0100
0100
0000
0100
0000
,  // measure 34
0100
0000
0000
0000
,  // measure 35
0000
0000
0010
0010
,  // measure 36
0010
0000
0000
0000
,  // measure 37
0000
0000
1000
0000
,  // measure 38
0000
0000
0000
0000
,  // measure 39
0000
0000
0001
0000
,  // measure 40
0000
0000
0000
0000
,  // measure 41
0000
1000
0000
1000
,  // measure 42
0000
1000
1000
1000
,  // measure 43
0000
0001
0000
1000
,  // measure 44
0000
0100
0100
0100
,  // measure 45
0000
0010
0000
0010
,  // measure 46
0000
0010
0010
0010
,  // measure 47
0000
0100
0000
0010
,  // measure 48
0000
0000
0100
0000
,  // measure 49
0100
0000
0100
0000
,  // measure 50
0100
0000
0100
0000
,  // measure 51
0100
0000
0100
0000
,  // measure 52
0100
0000
0010
0000
,  // measure 53
0010
0000
0010
0010
,  // measure 54
0010
0000
1000
0000
,  // measure 55
1000
0000
1000
1000
,  // measure 56
1000
0000
0001
0000
,  // measure 57
0000
0000
1000
0000
,  // measure 58
1000
0000
0100
0100
,  // measure 59
0100
0000
0100
0000
,  // measure 60
1000
0000
0001
0000
,  // measure 61
0000
0000
1000
0000
,  // measure 62
0000
0000
0010
0000
,  // measure 63
0010
0000
0010
0000
,  // measure 64
0010
0010
0100
0000
,  // measure 65
0010
0000
1000
0000
,  // measure 66
0000
0000
0001
0000
,  // measure 67
1000
0000
0001
0001
,  // measure 68
1000
0000
0000
0000
;
