#TITLE:kyoto EVOLVED;
#SUBTITLE:(ver.A);
#ARTIST:xRGTMx underground;
#TITLETRANSLIT:;
#SUBTITLETRANSLIT:;
#ARTISTTRANSLIT:;
#CREDIT:;
#BANNER:bn.png;
#BACKGROUND:bg.png;
#LYRICSPATH:;
#CDTITLE:PandemiXium-cdtitle.png;
#MUSIC:kyoto EVOLVED (ver.A).mp3;
#OFFSET:-0.030;
#SAMPLESTART:80.660;
#SAMPLELENGTH:12.000;
#SELECTABLE:YES;
#BPMS:0.000=122.000,64.000=244.001,192.000=122.000,216.000=244.001,344.000=488.001,376.000=244.001;
#STOPS:18.000=0.246
,18.250=0.246
,23.000=0.246
,23.500=0.246
,24.000=0.246
,24.500=0.246
,31.000=0.492
,193.750=0.984
,195.750=0.984
,197.750=0.984
,199.750=0.984
;
#BGCHANGES:;

//---------------dance-single - ----------------
#NOTES:
     dance-single:
     :
     Hard:
     10:
     0.702,1.000,0.491,0.142,0.233:
0000
0000
0000
0000
,
0001
0000
0001
0000
1000
0000
1000
0100
0000
0001
0100
0000
0010
0000
1000
0000
,
0100
0000
0000
1100
0000
0000
0011
0000
0000
0101
0000
0000
0020
0000
0030
0000
,
0100
0000
0100
0000
0001
0000
0010
0001
0000
0010
0001
0000
0100
0010
0000
0000
,
1000
0001
0010
0100
0010
0001
0100
0010
0100
0010
1000
0000
1001
0000
0101
0000
,
0100
0000
0001
0010
0000
0010
0100
0000
1000
0001
0100
0000
1010
0000
0101
0000
,
0011
0000
1100
0000
0001
0000
0001
0000
1001
0000
1000
0001
0000
0001
1000
0000
,
1000
0010
0100
0000
0001
0100
0001
0100
0001
0100
0001
0100
0020
0000
0030
0000
,
0100
0000
0001
0000
1001
0000
1000
0100
0000
0010
0001
0000
0010
0000
0001
0000
,
0100
0000
0100
0000
0110
0000
0010
0100
0000
0010
1000
0000
0001
0000
0010
0000
,
0001
0000
1000
0000
1001
0000
1000
0100
0000
1000
0100
0000
0010
0000
0001
0000
,
0010
1000
0010
0001
0100
0010
1001
0000
,
0101
0101
0101
0100
0010
1000
0100
0000
,
1100
1100
1100
1000
0001
0010
0100
0000
,
1100
0000
0000
0101
0000
0000
0110
0000
0000
1001
0000
0000
0011
0000
0100
0000
,
1010
0000
1000
0000
0001
1000
0010
1000
0100
0001
0100
1000
0020
0000
0000
0000
,
0130
0010
1000
0001
,
0010
0000
0001
0000
0100
0010
1000
0000
,
0001
1000
0001
0010
,
0001
0000
0100
0000
0010
0100
0001
1000
,
0100
1000
0100
0010
,
0100
0000
1000
0000
0010
0100
0001
0000
,
1000
0010
0100
0010
,
0100
0000
0001
0000
0001
1000
0100
1000
,
0010
0100
0010
1000
,
0001
0010
0002
0203
,
0310
0010
0100
0100
,
0010
0000
1000
0000
0001
0010
0100
1000
,
0100
1000
0001
0010
,
0100
1000
0020
0230
,
0310
0100
0001
0010
,
0001
0000
1000
0000
0001
1000
0100
1000
,
0010
0110
0010
0110
,
0100
0000
0110
0000
0010
1000
0001
0000
,
1000
1001
0001
1001
,
1000
0000
1001
0000
1000
0001
0100
0001
,
0010
0011
0001
0011
,
0010
0000
0011
0000
0001
1000
0100
0000
,
1000
1100
0100
1100
,
1000
0000
1100
0000
1000
0001
0100
0010
,
1000
0100
1000
0000
0001
0100
0001
0000
,
1000
0001
1000
0000
0001
0000
1000
0000
,
0100
1000
0100
0000
0001
0100
0001
0000
,
0010
0001
0010
0000
0001
0000
0100
0000
,
0010
1000
0001
0000
0001
1000
0100
0000
,
0100
1000
0010
0000
0010
0001
0100
0001
,
0010
0011
0020
0130
,
0100
0000
1100
0000
1000
0001
0100
0010
,
1000
0000
0100
1000
0000
0010
0000
0100
0001
0010
0000
0001
0000
0100
0000
0010
,
0100
0000
0100
0010
0000
1000
0000
0001
1000
0100
0000
1000
0000
0010
0000
0100
,
0101
0000
0010
0000
0001
0100
0010
1000
,
0100
0000
1100
0000
1000
0100
0001
0100
,
1100
0000
0000
0110
0000
0000
0011
0000
0000
1100
0000
0000
1001
0000
1100
0000
,
0101
0000
0000
0000
0000
0000
0011
0000
0000
0000
0000
0000
0001
0000
0000
0010
0000
0000
0100
0000
0000
1000
0000
0000
0001
0000
1000
0000
0001
0000
0010
0000
0001
0000
0100
0000
0020
0000
0000
0000
0000
0000
0032
0000
0000
0000
0000
0000
,
1003
0100
1000
0010
,
1000
0001
0020
0032
,
0103
0010
0100
0010
,
1000
0001
0011
1100
,
0001
1000
0001
0100
,
0001
0010
0002
0203
,
0310
0100
0010
1000
,
0010
0100
0110
1001
,
1000
0001
0010
0001
,
0100
0010
1000
0001
,
0010
0001
0100
0010
,
1000
0100
0010
0001
,
0100
0010
1000
0001
,
0010
0001
0100
0010
,
1000
0100
1000
0010
,
0100
0001
0010
0100
,
1000
0000
0010
0000
0100
0001
0010
0000
,
0010
0001
0010
0000
0001
1000
0001
0000
,
1000
0000
0100
0000
1000
0100
1000
0000
,
1000
0010
1000
0000
1000
0100
1000
0000
,
1000
0000
0001
0000
0100
0001
0100
0000
,
0100
0010
0100
0000
0100
0010
1000
0000
,
0001
0000
1000
0000
0100
1000
0100
0000
,
0001
0010
0001
0000
0001
0100
0010
1000
,
0001
0000
1001
0000
0001
0100
0001
0100
,
0001
0100
0001
0100
0001
0100
0001
0100
,
0001
0000
0011
0000
1000
0100
1000
0100
,
1000
0100
1000
0100
1000
0100
1000
0100
,
1000
0000
0110
0000
0100
0010
0100
0010
,
0100
0010
0100
0010
0100
0010
0100
0010
,
0100
0000
1001
0000
1000
0100
0010
0001
,
0010
0100
0001
1000
0010
0100
0001
0010
,
0200
0000
0000
0000
,
0000
0000
0000
0000
,
0000
0000
0000
0000
,
0000
0000
0000
0000
,
0000
0000
0000
0000
,
0000
0000
0000
0300
,
1000
0000
0001
0000
,
1000
0001
1000
0001
,
2002
0000
0000
0000
,
3003
0000
0000
0000
;

//---------------dance-single - ----------------
#NOTES:
     dance-single:
     :
     Medium:
     8:
     0.564,0.783,0.675,0.100,0.021:
0000
0000
0000
0000
,
0001
1000
1100
0000
0001
0000
0100
0000
,
0110
0000
0000
0010
0000
0000
1000
0000
0000
0001
0000
0000
0022
0000
0033
0000
,
0001
0100
0010
0000
0010
1000
0001
0000
,
1001
0000
0000
0000
1100
0000
0000
0000
0001
1000
0010
0000
0100
0000
0100
0000
,
0110
0000
0010
1000
0001
0000
1100
0101
,
1100
0101
0100
0010
1000
0000
0010
1000
,
0100
0000
1000
0001
0100
0010
1010
0000
,
1000
1000
1100
1000
0100
0010
0011
0000
,
0001
0001
0101
0001
0100
0010
0110
0000
,
0010
0010
0110
0010
1000
0001
1001
0000
,
1000
1000
1001
0001
0100
0001
0011
0000
,
0001
0100
0010
1000
0100
1000
0010
0000
,
0010
1000
0100
0010
0100
1000
0010
0000
,
0010
1000
0010
0100
0001
0010
0001
0010
,
0100
1000
2002
3003
,
1000
0001
0100
0001
,
0010
0001
0100
0010
,
0100
0100
0010
0010
,
0100
0010
1000
0001
,
0010
0001
0010
0001
,
0100
0010
1000
0010
,
0100
0100
0010
0010
,
0010
1000
0001
1000
,
0010
1000
0010
0100
,
0010
1000
0001
0010
,
0100
1000
0100
0010
,
1000
0010
0100
0001
,
0010
0001
0100
0010
,
1000
0001
0100
0100
,
0010
1000
0001
0010
,
0001
0100
0010
1000
,
0100
1100
1000
1100
,
0100
1100
1000
0100
,
0010
0011
0001
0011
,
0010
0011
0001
0100
,
0010
0110
0100
0110
,
0010
0110
0010
1000
,
0001
1001
1000
1001
,
0001
1001
0001
0100
,
0010
0100
0010
1000
,
0001
0010
0011
0011
,
0001
0100
0010
1000
,
0100
0010
1010
1010
,
0010
1000
0100
0010
,
0001
0010
0011
0011
,
0001
0100
0010
1000
,
0001
0100
1010
1010
,
2001
0000
3002
0000
,
2003
0000
3020
0000
,
0130
0000
0110
0000
0010
0010
0110
0000
,
1000
0000
0001
0000
0001
1000
1010
0000
,
1000
0000
0000
1000
0000
0000
0001
0000
0000
0100
0000
0000
0001
0000
0010
0000
,
0001
0010
0100
1000
0001
0100
0020
2030
,
3100
1000
0100
0010
,
0001
0010
0100
0001
,
0100
0100
0010
1000
,
0010
1000
0010
0100
,
0010
1000
0001
0010
,
0001
0100
0010
1000
,
0001
0010
0001
0010
,
0100
1000
0100
0010
,
0110
0110
0010
1000
,
0001
0010
0001
0100
,
0101
0101
0001
0100
,
0010
1000
0001
0010
,
0011
0011
0001
0100
,
0010
1000
0100
1000
,
1010
1010
0010
0100
,
0010
1000
0010
0100
,
0100
0110
0010
0110
,
0100
0110
0010
0110
,
0001
1001
1000
1001
,
0001
1001
1000
1001
,
1000
1100
0100
1100
,
1000
1100
0100
1100
,
0010
0011
0001
0011
,
0001
0011
0010
0001
,
0100
0010
1000
0001
,
0010
0001
0100
0010
,
0110
1001
1000
0001
,
0100
0010
0100
0010
,
0110
1001
1000
0100
,
0010
0001
0010
0100
,
1100
0011
0101
1010
,
0101
0110
1001
1100
,
0022
0000
0000
0000
,
0000
0000
0000
0000
,
0000
0000
0000
0000
,
0000
0000
0000
0000
,
0000
0000
0000
0000
,
0000
0000
0000
0000
,
0000
0000
0000
0000
,
0033
0000
0000
0000
,
1001
0000
0000
0000
;

//---------------dance-double - ----------------
#NOTES:
     dance-double:
     :
     Challenge:
     10:
     0.741,1.000,0.616,0.167,0.246:
00000000
00000000
00000000
00000000
,
01000000
00000000
00010000
00000000
00100000
00000000
00001000
00010000
00000000
00001000
00010000
00000000
00010000
00000100
00001000
00000000
,
00001100
00000000
00000000
00000110
00000000
00000000
00000011
00000000
00000000
00000101
00000000
00000000
00002020
00000000
00003030
00000000
,
00000010
00000000
00001000
00000000
00001100
00000000
00000100
00010000
00000000
00000100
00010000
00000000
00000100
00010000
00001000
00100000
,
00010000
00100000
01000000
10000000
00010000
00100000
00001000
00010000
00000100
00001000
00000010
00000000
00000110
00000000
00000110
00000000
,
00001010
00000000
00000010
00001000
00000000
00001000
00000100
00000000
00000100
00010000
00001000
00000000
00011000
00000000
00110000
00000000
,
00011000
00000000
00001100
00000000
00011000
00000000
00001000
00000000
00100000
00000000
00010000
01000000
00000000
01000000
00100000
00000000
,
00100000
10000000
00010000
00000000
10000000
00000000
00010000
00000000
00100000
00010000
01000000
00100000
20000000
30000000
00000000
00000000
,
10000000
00000000
01000000
00000000
11000000
00000000
10000000
01000000
00000000
01000000
00100000
00000000
00100000
00001000
00000000
00000000
,
00010000
00000000
00000100
00000000
00001000
00000000
00000100
00010000
00000000
00010000
00001000
00000000
00010000
00000100
00000000
00000000
,
00010000
00000000
00000010
00000000
00000100
00000000
00000010
00001000
00000000
00001000
00000100
00000000
00000100
00000010
00000000
00000000
,
00000001
00000010
00000001
00000000
00000010
00000001
00000010
00000000
00000001
00000000
00000100
00000000
00001010
00000000
00000000
00000000
,
00001010
00001100
00010100
00010000
00001000
00100000
00010000
00000000
,
00110000
01010000
01100000
00100000
10000000
01000000
00100000
00000000
,
00110000
00000000
00000000
00011000
00000000
00000000
00001100
00000000
00000000
00000101
00000000
00000000
00001001
00000000
00000010
00000000
,
00001000
00000000
00000100
00000000
00010000
00000000
00001000
00010000
01000000
00100000
10000000
00010000
00100000
00001000
00010000
00000010
,
00000100
00000010
00001000
00000100
,
00001000
00000010
00000110
00001010
,
00001100
00001000
00000100
00010000
,
00001000
00000000
00100000
00000000
00010000
01000000
00100000
10000000
,
01000000
10000000
00100000
01000000
,
00010000
00000000
00100000
00000000
00100000
00001000
00010000
00000000
,
00010000
00000100
00001000
00000010
,
00000100
00000000
00000001
00000000
00000001
00000010
00000100
00001000
,
00000100
00001000
00000100
00010000
,
00001000
00100000
00110000
11000000
,
10000000
00010000
00100000
00001000
,
00010000
00000100
00010100
00011000
,
00101000
00100000
00010000
00100000
,
00010000
01000000
01010000
01100000
,
10000000
01000000
00100000
00010000
,
00100000
00001000
00010000
00000100
,
00001000
00000001
00000000
00000001
00000010
00000100
00000000
00000010
,
00000100
00001000
00000000
00000010
00002000
00000000
00000100
00000000
,
00003010
00001000
00000000
00000100
00010000
00001000
00000000
00001000
,
00100000
00010000
00000000
00100000
00002000
00000000
00013000
00000000
,
00001000
00100000
00000000
00010000
01000000
00100000
00000000
00010000
,
01000000
00100000
00000000
00010000
20000000
00000000
31000000
00000000
,
10000000
01000000
00000000
01000000
00100000
00010000
00000000
00100000
,
00001000
00010000
00000000
00010000
00000200
00000000
00010300
00000000
,
00012000
00023000
00000100
00030100
,
00010100
00000000
00011000
00000000
00001000
00100000
00010000
00000000
,
00012000
00023000
00032000
00010000
,
00203000
00000000
00010000
00000000
00301000
00100000
00010000
01000000
,
00100000
01100000
01000000
10010000
,
10000000
00000000
11000000
00000000
10000000
00010000
01000000
00000000
,
01000000
01010000
00100000
00110000
,
00100000
00000000
00101000
00000000
00100000
00001000
00010000
00000010
,
00000100
00000000
00000000
00000010
00000000
00001000
00000000
00000100
00100000
00010000
00000000
01000000
00000000
00100000
00000000
01000000
,
00001000
00000000
00010000
00001000
00000000
00100000
00000000
00010000
00000010
00000000
00000010
00000100
00000000
00000001
00000000
00001000
,
10010000
00000000
00012000
00000000
00010000
00010000
00013000
00000000
,
00000010
00000000
00001001
00000000
00000001
00001000
00000010
00000000
,
00000001
00001000
00000100
00010000
00001000
00100000
00110000
11000000
,
10000000
00010000
01000000
00000000
01000000
00010000
00100000
00000000
01000000
00010000
00100000
00001000
00010000
00000010
00000100
00000001
,
00001000
00001100
00000100
00001000
,
00000010
00000100
00000001
00001000
,
00001001
00011000
00001000
00010000
,
00001000
00010000
00001000
00010000
,
00011000
10010000
00010000
10000000
,
01000000
00100000
00010000
01000000
,
01100000
00000000
01100000
00000000
00100000
10000000
00010000
01000000
,
00010000
00100000
00010000
01000000
00100000
10000000
01000000
00100000
,
00010000
00101000
00100000
00001000
,
00010000
00000100
00001000
00000010
,
00000110
00001001
00000001
00001000
,
00000100
00010000
00001000
00100000
,
01010000
00011000
00001000
00001000
,
00100000
00010000
01000000
00001000
,
00011000
00001010
00000010
00001000
,
00000100
00010000
00000200
00010000
,
00010300
00000000
00110000
00000000
01000000
00010000
00100000
00010000
,
01000000
00010000
00100000
00010000
01000000
00010000
00100000
00010000
,
02000000
00000000
03010000
00000000
00100000
00001000
00010000
00001000
,
00100000
00001000
00010000
00001000
00100000
00001000
00010000
00001000
,
00100000
00000000
00011000
00000000
00010000
00000100
00001000
00000100
,
00010000
00000100
00001000
00000100
00010000
00000100
00001000
00000100
,
00010000
00000000
00001100
00000000
00001000
00000010
00000100
00000001
,
00000010
00000001
00000010
00000100
00000010
00000001
00001000
00000010
,
00001020
00000000
00001030
00000000
00001000
00000100
00001000
00000100
,
00001000
00000100
00001000
00000100
00001000
00000100
00001000
00000100
,
00001100
00000000
00011000
00000000
00100000
00010000
00100000
00010000
,
00100000
00010000
00100000
00010000
00100000
00010000
00100000
00010000
,
00100000
00000000
11000000
00000000
10000000
00010000
01000000
00010000
,
00100000
00001000
00010000
00000010
00000100
00000001
00000100
00000010
,
00001000
00000000
00011000
00000000
00001000
00100000
00010000
01000000
,
00100000
10000000
01000000
00001000
00100000
00001000
00010000
00000100
,
00002000
00000000
00000000
00000000
,
00000000
00000000
00000000
00000000
,
00000000
00000000
00000000
00000000
,
00000000
00000000
00000000
00000000
,
00000000
00000000
00000000
00000000
,
00000000
00000000
00000000
00000000
,
00003010
00000000
00000010
00000000
,
00000010
00001000
00000100
00020000
,
00002000
00000000
00033000
00000000
;

//---------------dance-single - ----------------
#NOTES:
     dance-single:
     :
     Easy:
     6:
     0.395,0.548,0.133,0.092,0.000: // measure 1
0000
0000
0000
0000
,  // measure 2
0001
0100
1000
0100
,  // measure 3
0202
0000
0000
0303
,  // measure 4
0001
0100
0010
1000
,  // measure 5
0001
0001
1001
0010
,  // measure 6
0100
0000
0010
1000
0001
0000
1000
0001
,  // measure 7
1000
0001
1000
0000
1000
0000
0001
0000
,  // measure 8
0100
0000
0010
0000
0100
0010
1000
0000
,  // measure 9
0001
0101
0100
0110
,  // measure 10
0010
1001
0100
0110
,  // measure 11
0010
0101
0010
1100
,  // measure 12
0010
0000
0101
0000
0010
1000
0001
0000
,  // measure 13
1000
0000
1100
0000
0100
1000
0100
0000
,  // measure 14
0010
0000
0011
0000
0001
0010
0001
0000
,  // measure 15
0011
0100
0010
1000
,  // measure 16
0001
0000
0001
0000
1000
0001
0200
0000
,  // measure 17
0310
1000
0010
0100
,  // measure 18
0010
0100
0010
0000
,  // measure 19
0010
1000
0001
0100
,  // measure 20
0001
0010
0001
0000
,  // measure 21
0001
0100
0010
1000
,  // measure 22
0100
1000
0100
0000
,  // measure 23
0100
1000
0010
0100
,  // measure 24
0001
1000
0001
0000
,  // measure 25
0001
0100
0001
0100
,  // measure 26
0001
0100
0001
0000
,  // measure 27
0010
1000
0010
1000
,  // measure 28
0010
1000
0010
0000
,  // measure 29
1000
0100
1000
0100
,  // measure 30
1000
0100
0010
0000
,  // measure 31
0010
0001
0010
0001
,  // measure 32
0010
0001
0010
0000
,  // measure 33
0001
0000
0100
0000
,  // measure 34
0010
1000
0010
0100
,  // measure 35
0010
0000
0010
0000
,  // measure 36
0010
1000
0010
0100
,  // measure 37
0001
0000
0001
0000
,  // measure 38
0001
0100
0010
1000
,  // measure 39
0100
0000
0100
0000
,  // measure 40
0100
1000
0010
0100
,  // measure 41
0001
0000
0001
0000
,  // measure 42
0001
0100
0010
1000
,  // measure 43
0100
0000
0100
0000
,  // measure 44
0100
1000
0001
1000
,  // measure 45
0010
0000
0010
0000
,  // measure 46
0010
0100
0001
0100
,  // measure 47
0010
0000
0010
0000
,  // measure 48
0010
1000
0100
0010
,  // measure 49
0002
0000
2003
0000
,  // measure 50
3020
0000
0230
0000
,  // measure 51
0310
0000
1000
0000
0010
1000
0010
0000
,  // measure 52
0100
0000
0010
0000
0100
0010
0100
0000
,  // measure 53
0001
1000
0100
1000
,  // measure 54
1010
0000
0101
0000
0220
0000
0000
0330
,  // measure 55
1000
0001
0100
0000
,  // measure 56
0001
0100
0010
0000
,  // measure 57
0010
1000
0010
0100
,  // measure 58
0010
1000
0001
0010
,  // measure 59
0100
0100
1000
0000
,  // measure 60
0100
0100
0010
0000
,  // measure 61
0100
1000
0010
0100
,  // measure 62
0001
0010
0100
1000
,  // measure 63
0010
0010
0100
0000
,  // measure 64
0001
0001
0100
0000
,  // measure 65
0001
0100
0010
1000
,  // measure 66
0100
1000
0100
0000
,  // measure 67
1000
1000
0010
0000
,  // measure 68
0010
0010
0100
0000
,  // measure 69
0100
0001
0010
0100
,  // measure 70
1000
0001
0100
0000
,  // measure 71
0001
0100
0010
1000
,  // measure 72
0010
0100
0001
0000
,  // measure 73
0001
1000
0010
1000
,  // measure 74
0100
1000
0010
0000
,  // measure 75
0010
0100
0001
1000
,  // measure 76
0001
1000
0001
0000
,  // measure 77
1000
0100
0010
0001
,  // measure 78
0010
0100
1000
0000
,  // measure 79
0001
0100
0010
0100
,  // measure 80
0001
0100
0010
0100
,  // measure 81
0001
0100
0010
0100
,  // measure 82
0001
0100
0010
0100
,  // measure 83
0010
1000
0010
0100
,  // measure 84
0010
1000
0010
0100
,  // measure 85
0010
1000
0010
0100
,  // measure 86
0010
1000
0010
0100
,  // measure 87
2002
0000
0000
0000
,  // measure 88
0000
0000
0000
0000
,  // measure 89
0000
0000
0000
0000
,  // measure 90
0000
0000
0000
0000
,  // measure 91
0000
0000
0000
0000
,  // measure 92
0000
0000
0000
0000
,  // measure 93
0000
0000
0000
0000
,  // measure 94
0000
0000
0000
0000
,  // measure 95
3003
0000
0000
0000
;

//---------------dance-single - ----------------
#NOTES:
     dance-single:
     :
     Beginner:
     3:
     0.278,0.509,0.333,0.017,0.000: // measure 1
0000
0000
0000
0000
,  // measure 2
0010
0000
0000
0000
,  // measure 3
0100
0100
0100
0110
,  // measure 4
0010
0000
0000
0000
,  // measure 5
1000
0000
1001
0001
,  // measure 6
0000
0000
0000
1001
,  // measure 7
0000
0010
0000
0000
,  // measure 8
0000
1000
1000
1001
,  // measure 9
0010
0000
0000
0000
,  // measure 10
0100
0000
0000
0000
,  // measure 11
0010
0000
0000
0000
,  // measure 12
1000
0000
1000
0000
,  // measure 13
0001
0000
0000
0000
,  // measure 14
1000
0000
0000
0000
,  // measure 15
0010
0000
0010
0000
,  // measure 16
0010
0010
0100
0110
,  // measure 17
1001
0000
0001
0000
,  // measure 18
0001
0000
0001
0000
,  // measure 19
1000
0000
1000
0000
,  // measure 20
1000
0000
1000
0000
,  // measure 21
0010
0000
0000
0000
,  // measure 22
0010
0000
0000
0000
,  // measure 23
0100
0000
0100
0000
,  // measure 24
0100
0000
0100
0000
,  // measure 25
0110
0000
0000
0000
,  // measure 26
0010
0000
0010
0000
,  // measure 27
0010
0000
0000
0000
,  // measure 28
1000
0000
1000
0000
,  // measure 29
0001
0000
0000
0000
,  // measure 30
0100
0000
0100
0000
,  // measure 31
0001
0000
0000
0000
,  // measure 32
1000
0000
1000
0000
,  // measure 33
1001
0000
0010
0000
,  // measure 34
0010
0010
0010
0000
,  // measure 35
1001
0000
0100
0000
,  // measure 36
0100
0100
0100
0000
,  // measure 37
0110
0000
1000
0000
,  // measure 38
1000
1000
1000
0000
,  // measure 39
1001
0000
0001
0000
,  // measure 40
0001
0001
0001
0000
,  // measure 41
0100
0000
0100
0000
,  // measure 42
0100
0100
0100
0000
,  // measure 43
0010
0000
0010
0000
,  // measure 44
0010
0010
0010
0000
,  // measure 45
1000
0000
1000
0000
,  // measure 46
1000
1000
1000
0000
,  // measure 47
0001
0000
0001
0000
,  // measure 48
0001
0001
0001
0000
,  // measure 49
1001
0000
0100
0000
,  // measure 50
0010
0000
0100
0000
,  // measure 51
0010
0110
0010
0010
,  // measure 52
1001
0010
0010
0010
,  // measure 53
1001
0000
1001
0000
,  // measure 54
1001
1001
0110
0110
,  // measure 55
0010
0000
0010
0000
,  // measure 56
0010
0010
0010
0000
,  // measure 57
1000
0000
0001
0000
,  // measure 58
1000
0001
1000
0000
,  // measure 59
0001
0000
0001
0000
,  // measure 60
0001
0100
0001
0000
,  // measure 61
1000
0000
0010
0000
,  // measure 62
0100
0010
1000
0001
,  // measure 63
0010
0000
0010
0000
,  // measure 64
0010
0100
0010
0000
,  // measure 65
0010
0000
0001
0000
,  // measure 66
1000
0001
1000
0000
,  // measure 67
0100
0000
0100
0000
,  // measure 68
0100
0010
0100
0000
,  // measure 69
0010
0000
0010
0000
,  // measure 70
0100
0000
0100
0000
,  // measure 71
0110
0000
0110
0000
,  // measure 72
0110
0000
0110
0000
,  // measure 73
1001
0000
1001
0000
,  // measure 74
1001
0000
1001
0000
,  // measure 75
0110
0000
0110
0000
,  // measure 76
1001
0000
1001
0000
,  // measure 77
0110
0000
1001
0000
,  // measure 78
0110
0000
1001
0000
,  // measure 79
1000
0001
1000
0001
,  // measure 80
1000
0000
1001
0000
,  // measure 81
0001
1000
0001
1000
,  // measure 82
0001
0000
1001
0000
,  // measure 83
0010
0100
0010
0100
,  // measure 84
0010
0000
0110
0000
,  // measure 85
0100
0010
0100
0010
,  // measure 86
0100
0000
0010
0000
,  // measure 87
2002
0000
0000
0000
,  // measure 88
0000
0000
0000
0000
,  // measure 89
0000
0000
0000
0000
,  // measure 90
0000
0000
0000
0000
,  // measure 91
0000
0000
0000
0000
,  // measure 92
0000
0000
0000
0000
,  // measure 93
0000
0000
0000
0000
,  // measure 94
0000
0000
0000
0000
,  // measure 95
3003
0000
0000
0000
;
