#TITLE:kissy kissy;
#SUBTITLE:;
#ARTIST:SMiLE.dk;
#TITLETRANSLIT:;
#SUBTITLETRANSLIT:;
#ARTISTTRANSLIT:;
#CREDIT:;
#BANNER:bn.png;
#BACKGROUND:bg.png;
#LYRICSPATH:;
#CDTITLE:kamek.png;
#MUSIC:Kissy Kissy.ogg;
#OFFSET:-5.217;
#SAMPLESTART:46.915;
#SAMPLELENGTH:12.000;
#SELECTABLE:YES;
#BPMS:0.000=137.999;
#STOPS:;
#BGCHANGES:;

//---------------dance-single - ----------------
#NOTES:
     dance-single:
     :
     Hard:
     7:
     0.389,0.402,0.105,0.086,0.000:
0000
0000
0000
0000
,
0000
0000
0000
0000
,
0000
0000
0000
0000
,
0000
0000
0000
0000
,
0001
0001
1000
1000
,
0001
0100
0010
1000
,
0100
1000
0010
0100
,
0001
0010
0100
1000
0001
0000
0000
0000
,
0001
0000
0100
0000
0001
0100
0001
0010
,
0001
0000
0100
0000
0010
1000
0010
0100
,
0010
0000
1000
0000
0001
1000
0100
0000
,
1000
0001
1000
0010
0001
0000
0000
0000
,
0100
0000
0010
0000
0100
1000
0001
0000
,
1000
0000
0001
0000
0001
0100
0010
0000
,
0100
0000
0010
0000
0010
0001
0010
1000
,
0100
0000
1000
0001
0100
0000
0000
0000
,
0001
0101
1000
1100
,
0001
0000
1000
0000
0001
0100
0010
0000
,
0100
0000
0110
0000
0010
1000
0001
0000
,
0001
0000
0100
0000
0010
0100
0001
0000
,
1000
0100
1000
0010
,
0100
0001
0010
0000
0010
0100
1000
0000
,
0001
0100
0010
1000
,
1000
0001
0100
0001
0010
0000
0000
0000
,
0001
0100
0001
0100
0001
0000
0100
0000
,
0010
0000
1000
0000
0001
1000
0100
0010
,
0001
1000
0001
1000
0001
0000
0100
0000
,
0010
1000
0001
0010
0001
0000
0000
0000
,
1000
0100
1000
0100
1000
0000
0001
0000
,
0100
0000
0010
0000
0010
1000
0001
0010
,
0100
1000
0100
0010
0100
1000
0001
0100
,
0010
1000
0100
0010
0011
0000
0000
0000
,
0001
0000
0001
0000
0001
0100
0010
0100
,
0001
1000
0001
1001
,
1000
0000
0001
0000
1000
0100
0010
0000
,
0010
0100
1000
0100
0001
0000
0000
0000
,
1100
0000
1000
0000
1000
0001
1000
0010
,
0100
0000
0110
0000
0010
1000
0001
0010
,
0100
0000
1000
0000
0001
0100
0010
0000
,
0010
1000
0001
0010
0100
0000
0000
0000
,
1000
0001
1000
0010
0100
0000
0110
0000
,
0010
0000
0100
0000
0010
1000
0001
0010
,
0100
0010
0100
0010
0100
0000
1000
0000
,
1001
0110
1000
0000
,
0010
1000
0010
1000
0100
0000
0100
0000
,
1000
0000
0001
0000
0100
0010
1000
0100
,
1000
0001
1000
0001
0100
0000
0001
0000
,
0001
0010
0100
0010
0001
0000
0000
0000
,
0002
2003
3100
0000
,
1000
0000
0001
0000
0100
0010
1000
0000
,
2000
3200
1300
0000
,
1000
0100
0010
0001
0100
0000
0000
0000
,
0020
2030
3001
0000
,
0001
0000
0101
0000
0001
0100
0010
0000
,
0200
0000
0320
0000
0130
0000
0000
1000
,
0100
1000
0010
0100
0002
0000
0000
0000
,
0003
0000
0000
0000
;

//---------------dance-single - ----------------
#NOTES:
     dance-single:
     :
     Medium:
     5:
     0.326,0.402,0.211,0.067,0.000:
0000
0000
0000
0000
,
0000
0000
0000
0000
,
0000
0000
0000
0000
,
0000
0000
0000
0000
,
1000
0000
0001
0000
,
0100
0100
0010
0010
,
1000
0000
0001
0000
,
0001
0100
0010
0000
,
0100
0000
1010
0000
0010
1000
0100
0000
,
1000
0010
0100
0001
,
0010
0000
0011
0000
0001
0100
0010
0000
,
1000
0001
1000
0000
,
0010
0000
0101
0000
0001
0100
0010
0000
,
1000
0000
1100
0000
1000
0100
0010
0000
,
0100
0000
1001
0000
0001
0100
0010
0000
,
0010
1000
0100
0010
0001
0000
0000
0000
,
1000
0000
0001
0000
,
1000
0000
0010
0000
0100
0001
0100
0000
,
0001
0000
1000
0000
,
0010
0010
0110
0110
,
0100
0000
0010
0000
,
0001
0010
0100
0010
,
0001
1000
0100
1000
,
0010
1000
0100
0010
0001
0000
0000
0000
,
1000
1000
0001
0001
,
1000
0001
1001
1001
,
0010
0010
0100
0100
,
0010
0100
1000
0001
0010
0000
0000
0000
,
0001
0001
1000
1000
,
0001
1000
1001
1001
,
0010
0010
0100
0100
,
0010
0100
0010
1000
0100
0000
0000
0000
,
1000
1000
0010
0010
,
0100
1000
0001
0010
,
0001
0100
0010
1000
,
0100
0000
1000
0010
0100
0000
0101
0000
,
0001
0000
0100
0000
0010
1000
0010
0000
,
1000
0000
1010
0000
0010
0100
0001
0010
,
0100
0000
1100
0000
1000
0100
0010
0000
,
0100
0010
1000
0001
0010
0000
0000
0000
,
0001
0001
1000
1000
,
0010
1000
0100
0010
,
0011
0011
1100
1100
,
0001
1000
0001
1000
0001
0000
0000
0000
,
0101
0000
1010
0000
,
1000
0110
0010
0110
,
0010
0001
0100
0001
,
0100
1000
0100
0001
0010
0000
0000
0000
,
0002
0010
0013
0000
,
0001
1000
0010
0100
,
0020
1000
1030
0000
,
1000
0002
0200
0303
,
0100
0100
0200
0300
,
0010
0000
1000
0000
0100
1000
0010
0000
,
1000
0001
0200
0300
,
0001
0010
0100
1000
0200
0000
0000
0000
,
0300
0000
0000
0000
;

//---------------dance-double - ----------------
#NOTES:
     dance-double:
     :
     Challenge:
     7:
     0.394,0.483,0.278,0.077,0.000:
00000000
00000000
00000000
00000000
,
00000000
00000000
00000000
00000000
,
00000000
00000000
00000000
00000000
,
00000000
00000000
00000000
00000000
,
01000000
00010000
00100000
00100000
,
00010000
01000000
00100000
10000000
,
01000000
00100000
01000000
00100000
,
10000000
00010000
00110000
00000000
,
00100000
00000000
00010000
00000000
01000000
00001000
00010000
00000000
,
00000100
00000000
00001000
00000000
00000010
00000100
00000001
00000010
,
00000100
00000000
00000100
00000000
00000100
00000010
00000001
00000000
,
00000100
00000000
00000010
00000100
00000001
00000000
00000000
00000000
,
00000001
00000000
00001000
00000000
00000100
00001000
00000100
00010000
,
00001000
00000000
00100000
00000000
00100000
00010000
01000000
00100000
,
10000000
01000000
00010000
01000000
,
01000000
10000000
00100000
01000000
00010000
00000000
00000000
00000000
,
10010000
00100000
10010000
01000000
,
01000000
00000000
00010000
00000000
00100000
00001000
00010000
00000000
,
00000100
00000100
00000010
00000010
,
00000010
00000001
00000010
00000100
00001000
00000100
00001000
00000000
,
00000010
00000000
00000100
00000000
00000001
00001000
00000100
00000000
,
00001000
00000010
00010000
00001000
00100000
00010000
01000000
00000000
,
00100000
01000000
00100000
10000000
,
10000000
00010000
00100000
00001000
00010000
00000000
00000000
00000000
,
00011000
00011000
00001000
00100000
,
00010000
00000000
01000000
00000000
00100000
10000000
01000000
00100000
,
00110000
00110000
00100000
00001000
,
00010000
00001000
00100000
00001000
00010000
00000000
00000000
00000000
,
00011000
00011000
00010100
00010100
,
00010000
00000100
00001000
00000010
00000200
00000000
00000301
00000000
,
00000001
00001000
00000100
00000000
00000100
00001000
00000010
00000100
,
00000001
00000010
00000100
00001000
00000100
00000000
00000000
00000000
,
00000100
00001000
00000010
00000010
,
00000100
00000010
00001000
00001000
,
00000001
00000010
00000100
00000100
,
00000010
00000001
00000100
00000000
,
00000010
00000000
00000010
00000000
00000010
00000100
00000010
00000100
,
00000001
00000000
00000001
00000000
00000001
00001000
00000001
00001000
,
00000100
00000000
00000100
00000000
00000100
00001000
00000100
00001000
,
00000010
00000000
00000100
00000010
00001000
00000000
00000000
00000000
,
00011000
00011000
00101000
00101000
,
00001000
00000000
00100000
00000000
00010000
01000000
00100000
10000000
,
11000000
00000000
11000000
00000000
10000000
01000000
10000000
01000000
,
00100000
00010000
00100000
00001000
00010000
00000000
00000000
00000000
,
00011000
00011000
00001010
00001010
,
00001000
00000010
00000100
00000001
00000010
00000100
00001000
00000100
,
00000110
00000000
00000110
00000000
00000010
00000001
00000010
00000001
,
00000100
00000010
00001000
00000100
00000010
00000000
00000000
00000000
,
00002010
00000010
00003010
00000000
,
00000100
00001000
00000010
00000100
,
00001002
00001000
00001003
00000000
,
00000010
00001000
00000100
00010000
00000200
00000000
00000300
00000000
,
00012000
00010000
00013000
00000000
,
00001000
00000000
00110000
00000000
00010000
01000000
00100000
00000000
,
21000000
00000000
01000000
00000000
31000000
00000000
00000000
01000000
,
00010000
00100000
00001000
00010000
00020020
00000000
00000000
00000000
,
00030030
00000000
00000000
00000000
;

//---------------dance-single - ----------------
#NOTES:
     dance-single:
     :
     Easy:
     3:
     0.233,0.293,0.125,0.000,0.000:
0000
0000
0000
0000
,
0000
0000
0000
0000
,
0000
0000
0000
0000
,
0000
0000
0000
0000
,
0010
0000
0000
0000
,
0010
0000
0000
0000
,
0010
0000
0000
0000
,
0010
1000
0001
0000
,
1000
0000
0001
0000
,
1000
1000
1000
0000
,
0010
0000
0100
0000
,
0001
0010
0100
0000
,
0100
0000
0010
0000
,
0001
0001
0001
0000
,
0100
0000
0010
0000
,
1000
1000
1000
0000
,
1001
0000
0110
0000
,
0010
0010
0010
0010
,
1000
0000
0001
0000
,
0010
0001
0100
0010
,
1000
0000
1000
0000
,
0001
0001
1000
0010
,
0100
0000
0010
0000
,
1000
0100
0010
0000
,
0001
0001
1000
1000
,
0001
1000
1001
1001
,
0010
0010
0100
0100
,
0010
0100
0010
0000
,
0001
0100
0001
0001
,
0100
0100
0101
0101
,
0001
0100
0010
1000
,
0100
0001
0100
0000
,
1000
0010
0100
0000
,
0100
0010
1000
0000
,
0001
0010
0001
0000
,
0100
0100
0100
0000
,
0010
1000
0100
0000
,
0100
1000
0010
0100
,
0001
0000
0001
0000
,
0001
1000
0010
0000
,
1000
1000
0001
0001
,
1000
0001
1001
1001
,
1000
1000
0100
0100
,
1000
0100
1100
0000
,
0010
0010
0001
0001
,
0010
0001
0011
0011
,
0001
0001
0100
0100
,
0001
0100
0101
0000
,
0001
1000
0100
0000
,
1000
0000
0010
0000
,
0100
0100
0100
0000
,
0001
1000
0100
0000
,
0100
1000
0010
0000
,
0100
0001
0010
0100
,
1000
1000
1000
0000
,
1000
0001
0101
0000
;

//---------------dance-single - ----------------
#NOTES:
     dance-single:
     :
     Beginner:
     1:
     0.114,0.160,0.010,0.000,0.000: // measure 1
0000
0000
0000
0000
,  // measure 2
0000
0000
0000
0000
,  // measure 3
0000
0000
0000
0000
,  // measure 4
0000
0000
0000
0000
,  // measure 5
1000
0000
0000
0000
,  // measure 6
0000
0000
0000
0000
,  // measure 7
0001
0000
0000
0000
,  // measure 8
0100
0100
0100
0000
,  // measure 9
0010
0000
0000
0000
,  // measure 10
0100
0000
0000
0000
,  // measure 11
0010
0000
0000
0000
,  // measure 12
0100
0000
0100
0000
,  // measure 13
0001
0000
0000
0000
,  // measure 14
1000
0000
0000
0000
,  // measure 15
1000
0000
0000
0000
,  // measure 16
0001
0000
1000
0000
,  // measure 17
0010
0000
0000
0000
,  // measure 18
0100
0000
0000
0000
,  // measure 19
0010
0000
0000
0000
,  // measure 20
1000
0000
0001
0000
,  // measure 21
1000
0000
0000
0000
,  // measure 22
0100
0000
0000
0000
,  // measure 23
0010
0000
0000
0000
,  // measure 24
0100
0100
0100
0000
,  // measure 25
0001
0000
0000
0000
,  // measure 26
1000
0000
0000
0000
,  // measure 27
0001
0000
0000
0000
,  // measure 28
1000
1000
1000
0000
,  // measure 29
0010
0000
0000
0000
,  // measure 30
0100
0000
0000
0000
,  // measure 31
0010
0000
1000
0000
,  // measure 32
0100
0100
0100
0000
,  // measure 33
0010
0000
0000
0000
,  // measure 34
0100
0000
0000
0000
,  // measure 35
1000
0000
0000
0000
,  // measure 36
0001
0000
1000
0000
,  // measure 37
0001
0000
0000
0000
,  // measure 38
0001
0000
0000
0000
,  // measure 39
0100
0000
0000
0000
,  // measure 40
0010
0000
0010
0000
,  // measure 41
0100
0000
0000
0000
,  // measure 42
0010
0000
0010
0000
,  // measure 43
1000
0000
0000
0000
,  // measure 44
1000
1000
1000
0000
,  // measure 45
0001
0000
0000
0000
,  // measure 46
1000
0000
0000
0000
,  // measure 47
0010
0000
0000
0000
,  // measure 48
0100
0100
0100
0000
,  // measure 49
0010
0010
0010
0000
,  // measure 50
0100
0000
0010
0000
,  // measure 51
1000
1000
1000
0000
,  // measure 52
0001
0000
0001
0000
,  // measure 53
1000
1000
1000
0000
,  // measure 54
0010
0000
0100
0000
,  // measure 55
0001
0001
0001
0000
,  // measure 56
0010
0000
1001
0000
;
