#TITLE:Yingxuezuo;
#SUBTITLE:;
#ARTIST:Jin Zhen;
#TITLETRANSLIT:;
#SUBTITLETRANSLIT:;
#ARTISTTRANSLIT:;
#CREDIT:;
#BANNER:bn.png;
#BACKGROUND:bg.png;
#LYRICSPATH:;
#CDTITLE:;
#MUSIC:Yingxuezuo.mp3;
#OFFSET:0.057;
#SAMPLESTART:74.220;
#SAMPLELENGTH:12.000;
#SELECTABLE:YES;
#BPMS:0.000=155.000;
#STOPS:;
#BGCHANGES:;

//---------------dance-single - ----------------
#NOTES:
     dance-single:
     :
     Hard:
     8:
     0.405,0.507,0.109,0.055,0.094:
0000
0000
0000
0000
,
0000
0000
0000
0000
,
0000
0000
0000
0000
,
0000
0000
0000
0000
,
0000
0000
0000
0000
,
0000
0000
0000
0000
,
0000
0000
0000
0000
,
0000
0000
0000
0000
,
0002
0000
0000
0003
,
0200
0000
0000
0300
,
0020
0000
0000
0030
,
0200
0000
0000
0300
,
0020
0000
0000
0030
,
2000
0000
0000
3000
,
0002
0000
0000
0003
,
0100
0010
1000
0001
0010
0001
0100
1000
,
0001
0100
0010
1000
,
0001
0010
0001
0100
,
1000
0100
0001
0010
,
1000
0000
0010
0000
0001
0000
0100
0010
,
1000
1000
0001
0010
,
0001
0100
0010
1000
,
0001
0010
0001
0010
,
0001
0000
0100
0000
0010
0000
1000
0001
,
0010
0010
0001
0010
,
0100
0100
1000
0100
,
1000
1000
0010
1000
,
0010
0010
0100
0010
,
0100
0100
0001
0010
,
0100
0100
0010
0010
,
0001
0001
0010
0001
,
0100
0001
0100
0010
1000
0100
0010
0001
,
0100
0000
0000
0010
0000
0000
1000
0000
,
0001
0000
0000
0010
0000
0100
1000
0000
,
0010
0000
0000
0100
0000
0000
0010
0000
,
1000
0000
0000
1000
0000
0001
1000
0001
,
0100
0000
0000
0100
0000
0010
1000
0100
,
0010
0000
0000
0010
0000
0010
0001
0100
,
0010
0000
0000
0100
0000
0100
0010
1000
,
0001
0000
0000
0000
0000
0000
0000
1000
0001
0000
1000
0000
0001
0000
1000
0000
,
1001
0000
0000
0000
,
0010
0000
0000
0010
,
1000
0100
1000
0010
,
0000
0000
0100
0010
,
1001
0000
0000
0000
0010
0000
0100
0010
,
1000
0000
0000
0000
1000
0000
0001
0100
,
0101
0000
0000
0100
0100
0000
0000
0100
,
0010
1000
0001
0010
0001
0100
0010
1000
,
0100
1000
0010
0100
,
0100
0001
0000
0010
0000
0001
0010
0100
,
1000
0100
0010
1000
0100
1000
0000
1010
,
0000
0000
0000
0000
1000
0100
0010
0001
,
0011
0000
0000
0000
0001
0010
0100
1000
,
1100
0000
0000
0000
1000
0001
0100
0001
,
0010
0000
1000
0100
1000
0001
0010
0100
,
0010
0001
0100
0010
1000
0000
0001
0000
,
0010
0011
0001
0101
,
0001
0100
0000
0110
0000
0010
1000
0100
,
0010
0001
0010
0100
1000
0001
0000
0101
,
0000
0000
0000
0000
0001
1000
0100
0010
,
1001
0000
0000
0000
0010
1000
0001
0010
,
1001
0000
0000
0000
0010
1000
0001
0010
,
0001
0000
0100
0010
1000
0001
0010
0001
,
1000
0001
1000
0001
1000
0001
1000
0001
,
1000
0000
0000
0001
0000
0000
0100
0000
0010
0000
0000
1000
0000
0000
0100
0000
,
1000
0000
0000
0100
0000
0000
0010
0000
0001
0000
0000
0010
0000
0000
0001
0000
,
0100
0000
0000
0010
0000
0000
1000
0000
0001
0000
0000
0100
0000
0000
0010
0000
,
1000
0000
0000
0100
0000
0000
1000
0000
0100
0000
0000
0010
0000
0000
0001
0000
,
0010
0000
0000
0001
0000
0000
0100
0000
0010
0000
0000
1000
0000
0000
0001
0000
,
0100
0000
0000
0010
0000
0000
1000
0000
0100
0000
0000
1000
0000
0000
0010
0000
,
0100
0000
0000
0001
0000
0000
0100
0000
0010
0000
0000
1000
0000
0000
0100
0000
,
1000
0000
0000
0001
0000
0000
0100
0000
0010
0000
0000
1000
0000
0000
0001
0000
,
0010
0100
1000
0100
,
0010
0001
0000
0010
0000
0001
0100
0010
,
1000
0010
0100
0100
0010
1000
0000
0101
,
0000
0000
0000
0000
0000
0000
0000
0000
0000
0000
0000
0000
0000
0000
0000
0000
0000
0000
0000
0000
0000
0000
0000
1000
0001
0000
0000
0000
0000
0000
0100
0000
0000
0000
0000
0000
0001
0000
0000
0000
0000
0000
0100
0000
0000
0000
0000
0001
,
0100
0000
0000
0000
0000
0000
0000
0000
0000
0000
0000
0000
0000
0000
0000
0000
0000
0000
0000
0000
0000
0000
0000
0010
0100
0000
0000
0000
0000
0000
0010
0000
0000
0000
0000
0000
1000
0000
0000
0000
0000
0000
0001
0000
0000
0000
0000
0000
,
0011
0000
0000
0000
0000
0000
0000
0000
0000
0000
0000
0000
0000
0000
0000
0000
0000
0000
0000
0000
0000
0000
0000
0001
0010
0000
0000
0000
0000
0000
0001
0000
0000
0000
0000
0000
0100
0000
0000
0000
0000
0000
0010
0000
0000
0000
0000
0000
,
0100
0000
0010
1000
0001
0100
0010
1000
,
0100
0010
0001
0100
0010
1000
0001
0010
,
0000
0000
0000
0000
0000
0000
0000
0000
0000
0000
0000
0000
0000
0000
0000
0000
0000
0000
0000
0000
0000
0000
0000
0000
0000
0000
0000
0000
0000
0000
0000
0000
0000
0000
0000
0000
0000
0000
0000
0000
0000
0000
0000
0000
0000
0000
0000
0000
0000
0000
0000
0000
0000
0000
0000
0000
0000
0000
0000
0000
0000
0000
0000
0000
0000
0000
0000
0000
0000
0000
0000
0000
0000
0000
0000
0000
0000
0000
0000
0000
0000
0000
0000
0000
1000
0000
0000
0000
0000
0000
0000
0000
0000
0100
0000
0000
0000
0000
0000
0000
0000
0000
0000
0000
0000
0000
0000
0000
0000
0000
0000
0000
0000
0000
0000
0000
0000
0000
0000
0000
0000
0000
0000
0000
0000
0000
0000
0000
0000
0000
0000
0000
0000
0000
0000
0000
0010
0000
0000
0000
0000
0000
0000
0000
0000
0000
0000
0000
0000
0000
0000
0000
0000
0000
0000
0000
0000
0000
0000
0000
0000
0000
0000
0000
0000
0000
0000
0000
0000
0000
0000
0000
0000
0000
0000
0000
0000
0000
0000
0000
0000
0000
0000
0000
0000
0000
0000
0000
0000
0000
0000
0000
,
0001
0000
0000
0000
;

//---------------dance-single - ----------------
#NOTES:
     dance-single:
     :
     Medium:
     5:
     0.276,0.406,0.109,0.117,0.000:
0000
0000
0000
0000
,
0000
0000
0000
0000
,
0000
0000
0000
0000
,
0000
0000
0000
0000
,
0000
0000
0000
0000
,
0000
0000
0000
0000
,
0000
0000
0000
0000
,
0000
0000
0000
0000
,
0200
0000
0000
0300
,
2000
0000
0000
3000
,
0020
0000
0000
0030
,
0200
0000
0000
0300
,
0002
0000
0000
0003
,
2000
0000
0000
3000
,
0020
0000
0000
0030
,
2000
0000
0000
3000
,
0001
1000
0001
0000
,
0001
0100
0100
0000
,
0100
0000
0010
0000
,
1000
0000
0001
0000
,
1000
0100
1000
0000
,
1000
0010
0100
0000
,
0100
1000
0001
0010
,
0001
0100
1000
0100
,
0001
0001
0001
0000
,
0011
0000
1100
0000
,
1000
0010
0100
0000
,
0010
0000
1001
0000
,
0001
0100
1000
0000
,
1000
0100
0001
0010
,
0001
0100
0010
1000
,
0100
0100
1000
0010
,
0200
0000
0000
0000
,
0000
0000
0000
0300
,
0020
0000
0000
0000
0000
0030
0000
0000
,
2000
0000
0000
3000
0000
0000
0000
0000
,
0002
0000
0000
0003
0000
0000
0000
0000
,
2000
0000
0000
3000
0000
0000
0000
0000
,
0110
0000
0000
0000
,
1001
0000
0000
0000
,
1001
0000
0000
0000
,
0000
0000
0000
0000
,
0000
0000
0000
0000
,
0000
0000
0000
0000
,
0101
0000
0000
0000
0000
0000
0000
0100
,
0010
0000
0000
0000
0000
0000
0000
0010
,
1000
0000
0000
0010
1000
0000
0000
0010
,
1000
0010
1000
0010
1000
0010
1000
0010
,
1000
1000
0001
0001
,
1000
0001
1000
0001
,
0100
0000
0010
0000
1000
0100
0000
1000
,
0000
0000
1000
1000
,
1001
0000
0001
0001
,
0011
0000
0001
0100
,
0010
0100
1000
0100
,
0001
0010
0001
0100
,
1100
0100
0011
0001
,
2002
3003
0000
0001
,
0100
0000
0010
0000
1000
0100
0000
1000
,
0000
0000
0000
0000
1000
0001
1000
0001
,
1000
0000
0000
0000
0001
0100
0001
0100
,
0001
0000
0000
0000
0010
1000
0010
1000
,
0010
0010
1000
0001
,
0100
0100
0100
0100
,
0101
0100
0110
1000
,
0010
1000
0000
0001
0000
0000
1000
0000
,
0100
0000
0010
0000
0010
0100
0000
1000
,
0000
0000
0000
0000
0001
0100
0001
0100
,
0001
0000
0000
0000
0100
0010
0100
0010
,
0100
0000
0000
0000
0010
1000
0010
1000
,
0010
1000
0100
1000
,
0010
0100
0001
0010
,
0001
1000
0001
1000
,
0001
1000
0000
0001
0000
1000
0100
0010
,
0001
1000
0100
0010
0001
0100
0000
0010
,
0000
0000
0000
0000
0010
1000
0100
1000
,
0010
0000
0000
0000
0001
0100
0001
0010
,
0001
0000
0000
0000
0001
0100
0010
1000
,
0000
1000
0100
0010
,
0001
0000
1000
0000
0001
0100
0010
1000
;

//---------------dance-double - ----------------
#NOTES:
     dance-double:
     :
     Challenge:
     8:
     0.489,0.540,0.203,0.344,0.152:
00000000
00000000
00000000
00000000
,
00000000
00000000
00000000
00000000
,
00000000
00000000
00000000
00000000
,
00000000
00000000
00000000
00000000
,
00000000
00000000
00000000
00000000
,
00000000
00000000
00000000
00000000
,
00000000
00000000
00000000
00000000
,
00000000
00000000
00000000
00000000
,
02020000
00000000
00000000
03000000
,
00200000
00300000
02000000
03000000
,
20000000
00000000
00000000
30000000
,
02000000
00000000
00000000
03000000
,
00200000
00000000
00000000
00300000
,
02000000
00000000
00000000
03000000
,
00200000
00000000
00000000
00300000
,
00130000
00001000
00010000
00000100
00001000
00000010
00000001
00000010
,
00001010
00001000
00000100
00010000
,
00001000
00001000
00100000
00010000
,
01000000
10000000
01000000
00010000
,
00100000
00000000
00001000
00000000
00010000
00000000
00000100
00001000
,
00000010
00000010
00000100
00000001
,
00000010
00000000
00000100
00000000
00000010
00000000
00000001
00000100
,
00000010
00000000
00000010
00001000
00000100
00000000
00000100
00010000
,
00001000
00010000
00001000
00100000
00001000
00010000
00000100
00001000
,
00000020
00001030
00002000
00003100
,
00000200
00010300
00000200
00001300
,
00000020
00000130
00000200
00000310
,
00000020
00010030
00002000
00103000
,
00020000
00130000
00200000
00310000
,
00200000
01300000
02000000
03100000
,
02000000
13000000
20000000
31000000
,
20000000
32000000
03200000
00320000
,
00130000
01000000
10000000
01000000
00000000
01000000
10000000
01000000
,
00100000
00010000
00100000
01000000
00000000
01000000
00100000
00010000
,
00001000
00000010
00000100
00000001
00000000
00000001
00000100
00000010
,
00001000
00000100
00001000
00000010
00000000
00000010
00000100
00000010
,
00001000
00000100
00010000
00001000
00000000
00001000
00010000
00100000
,
00010000
00100000
01000000
10000000
00000000
00000000
10000000
01000000
,
00100000
00010000
00100000
01000000
00000000
00001000
00000010
00000000
,
00002002
00000000
00000000
00003003
,
00000001
00000100
00000010
00001000
,
00000100
00000100
00000000
00001100
00000000
00000100
00010000
00001000
,
00100000
00010000
01000000
10000000
01000000
00010000
00000000
10010000
,
00000000
00000000
10000000
00010000
,
00110000
00000000
00010000
01000000
,
01001000
00000000
01000000
00001000
,
00011000
00010000
00010100
00000100
,
00001100
00011000
00110000
01100000
,
10020000
10030000
20010000
30010000
,
00010000
01000000
00000000
01010000
00000000
00010000
01000000
00100000
,
10000000
00010000
01000000
00100000
10000000
01000000
00000000
11000000
,
00000000
00000000
00000000
00000000
10000000
01000000
00100000
00010000
,
00110000
00000000
00000000
00000000
00100000
00010000
00001000
00000100
,
00000110
00000000
00000000
00000000
00000010
00000100
00001000
00000001
,
00000100
00000010
00001000
00000100
00010000
00001000
00100000
00010000
,
01000000
01000000
00100000
00100000
00200000
00000000
00302000
00000000
,
00023000
00031000
00020000
00030100
,
00000100
00020000
00000000
00031000
00000000
00001000
00100000
00010000
,
00100000
00001000
00010000
00000100
00001000
00000020
00000000
00000130
,
00000000
00000000
00000000
00000000
00000010
00001000
00000100
00010000
,
00110000
00000000
00000000
00000000
00100000
00001000
00010000
00000010
,
00000110
00000000
00000000
00000000
00000010
00001000
00000100
00010000
,
00001000
00100000
00010000
00100000
00010000
01000000
00001000
00010000
,
00000200
00001300
00000200
00010300
,
00001000
00000000
00000000
00010000
00000000
00000000
00001000
00000000
00100000
00000000
00000000
01000000
00000000
00000000
00100000
00000000
,
00001000
00000000
00000000
00010000
00000000
00000000
00000100
00000000
00001000
00000000
00000000
00000010
00000000
00000000
00000100
00000000
,
00000001
00000000
00000000
00000010
00000000
00000000
00000100
00000000
00001000
00000000
00000000
00000100
00000000
00000000
00001000
00000000
,
00000100
00000000
00000000
00010000
00000000
00000000
00001000
00000000
00100000
00000000
00010000
00000000
00100000
00000000
00001000
00000000
,
00011000
00000000
00000000
00000000
00010000
00000100
00001000
00000100
,
00010100
00000000
00000000
00000000
00000100
00010000
00001000
00100000
,
00010000
02000000
03010000
00020000
,
00130000
00000000
00000000
00000000
00110000
00000000
00000000
00000000
00101000
00000000
00000000
00000000
00100010
00000000
00000000
00001000
,
00000100
00000000
00000000
00000010
00000001
00000000
00000000
00000001
00000100
00000000
00000000
00000100
00000010
00000000
00000000
00000010
,
00001000
00000000
00000000
00001000
00000100
00000000
00000000
00000100
00010000
00000000
00000000
00010000
00001000
00000000
00000000
00001000
,
01000000
00000000
00000000
01000000
00100000
00000000
00000000
10000000
01000000
00000000
00000000
01000000
10000000
00000000
00000000
10000000
,
00010000
00000000
00000000
00010000
00100000
00000000
00000000
00100000
01000000
00000000
00000000
01000000
10000000
00000000
00000000
10000000
,
00010000
00000000
00000000
00010000
00100000
00000000
00000000
00100000
00001000
00000000
00000000
00001000
00010000
00000000
00000000
00010000
,
00000100
00000000
00000000
00001000
00000100
00000000
00000000
00000100
00000010
00000000
00000000
00000010
00000001
00000000
00000000
00000001
,
00000100
00000000
00000000
00000100
00000010
00000000
00000000
00000010
00001000
00000000
00000000
00001000
00000100
00000000
00000000
00001000
,
00000010
00001000
00000100
00010000
00001000
00100000
00010000
01000000
,
00000000
00000000
00000000
00000000
00000000
00000000
00000000
00020000
00000000
00000000
00000000
00200000
00000000
00000000
00000000
00000000
,
00030000
02000000
00000000
00000000
00000000
00000000
00000000
00000000
03300000
00000000
00000000
00000000
00000000
00000000
00000000
00000000
00000000
00000000
00000000
00000000
00000000
00000000
00000000
00000000
00000000
00000000
00000000
00000000
00000000
00000000
00000000
00000000
;

//---------------dance-single - ----------------
#NOTES:
     dance-single:
     :
     Easy:
     4:
     0.249,0.406,0.149,0.211,0.000:
0000
0000
0000
0000
,
0000
0000
0000
0000
,
0000
0000
0000
0000
,
0000
0000
0000
0000
,
0000
0000
0000
0000
,
0000
0000
0000
0000
,
0000
0000
0000
0000
,
0000
0000
0000
0000
,
0220
0000
0000
0000
,
0000
0000
0000
0000
,
0000
0000
0000
0000
,
0000
0000
0000
0000
,
0000
0000
0000
0000
,
0000
0000
0000
0000
,
0000
0000
0000
0330
,
0010
0010
0100
0010
,
1000
0000
0001
0000
,
0010
0000
0001
0000
,
0100
0000
0010
0000
,
1000
0000
0010
0000
,
0100
0000
0001
0000
,
1000
0000
0100
0000
,
1000
0000
0010
0000
,
0100
0000
0001
0000
,
1001
0000
0001
0000
,
1000
0000
0010
0000
,
0100
0000
0010
0000
,
1000
0000
0001
0000
,
0010
0000
0100
0000
,
0010
0000
0001
0000
,
0100
0000
0010
0000
,
1000
0000
0001
0000
,
0200
0000
0000
0000
,
0000
0000
0000
0300
,
0020
0000
0000
0030
,
2000
0000
0000
3000
,
0002
0000
0000
0003
,
2000
0000
0000
3000
,
0020
0000
0000
0030
,
2000
0000
0000
3000
,
1001
0001
1000
0100
,
2000
0000
0000
3000
0000
0000
0100
0000
,
1000
0000
0010
0000
0200
0000
0000
0300
,
0000
0000
0010
0010
,
0110
0000
0010
0010
,
0110
0000
0010
0010
,
0110
0000
0110
0000
,
0110
0110
0110
0110
,
0001
0100
1000
0100
,
0001
0100
1000
0100
,
0001
0100
1000
0100
,
0001
0000
0001
1000
,
1100
0000
1000
0001
,
0101
0000
0001
1000
,
0100
1000
0010
0100
,
0001
0000
0000
0000
,
1001
0010
0010
0010
,
0100
0010
1000
0001
,
0010
0100
0010
0001
,
0000
0000
0001
0100
,
0101
0000
1000
0100
,
1100
0000
1000
0010
,
1010
0000
1000
0000
,
0010
0100
0010
1000
,
0002
1003
0002
1003
,
2000
3001
2000
3001
,
2000
3020
0230
0302
,
0013
0000
0002
0010
,
0013
0000
0200
1000
,
1300
0000
0020
0100
,
0230
0310
0020
0031
,
0200
0301
0200
0310
,
0100
0010
1000
0001
,
1000
0001
0000
0100
0000
0000
0010
0000
,
1000
0000
0100
0000
0010
0001
0000
0010
,
0000
0000
0001
0100
,
1010
0000
1000
0100
,
0011
0000
0001
0100
,
0010
1000
0001
0100
,
0010
0000
0000
0000
0000
0000
0000
0000
0000
0000
0000
0000
0000
0000
0000
0000
0000
0000
0000
0000
0000
0000
0000
0000
0000
0000
0000
0000
0000
0000
0000
0000
0000
0000
0000
0000
0000
0000
0000
0000
0000
0000
0000
0000
0000
0000
0000
0000
1000
0000
0000
0000
0000
0000
0000
0000
0000
0000
0000
0000
0000
0000
0000
0000
0000
0000
0000
0000
0000
0000
0000
0000
0000
0000
0000
0000
0000
0000
0000
0000
0000
0000
0000
0000
0000
0000
0000
0000
0000
0000
0000
0000
0000
0000
0000
0000
0100
0000
0000
0000
0000
0000
0000
0000
0000
0000
0000
0000
0000
0000
0000
0000
0000
0000
0000
0000
0000
0000
0000
0000
0000
0000
0000
0000
0000
0000
0000
0000
0000
0000
0000
0000
0000
0000
0000
0000
0000
0000
0000
0000
0000
0000
0000
0000
0020
0000
0000
0000
0000
0000
0000
0000
0000
0000
0000
0000
0000
0000
0000
0000
0000
0000
0000
0000
0000
0000
0000
0000
0000
0030
0000
0000
0000
0000
0000
0000
0000
0000
0000
0000
0000
0000
0000
0000
0000
0000
0000
0000
0000
0000
0000
0000
;

//---------------dance-single - ----------------
#NOTES:
     dance-single:
     :
     Beginner:
     1:
     0.105,0.218,0.008,0.063,0.000: // measure 1
0000
0000
0000
0000
,  // measure 2
0000
0000
0000
0000
,  // measure 3
0000
0000
0000
0000
,  // measure 4
0000
0000
0000
0000
,  // measure 5
0000
0000
0000
0000
,  // measure 6
0000
0000
0000
0000
,  // measure 7
0000
0000
0000
0000
,  // measure 8
0000
0000
0000
0000
,  // measure 9
0010
0000
0000
0000
,  // measure 10
0000
0000
0000
0000
,  // measure 11
1000
0000
0000
0000
,  // measure 12
0000
0000
0000
0000
,  // measure 13
0001
0000
0000
0000
,  // measure 14
0000
0000
0000
0000
,  // measure 15
0100
0000
0000
0000
,  // measure 16
0010
0000
0010
0000
,  // measure 17
0010
0000
0000
0000
,  // measure 18
1000
0000
0000
0000
,  // measure 19
0001
0000
0000
0000
,  // measure 20
0100
0000
0000
0000
,  // measure 21
0010
0000
0000
0000
,  // measure 22
1000
0000
0000
0000
,  // measure 23
0100
0000
0000
0000
,  // measure 24
1000
0000
1000
0000
,  // measure 25
1000
0000
0000
0000
,  // measure 26
0001
0000
0000
0000
,  // measure 27
0100
0000
0000
0000
,  // measure 28
0010
0000
0000
0000
,  // measure 29
1000
0000
0000
0000
,  // measure 30
0001
0000
0000
0000
,  // measure 31
0010
0000
0000
0000
,  // measure 32
0100
0000
0100
0000
,  // measure 33
0100
0000
0000
0000
,  // measure 34
0000
0000
0000
0000
,  // measure 35
0010
0000
0000
0000
,  // measure 36
0000
0000
0000
0000
,  // measure 37
0001
0000
0000
0000
,  // measure 38
0000
0000
0000
0000
,  // measure 39
1000
0000
0000
0000
,  // measure 40
0000
0000
0010
0000
,  // measure 41
0100
0000
0000
0000
,  // measure 42
0000
0000
0000
0000
,  // measure 43
0010
0000
0000
0000
,  // measure 44
0000
0000
0000
0000
,  // measure 45
1000
0000
0000
0000
,  // measure 46
1000
0000
0000
0000
,  // measure 47
1000
0000
1000
0000
,  // measure 48
0001
0000
1000
0000
,  // measure 49
1001
0000
0000
0000
,  // measure 50
0010
0000
0000
0000
,  // measure 51
1000
0000
0000
0000
,  // measure 52
0000
0000
0001
0000
,  // measure 53
0001
0000
1000
0000
,  // measure 54
1000
0000
0010
0000
,  // measure 55
0010
0000
0000
0000
,  // measure 56
0100
0000
0000
0000
,  // measure 57
0001
0000
0000
0000
,  // measure 58
1000
0000
0000
0000
,  // measure 59
0010
0000
0010
0000
,  // measure 60
0010
0000
0100
0100
,  // measure 61
0100
0000
0100
0100
,  // measure 62
0100
0000
0010
0010
,  // measure 63
0010
0000
1000
0000
,  // measure 64
0001
0000
0000
0000
,  // measure 65
2000
0000
0000
3000
,  // measure 66
0002
0000
0000
0003
,  // measure 67
2000
0000
0000
3000
,  // measure 68
0020
0000
0000
0030
,  // measure 69
0100
0000
0000
0000
,  // measure 70
0100
0000
0000
0000
,  // measure 71
0100
0000
0000
0000
,  // measure 72
0010
0000
0000
0000
,  // measure 73
0002
0000
0000
0003
,  // measure 74
2000
0000
0000
3000
,  // measure 75
0020
0000
0000
0030
,  // measure 76
0200
0000
0000
0300
,  // measure 77
0010
0000
0100
0100
,  // measure 78
0100
0000
0010
0010
,  // measure 79
1000
0000
0001
0000
,  // measure 80
0010
0000
0100
0000
;
