#TITLE:World in Motion;
#SUBTITLE:;
#ARTIST:Jondi & Spesh;
#TITLETRANSLIT:;
#SUBTITLETRANSLIT:;
#ARTISTTRANSLIT:;
#CREDIT:;
#BANNER:bn.png;
#BACKGROUND:bg.png;
#LYRICSPATH:;
#CDTITLE:;
#MUSIC:World in Motion.mp3;
#OFFSET:0.019;
#SAMPLESTART:31.164;
#SAMPLELENGTH:12.000;
#SELECTABLE:YES;
#BPMS:0.000=123.000;
#STOPS:;
#BGCHANGES:;

//---------------dance-single - ----------------
#NOTES:
     dance-single:
     :
     Hard:
     6:
     0.347,0.358,0.117,0.117,0.000:
0000
0000
0000
0000
,
0000
0000
0000
0000
,
0000
0000
0000
0000
,
0000
0000
0000
0000
,
0010
0000
0100
0010
1000
0000
0000
0000
,
0010
0000
1000
0001
1000
0000
0000
0000
,
0100
0000
0010
1000
0100
0000
0000
0000
,
0010
0000
0001
0010
0001
0000
0000
0000
,
1000
0000
0001
0100
0001
0000
0000
0000
,
1000
0000
0010
0100
0010
0000
0000
0000
,
0100
0000
0001
0100
0001
0000
0000
0000
,
0010
0000
0100
1000
0100
0000
0000
0000
,
1000
0000
0001
1000
0001
0000
0000
0000
,
0010
0000
0100
0001
0100
0000
0000
0000
,
0001
0000
1000
0100
1000
0000
0000
0000
,
0020
0000
2030
0000
,
3100
0000
1000
0100
1000
0000
1100
0000
,
0010
0000
0010
0100
0010
0000
0110
0000
,
0100
0000
0100
1000
0010
0000
0101
0000
,
0001
0000
1000
0001
0100
0000
0100
0000
,
0001
0100
0000
0100
0000
0010
0000
1000
,
0010
0100
0000
0010
0000
1000
0000
0001
,
1000
0000
0100
0010
0000
0001
0000
0010
,
0001
0000
0100
0010
1000
0000
0001
0000
,
1000
0001
1000
0100
,
1000
0001
0010
0011
,
0001
0000
0100
0010
1000
0000
0100
0000
,
1000
0010
0200
0301
,
1001
0000
0010
0010
0010
0000
0110
0000
,
0100
0000
0010
1000
0100
0000
0011
0000
,
0001
0000
1000
1000
1000
0000
0100
0000
,
1000
0000
0010
0100
0001
0000
1000
0000
,
1001
0000
0010
0100
0010
0000
0100
0010
,
0100
0000
0010
0100
0010
0000
0100
0010
,
0100
0000
0010
0100
0010
0000
0100
0010
,
0100
0000
0010
0100
0010
0000
1000
0001
,
1000
0000
0001
1000
0001
0000
1000
0001
,
1000
0000
0001
1000
0001
0000
1000
0001
,
1000
0000
0001
1000
0001
0000
1000
0001
,
1000
0000
0001
1000
0001
0000
1000
0000
,
0200
0000
1300
0010
0100
0000
0000
0000
,
0200
0000
0301
1000
0100
0000
0000
0000
,
0100
0000
1000
0010
0200
0000
0301
0000
,
1000
0000
0001
0100
0010
0000
1010
0000
,
0001
0000
0100
0010
1000
0000
1100
0000
,
1000
0000
0001
0100
0010
0000
1010
0000
,
1000
0001
0100
0020
,
2030
3200
0320
0200
,
0330
0000
0000
0000
;

//---------------dance-single - ----------------
#NOTES:
     dance-single:
     :
     Medium:
     4:
     0.268,0.358,0.096,0.106,0.000:
0000
0000
0000
0000
,
0000
0000
0000
0000
,
0000
0000
0000
0000
,
0000
0000
0000
0000
,
0001
1000
0100
0000
,
0000
0000
0000
0000
,
0100
1000
0010
0000
,
0000
0000
0000
0000
,
0100
0001
1000
0001
,
1000
0001
0100
0000
,
0001
1000
0100
1000
,
0010
0100
0001
0000
,
1000
0001
0010
0010
,
0100
0010
0001
0000
,
1000
0001
0100
0010
,
2000
0000
0200
3300
,
1000
0000
1000
0100
1000
0000
0000
0000
,
0010
0000
0001
0010
0001
0000
0000
0000
,
0100
0000
0001
0100
0001
0000
0000
0000
,
0010
0000
0100
0010
0100
0000
0000
0000
,
1000
0000
0100
1000
0100
0000
0000
0000
,
1000
0000
0001
1000
0001
0000
0000
0000
,
0100
0000
0010
0100
0010
0000
0000
0000
,
1000
0000
0001
0100
0001
0000
0000
0000
,
1001
0000
0000
0010
1000
0000
0000
0000
,
1000
0000
0001
0100
0001
0000
0000
0000
,
1010
0000
0000
0010
1000
0000
0000
0000
,
1100
0000
0000
1000
0001
0100
0001
0000
,
0001
2000
0200
3300
,
1000
0000
0001
0000
0010
0001
0010
0000
,
0001
0100
0010
1000
,
0001
2000
0200
3300
,
1000
0001
0100
0000
,
0001
1000
0010
0000
,
1000
0001
0010
0000
,
0010
0001
0100
0000
,
0001
1000
0001
1000
,
0100
1000
0010
0100
,
0001
0010
0100
0010
,
0001
1000
0100
1000
,
0010
0000
0100
0000
0001
0100
0001
0000
,
0100
0000
0001
0000
0010
0001
0010
0000
,
0001
0000
0010
0000
0100
1000
0100
0000
,
1000
0000
0010
0000
0100
0010
0100
0000
,
1001
0010
1001
0000
,
1001
0100
1001
0000
,
1010
0100
0101
1000
,
0002
0023
0230
2000
,
3300
0000
0000
0000
;

//---------------dance-single - Copied from----------------
#NOTES:
     dance-single:
     Copied from:
     Easy:
     2:
     0.172,0.203,0.000,0.032,0.000: // measure 1
0000
0000
0000
0000
,  // measure 2
0000
0000
0000
0000
,  // measure 3
0000
0000
0000
0000
,  // measure 4
0000
0000
0000
0000
,  // measure 5
0010
0000
0000
0000
,  // measure 6
0000
0000
0000
0000
,  // measure 7
0010
0000
0000
0000
,  // measure 8
0000
0000
0000
0000
,  // measure 9
1000
0001
1000
0000
,  // measure 10
0001
1000
0001
0000
,  // measure 11
0001
0100
0001
0000
,  // measure 12
0001
1000
0001
0000
,  // measure 13
0100
1000
0100
0000
,  // measure 14
1000
0010
1000
0000
,  // measure 15
0100
0001
0100
0000
,  // measure 16
0002
0000
2000
3003
,  // measure 17
1000
1000
1000
0000
,  // measure 18
0001
0001
0001
0000
,  // measure 19
0100
0100
0100
0000
,  // measure 20
0010
0010
0010
0000
,  // measure 21
1000
1000
1000
0000
,  // measure 22
0001
0001
0001
0000
,  // measure 23
0100
0100
0100
0000
,  // measure 24
0010
0010
0010
0000
,  // measure 25
1000
0001
0100
0000
,  // measure 26
0001
1000
0100
0000
,  // measure 27
1000
0001
0010
0000
,  // measure 28
0001
1000
0010
0000
,  // measure 29
0010
1000
0100
0000
,  // measure 30
0100
1000
0010
0000
,  // measure 31
0010
0100
0001
0000
,  // measure 32
0001
0100
0010
0000
,  // measure 33
0100
0000
0100
0000
,  // measure 34
0100
0000
0100
0000
,  // measure 35
0100
0000
0100
0000
,  // measure 36
0100
0000
0100
0000
,  // measure 37
0010
0000
0010
0000
,  // measure 38
0010
0000
0010
0000
,  // measure 39
0010
0000
0010
0000
,  // measure 40
0010
0000
0010
0000
,  // measure 41
1000
0001
0100
0000
,  // measure 42
1000
0001
0010
0000
,  // measure 43
0010
0001
0010
0000
,  // measure 44
0001
0100
0010
0000
,  // measure 45
0100
0010
1000
0000
,  // measure 46
0001
1000
0100
0000
,  // measure 47
1000
0001
0200
0000
,  // measure 48
0000
0000
0000
0300
;

//---------------dance-single - ----------------
#NOTES:
     dance-single:
     :
     Beginner:
     1:
     0.090,0.173,0.011,0.000,0.000:
0000
0000
0000
0000
,
0000
0000
0000
0000
,
0000
0000
0000
0000
,
0000
0000
0000
0000
,
0100
0000
0000
0000
,
0000
0000
0000
0000
,
0100
0000
0000
0000
,
0000
0000
0000
0000
,
0010
0000
0000
0000
,
1000
0000
0000
0000
,
0001
0000
0000
0000
,
1000
0000
0000
0000
,
0010
0000
0000
0000
,
0100
0000
0000
0000
,
0001
0000
0000
0000
,
1000
0000
1000
0000
,
1001
0000
0000
0000
,
0100
0000
0000
0000
,
0010
0000
0000
0000
,
1000
0000
0000
0000
,
1000
0000
0000
0000
,
0001
0000
0000
0000
,
0100
0000
0000
0000
,
0010
0000
0000
0000
,
1000
0000
1000
0000
,
1000
0000
0000
0000
,
0001
0000
0000
0000
,
0100
0000
0000
0000
,
0010
0000
0010
0000
,
0010
0000
0000
0000
,
1000
0000
0000
0000
,
0001
0000
0000
0000
,
0100
0000
0000
0000
,
0100
0000
0000
0000
,
0100
0000
0000
0000
,
0100
0000
0000
0000
,
0010
0000
0000
0000
,
0010
0000
0000
0000
,
0010
0000
0000
0000
,
0010
0000
0000
0000
,
1000
1000
1000
0000
,
0001
0001
0001
0000
,
1000
1000
1000
0000
,
0001
0001
0001
0000
,
0010
0010
0010
0000
,
0100
0100
0100
0000
,
0010
0010
0010
0000
;
