#TITLE:Wartran Troopers;
#SUBTITLE:;
#ARTIST:Jimmy Weckl;
#TITLETRANSLIT:;
#SUBTITLETRANSLIT:;
#ARTISTTRANSLIT:;
#CREDIT:;
#BANNER:bn.png;
#BACKGROUND:bg.png;
#LYRICSPATH:;
#CDTITLE:;
#MUSIC:Wartran Troopers.mp3;
#OFFSET:-0.038;
#SAMPLESTART:15.880;
#SAMPLELENGTH:12.000;
#SELECTABLE:YES;
#BPMS:0.000=140.000;
#STOPS:;
#BGCHANGES:;

//---------------dance-single - ----------------
#NOTES:
     dance-single:
     :
     Hard:
     7:
     0.371,0.420,0.277,0.234,0.255:
0000
0000
0000
0000
,
0000
0000
0000
0000
,
0000
0000
0000
0000
,
0000
0000
0000
0000
,
0000
0000
0000
0000
,
0000
1001
0000
1001
,
0000
0000
0000
0001
1000
0001
1000
0000
0001
0100
0000
0000
,
0000
0010
0100
0010
,
1000
0001
1100
0000
,
0000
0000
0000
1000
0000
0000
0001
0000
0001
0100
0000
0000
,
0010
0000
0100
0010
0000
0000
0100
0000
0010
1000
0000
0000
,
0000
0000
1000
0200
0000
0000
0300
0000
1000
0100
0000
0100
,
0010
0000
0010
0002
0000
0000
0000
0000
0000
0010
0000
0000
,
0003
0000
0000
0001
0000
0000
0100
0000
0001
0100
0000
0000
,
0100
0000
0000
0010
0000
0000
0100
0000
0010
1000
0000
0000
,
0000
0000
1000
0200
0000
0000
0300
0000
1000
0001
0000
0001
,
0100
0000
0010
2000
0000
0000
0000
0000
0000
0000
0000
0000
,
3000
0000
0001
1000
0000
0000
0001
0000
0100
0010
0000
0000
,
0100
1010
0011
1001
,
0000
0000
0001
0200
0000
0000
0310
0000
0010
1000
0000
1000
,
0001
0000
0001
0200
0000
0000
0000
0000
0000
0300
0000
0000
,
0010
0000
0000
0010
0000
0010
1000
0000
0000
1001
0000
0000
,
1000
0000
1000
0100
0000
0010
0001
0000
0001
1000
0000
0000
,
0101
0000
0001
0100
0000
0000
0010
0000
0000
1000
0000
0000
,
0001
0022
0000
0033
,
0000
0001
1000
0010
,
1000
1100
1100
0000
,
0010
0110
0010
0001
,
0010
0220
0000
0330
,
0001
0000
0000
0101
0000
0000
0010
0000
0100
0010
0000
0000
,
1000
0000
0000
0001
0000
0001
0000
0000
0000
0000
0000
0000
,
0010
1001
0100
0010
,
0001
0010
1000
0100
,
1000
0000
0100
1000
0000
1000
0010
0000
0100
0001
0000
0001
,
0010
0000
0000
0200
0000
0000
0310
0000
0000
0000
0000
0010
,
0100
0000
0100
1000
0000
1000
0001
0000
0001
0010
0000
0000
,
0100
2000
0000
3000
,
0010
1001
0010
0100
,
0010
1000
1001
0201
,
0310
0000
0100
0010
0000
0000
1000
0000
0000
0101
0000
0000
,
1100
0220
0000
0330
,
0000
0001
0000
1000
,
0000
0001
1000
0001
,
0000
1000
0000
0001
,
0000
1000
0001
1000
,
0000
0202
0303
2200
,
3300
1010
0011
1001
,
0000
1000
1000
0001
,
0001
1000
0101
0000
,
0000
0000
0000
0010
0000
0000
0100
0000
0010
1000
0000
0000
,
0001
0000
0001
0100
0000
0000
0010
0000
1000
0010
0000
0000
,
1000
0000
1000
0200
0000
0000
0000
0000
0000
1300
0000
1000
,
0100
0000
0010
0002
0000
0000
0000
0000
0000
0003
0000
0000
,
0000
0000
0000
0101
0000
0000
0010
0000
1000
0001
0000
0000
,
0010
0000
0000
0100
0000
0010
0001
0000
0001
0100
0000
0000
,
0000
0000
1000
0200
0000
0000
0000
0000
1300
0100
0000
0010
,
0001
0000
0001
0200
0000
0000
0000
0000
0000
0300
0000
0000
,
0000
0000
0100
0010
0000
0000
0100
0000
0010
1000
0000
0000
,
0100
0011
0011
0011
,
0000
0000
0001
0100
0000
0010
1000
0000
1000
0100
0000
0010
,
0001
0000
0002
2000
0000
0000
0000
0000
0000
3003
0000
0000
,
0000
1000
0001
0100
,
0010
1000
0010
0100
,
0010
0000
1000
0100
0000
0000
0010
0000
0000
0001
0000
0000
,
0100
2002
0000
3003
;

//---------------dance-single - ----------------
#NOTES:
     dance-single:
     :
     Medium:
     5:
     0.321,0.392,0.424,0.225,0.061:
0000
0000
0000
0000
,
0000
0000
0000
0000
,
0000
0000
0000
0000
,
0000
0000
0000
0000
,
0000
0000
0000
0000
,
0000
1001
0000
1001
,
0000
1001
1001
1001
,
0000
0001
0001
1000
,
1000
0010
0101
0000
,
0000
0001
1000
1010
,
0001
0000
0000
1010
0000
0000
0001
0000
1000
0001
0000
0000
,
0000
0000
0000
0200
0000
0000
0000
0300
0000
0001
0000
0100
,
0010
0000
0100
0020
0000
0000
0000
0000
0000
0030
0000
0000
,
0000
0001
0010
0011
,
0011
0000
0000
1000
0000
0000
0100
0000
1000
0010
0000
0000
,
0000
0200
0000
0310
,
1000
2002
0000
3003
,
0000
0001
0100
0010
,
1000
1001
1001
2002
,
3003
0000
0000
0001
0000
0000
0100
0000
0000
0010
0000
1000
,
0010
0000
1000
0020
0000
0000
0000
0000
0000
0030
0000
0000
,
1000
0001
0100
0101
,
0001
1000
0100
0101
,
0001
0110
0010
1010
,
0011
2002
0000
3003
,
0000
0001
0100
0001
,
0010
0011
0011
0000
,
0000
0001
1000
0010
,
1100
0000
0000
2200
0000
0000
0000
0000
0000
0000
3300
0000
,
0000
0010
1000
0010
,
0100
0010
0000
0000
,
0010
0100
0010
1000
,
0001
0202
0000
0303
,
0001
0000
0000
0100
0000
0000
0010
0000
0000
1000
0000
0010
,
1000
0000
1000
0010
0000
0000
0100
0000
0000
0000
0000
0000
,
0010
1000
0001
0010
,
0011
0022
0000
0033
,
0001
0100
0010
1000
,
0001
0100
0010
1001
,
0010
0100
1010
0001
,
0011
2002
0000
3003
,
0000
0001
0000
1000
,
0000
0001
0001
0001
,
0000
1000
0000
0001
,
0000
1000
1000
1000
,
0000
0110
0000
0110
,
0000
0110
0110
0110
,
0000
0010
1000
0001
,
0010
0100
0011
0000
,
0000
0001
0000
0101
,
0000
0000
0010
0100
0000
0000
0000
0000
0000
1010
0000
0000
,
0000
0000
1000
0200
0000
0000
0000
0000
0000
1000
0000
0000
,
1000
0020
0000
0330
,
0000
0000
0000
0011
0000
0000
0000
0000
0001
0100
0000
0000
,
0000
0000
0000
0110
0000
0000
0000
0000
0010
1000
0000
0000
,
0000
1001
0000
0001
,
0100
0020
0000
0030
,
0000
0100
0010
1000
,
0001
1001
1001
2002
,
3003
0000
0000
0001
0000
0000
0100
0000
0000
0010
0000
0010
,
1000
0000
0010
2000
0000
0000
0000
0000
0000
3000
0000
0000
,
1000
0100
0010
0001
,
0100
0010
1000
1001
,
0001
0100
1010
0001
,
0011
2200
0000
3300
;

//---------------dance-single - ----------------
#NOTES:
     dance-single:
     :
     Easy:
     3:
     0.204,0.280,0.112,0.087,0.000: // measure 1
0000
0000
0000
0000
,  // measure 2
0000
0000
0000
0000
,  // measure 3
0000
0000
0000
0000
,  // measure 4
0000
0000
0000
0000
,  // measure 5
0000
0000
0000
0000
,  // measure 6
0000
1001
0000
1001
,  // measure 7
0000
1001
1001
1001
,  // measure 8
0000
0010
0000
0100
,  // measure 9
0000
0001
0011
0000
,  // measure 10
0000
1000
0000
0001
,  // measure 11
0000
0100
0100
0100
,  // measure 12
0000
0010
0000
1000
,  // measure 13
0100
0020
0000
0030
,  // measure 14
0000
0100
0000
1000
,  // measure 15
0000
0010
0100
0001
,  // measure 16
0000
1000
0000
0001
,  // measure 17
0001
0200
0000
0300
,  // measure 18
0000
0010
0000
1000
,  // measure 19
0000
0001
1000
0100
,  // measure 20
0000
0010
0000
0100
,  // measure 21
0100
0020
0000
0030
,  // measure 22
0000
0100
0000
0010
,  // measure 23
0000
1000
0001
0100
,  // measure 24
0001
0010
0100
0010
,  // measure 25
0001
2200
0000
3300
,  // measure 26
0000
1000
0000
0001
,  // measure 27
0000
0010
0100
0000
,  // measure 28
0000
1000
0000
0100
,  // measure 29
0000
0001
0000
0000
,  // measure 30
0000
0001
0000
0100
,  // measure 31
0000
0010
0000
0000
,  // measure 32
0000
0010
1000
0100
,  // measure 33
1000
0001
0000
0000
,  // measure 34
0000
0001
0000
1000
,  // measure 35
0000
0100
0100
0000
,  // measure 36
0000
1000
0000
0001
,  // measure 37
0010
0010
0000
0000
,  // measure 38
0000
0001
0000
1000
,  // measure 39
0000
0010
0100
0001
,  // measure 40
1000
0100
1000
0010
,  // measure 41
0100
0002
0000
0003
,  // measure 42
0000
1000
0000
0001
,  // measure 43
0000
1000
0001
1000
,  // measure 44
0000
0001
0000
1000
,  // measure 45
0000
0001
1000
0001
,  // measure 46
0000
0110
0000
0110
,  // measure 47
0000
0110
0110
0110
,  // measure 48
0000
0001
1000
0100
,  // measure 49
0001
0001
0001
0000
,  // measure 50
0000
0100
0000
0010
,  // measure 51
0000
1000
0001
0100
,  // measure 52
0000
0010
0000
1000
,  // measure 53
0100
0020
0000
0030
,  // measure 54
0000
0100
0000
1000
,  // measure 55
0000
0001
0001
0001
,  // measure 56
0000
1001
0000
0010
,  // measure 57
0100
0002
0000
0003
,  // measure 58
0000
1000
0000
0010
,  // measure 59
0000
0100
0100
0100
,  // measure 60
0000
0010
0000
1000
,  // measure 61
0001
0020
0000
0030
,  // measure 62
0000
0010
0001
0100
,  // measure 63
0010
1000
1000
1000
,  // measure 64
0100
1000
0010
0100
,  // measure 65
0001
0020
0000
0030
;

//---------------dance-double - ----------------
#NOTES:
     dance-double:
     :
     Challenge:
     7:
     0.405,0.476,0.597,0.242,0.199:
00000000
00000000
00000000
00000000
,
00000000
00000000
00000000
00000000
,
00000000
00000000
00000000
00000000
,
00000000
00000000
00000000
00000000
,
00000000
00000000
00000000
00000000
,
00000000
10010000
00000000
00110000
,
00000000
00110000
00001100
00011000
,
00000000
00001000
00100000
00010000
,
01000000
00100000
01010000
00000000
,
00000000
00000000
00000000
10000000
00000000
00000000
00010000
00000000
00100000
00010000
00000000
00000000
,
00100000
00000000
00001000
00010000
00000000
00000000
00000100
00000000
00001000
00000020
00000000
00000000
,
00000030
00000000
00000010
00000200
00000000
00000000
00000300
00000000
00000001
00000010
00000000
00000010
,
00000100
00000000
00000100
00002000
00000000
00000000
00000000
00000000
00000000
00003010
00000000
00000000
,
00000000
00000000
00000000
00000110
00000000
00000000
00001010
00000000
00000010
00001000
00000000
00000000
,
00001100
00000000
00000000
00000100
00000000
00000000
00010000
00000000
00001000
01000000
00000000
00000000
,
00000000
00000000
01000000
00020000
00000000
00000000
00030000
00000000
00100000
00010000
00000000
00010000
,
00001000
00000000
00001000
00020000
00000000
00000000
00000000
00000000
00000000
00030000
00000000
00000000
,
00000000
00000000
00001000
00100000
00000000
00000000
00010000
00000000
00000000
01000000
00000000
00000000
,
00100000
10010000
10010000
10010000
,
00000000
00000000
10000000
01000000
00000000
00000000
01100000
00000000
00000000
00100000
00000000
00001000
,
00010000
00000000
00010000
00000020
00000000
00000000
00000000
00000000
00000000
00000030
00000000
00000000
,
00000100
00001001
00000010
00001001
,
00000001
00000101
00001010
00001100
,
00000100
00010100
00011000
00110000
,
01010000
02002000
00000000
03003000
,
00000000
00010000
00100000
00001000
,
00010000
00011000
00010100
00000000
,
00001000
00000001
00000010
00000110
,
00001100
00002002
00000000
00003003
,
00000001
00001010
00000100
00001100
,
00000100
00000000
00000000
00010000
00000000
00010000
00000000
00000000
00000000
00000000
00000000
00000000
,
00001000
00110000
11000000
10010000
,
00110000
00202000
00000000
00303000
,
00100000
00000000
00010000
00100000
00000000
00100000
00001000
00000000
00001000
00010000
00000000
00010000
,
00000100
00000000
00000000
00001100
00000000
00000000
00000011
00000000
00000000
00000000
00000000
00000001
,
00001000
00000000
00001000
00000100
00000000
00000100
00010000
00000000
00010000
00001000
00000000
00001000
,
00100000
00000000
00010000
00200000
00000000
00000000
01000000
00000000
00000000
01300000
00000000
00000000
,
00100000
10010000
11000000
10010000
,
01010000
00110000
00011000
00001100
,
00000110
00000000
00000000
00000011
00000000
00000000
00000101
00000000
00000000
00000001
00000000
00000100
,
00000010
00002002
00000000
00003003
,
00000000
00001000
00000000
00000010
,
00000000
00000010
00010000
00001000
,
00000000
00010000
00000000
00001000
,
00000000
00010000
00001000
00010000
,
00000000
00022000
00033000
00022000
,
00033000
00011000
00011000
00011000
,
00002000
00103000
00010000
01000000
,
00100000
10000000
01010000
00000000
,
10000000
00000000
00000000
00110000
00000000
00000000
00010000
00000000
00100000
00001000
00000000
00000000
,
00010000
00000000
00000100
00001000
00000000
00000000
00000010
00000000
00000100
00000010
00000000
00000000
,
00000000
00000000
00000100
00000002
00000000
00000000
00000003
00000000
00000001
00000010
00000000
00000010
,
00000100
00000000
00000100
00002000
00000000
00000000
00000000
00000000
00000000
00003010
00000000
00000000
,
00000000
00000000
00000000
00001010
00000000
00000000
00001100
00000000
00000100
00010000
00000000
00000000
,
00011000
00000000
00000000
00001000
00000000
00000000
00100000
00000000
00010000
02000000
00000000
00000000
,
03000000
00000000
00100000
20000000
00000000
00000000
30000000
00000000
00010000
10000000
00000000
10000000
,
01000000
00000000
00100000
00002000
00000000
00000000
00000000
00000000
00000000
00003000
00000000
00000000
,
00000000
00100000
00001000
00010000
,
00000100
00001100
01010000
00011000
,
00000000
00000000
00000000
00001000
00000000
00000000
00100000
00000000
00000000
00010000
00000000
00010000
,
01000000
00000000
01000000
00200000
00000000
00000000
00000000
00000000
00000000
00300000
00000000
00000000
,
01000000
01100000
00110000
00011000
,
00001100
00000110
00000011
00000101
,
00001002
00000000
00000000
00000100
00000000
00000000
00000013
00000000
00000000
00000001
00000000
00000001
,
00000010
00000000
00000100
00002000
00000000
00000000
00000000
00000000
00000000
00003000
00000000
00000000
;

//---------------dance-single - ----------------
#NOTES:
     dance-single:
     :
     Beginner:
     1:
     0.119,0.252,0.061,0.035,0.000:
0000
0000
0000
0000
,
0000
0000
0000
0000
,
0000
0000
0000
0000
,
0000
0000
0000
0000
,
0000
0000
0000
0000
,
0000
1000
0000
0001
,
0000
1000
1000
1000
,
0000
0010
0000
0000
,
0000
0000
0110
0000
,
0000
0001
0000
0000
,
0000
1000
0000
0010
,
0000
0100
0000
0000
,
0000
0020
0000
0030
,
0000
1000
0000
0000
,
0000
0001
0000
0000
,
0000
0100
0000
0010
,
0000
2000
0000
3000
,
0000
0001
0000
0000
,
0000
1000
1000
1000
,
0000
0010
0000
0000
,
0000
0100
0000
0000
,
0000
0001
0000
1000
,
0000
0001
0000
1000
,
0000
0001
0000
1000
,
0000
1001
0000
0000
,
0000
0010
0000
0000
,
0000
0000
0000
0000
,
0000
0100
0000
0000
,
0000
0000
0000
0000
,
0000
0001
0000
0000
,
0000
0000
0000
0000
,
0000
1000
0000
1000
,
0000
1000
0000
0000
,
0000
0001
0000
0000
,
0000
1000
0000
0000
,
0000
0010
0000
0000
,
0000
0100
0000
0000
,
0000
0001
0000
0000
,
0000
1000
0000
0000
,
0000
0010
0000
0100
,
0000
0110
0000
0000
,
0000
0001
0000
0000
,
0000
1000
0000
0000
,
0000
0001
0000
0000
,
0000
1000
0000
0000
,
0000
0110
0000
0010
,
0000
0100
0100
0100
,
0000
0001
0000
0000
,
0000
1000
1000
0000
,
0000
0001
0000
0000
,
0000
1000
0000
0000
,
0000
0010
0000
0000
,
0000
0100
0000
0000
,
0000
0001
0000
0000
,
0000
1000
0000
0000
,
0000
0010
0000
0100
,
0100
0100
0000
0000
,
0000
0010
0000
1000
,
0000
1001
1001
1001
,
0000
0010
0000
0100
,
0100
0100
0000
0000
,
0000
0001
0000
1000
,
0000
0001
0000
1000
,
0000
0001
1000
0001
,
2000
0002
0000
3003
;
